#TITLE:DEJA VU;
#SUBTITLE:(Freemasons Radio Mix);
#ARTIST:Beyonce feat. Jay-Z;
#TITLETRANSLIT:;
#SUBTITLETRANSLIT:;
#ARTISTTRANSLIT:;
#CREDIT:;
#BANNER:DEJA VU (Freemasons Radio Mix).png;
#BACKGROUND:DEJA VU (Freemasons Radio Mix)-bg.png;
#LYRICSPATH:;
#CDTITLE:Deja Vu.png;
#MUSIC:DEJA VU (Freemasons Radio Mix).mp3;
#OFFSET:-7.818;
#SAMPLESTART:75.880;
#SAMPLELENGTH:12.000;
#SELECTABLE:YES;
#BPMS:0.000=126.016;
#STOPS:;
#BGCHANGES:;

//---------------dance-single - Beginner----------------
#NOTES:
     dance-single:
     Beginner:
     Beginner:
     1:
     0.194,0.208,0.105,0.000,0.000:
0001
0000
0001
0000
,
1000
0000
1000
0000
,
0010
0000
0010
0000
,
1001
0000
1001
0000
,
0001
0000
1000
0000
,
0001
0001
0001
0001
,
0001
0000
1000
0000
,
0010
0010
0010
0010
,
0010
0000
0100
0000
,
1000
1000
1000
1000
,
0001
0000
1001
0000
,
1000
1000
1000
0000
,
0001
0001
0001
0000
,
1000
1000
1000
0000
,
0100
0100
0100
0000
,
0010
0010
0010
0000
,
1000
1000
1000
0000
,
0001
0001
0001
0000
,
0100
0100
0100
0000
,
0010
0000
0010
0000
,
1001
0000
0001
0000
,
1001
0000
1000
1000
,
1001
0000
0001
0000
,
0010
0000
0100
0100
,
0110
0000
1000
0000
,
0001
0000
1000
0000
,
0001
0000
0010
0000
,
0100
0000
1000
1000
,
1000
0000
0001
0000
,
0010
0010
0010
0010
,
0100
0000
0100
0000
,
0100
0100
0100
0100
,
1000
0000
1000
0000
,
1000
1000
1000
1000
,
0001
0000
0001
0000
,
1001
0000
1001
0000
,
0010
0010
0010
0000
,
0100
0100
0100
0000
,
1000
1000
1000
0000
,
0001
0001
0001
0000
,
0100
0100
0100
0000
,
0010
0010
0010
0000
,
1000
1000
1000
0000
,
0001
0000
1000
0000
,
1001
0000
0000
0000
;

//---------------dance-single - Basic----------------
#NOTES:
     dance-single:
     Basic:
     Easy:
     3:
     0.258,0.324,0.315,0.000,0.000:
0001
0100
0001
0000
,
1000
0100
1000
0000
,
1001
0000
1001
0000
,
0010
0000
0100
0000
,
1000
0000
0001
0000
,
0010
0100
1000
0010
,
0100
0000
0010
0000
,
0100
0001
1000
0100
,
1000
0000
0001
0000
,
0010
0001
0010
0100
,
1000
0000
0001
0000
,
1001
0110
1001
0000
,
0001
0001
0001
0000
,
1000
1000
1000
0000
,
0010
0010
0010
0000
,
0100
0100
0100
0000
,
0001
0001
0001
0000
,
1000
1000
1000
0000
,
0001
0001
0001
0000
,
1001
0000
1001
0000
,
1001
0100
1000
0100
,
1000
0001
0100
0001
,
0010
0001
0010
0001
,
0010
1000
0010
1000
,
0010
0001
0100
1000
,
0100
0001
0010
1000
,
0010
0001
0100
1000
,
0100
0001
0010
1001
,
1001
0000
0100
0000
,
1000
1000
0001
0001
,
1001
0000
0110
0000
,
0010
0010
0100
0100
,
0110
0000
1001
0000
,
0001
0001
0010
0010
,
0110
0000
0110
0000
,
0100
0100
1000
0000
,
1001
0001
0001
1001
,
1000
1000
1000
1001
,
0110
0010
0010
0110
,
0110
1000
1000
1001
,
1001
0001
0001
1001
,
1001
0010
0010
0110
,
0110
1000
1000
0110
,
0001
0000
1000
0000
,
1001
0000
0000
0000
;

//---------------dance-single - Trick----------------
#NOTES:
     dance-single:
     Trick:
     Medium:
     5:
     0.365,0.347,0.263,0.074,0.000:
0002
0000
1003
0000
,
2000
0000
3001
0000
,
0020
0000
0130
0000
,
1001
0000
0101
0000
,
1001
0000
0100
1000
0100
0000
1001
0000
,
0001
0010
0001
0000
1000
0001
1000
0000
,
1001
0000
1100
0000
,
0001
0100
0001
0000
0010
0100
0010
0000
,
0110
0000
1001
0000
,
0100
0001
0100
0000
0001
0010
0001
0000
,
0011
0000
1001
0000
,
0100
1000
0100
1000
0100
0000
1001
0000
,
0001
0100
0001
0100
0001
0000
1001
0000
,
0010
0100
0010
0100
0010
0000
0110
0000
,
0100
1000
0100
1000
0100
0000
1001
0000
,
0100
0001
0100
0001
0100
0000
1001
0000
,
0100
1000
0100
1000
0100
0000
1001
0000
,
0010
0100
0010
0100
0010
0000
1010
0000
,
1000
0100
1000
0100
1000
0000
1100
0000
,
0001
0001
1000
1000
,
1001
0000
0001
0000
1000
0001
1000
0000
,
0001
0000
0010
0000
0100
1000
0100
0000
,
1000
0000
0010
0000
0100
0010
0100
0000
,
0010
0000
0100
0000
0010
1000
0100
0000
,
0010
0001
0100
0000
0001
1000
0100
0000
,
1000
0001
0100
0000
0001
1000
0001
0000
,
1000
0100
1000
0000
0001
0010
0001
0000
,
0010
0001
0100
0000
0001
1000
0100
0000
,
1002
0000
0103
0001
,
1000
0100
1000
0000
0001
0100
0001
0000
,
2001
0000
3100
1001
,
0010
0100
1000
0000
0010
0100
0001
0000
,
0021
0000
0031
0001
,
1000
0100
1000
0000
0010
0100
0010
0000
,
2010
0000
3100
0000
,
1000
0001
0100
0001
0010
0000
0001
0000
,
1000
0000
0100
1000
0100
0000
1000
0000
,
0010
0000
0100
0010
1000
0000
0100
0000
,
0010
0000
0001
0010
0001
0000
0100
0000
,
0001
0000
1000
0100
1000
0000
1000
0000
,
0001
0100
0001
0000
1000
0001
1000
0000
,
0100
0010
0100
0000
1000
0010
1000
0000
,
0100
1000
0001
0000
0100
0001
1000
0000
,
0100
1000
0001
0100
,
1001
0000
0000
0000
;

//---------------dance-single - Maniac----------------
#NOTES:
     dance-single:
     Maniac:
     Hard:
     7:
     0.454,0.393,0.084,0.116,0.226:
0002
0000
0103
1100
,
2000
0000
3100
1001
,
0002
0000
0013
1001
,
0001
0000
1000
0000
0000
0000
0000
0100
0000
0000
1000
0000
0000
0000
0000
0000
,
2001
0000
3100
1001
,
0001
0001
0010
0010
0100
0100
1000
1000
,
0002
0000
0103
0100
,
0010
0010
1000
1000
0100
0100
0010
0010
,
0200
0000
1300
1000
,
0001
0001
0100
0100
0010
0010
1000
1000
,
0200
0000
1300
1000
,
1000
0000
0001
0000
0100
0000
0001
0000
1000
0000
0000
0000
0001
0010
0001
0010
,
0000
0000
0001
0000
0010
0000
0100
0000
1000
0000
0000
0000
1000
0100
1000
0100
,
0000
0000
1000
0000
0100
0000
0010
0000
0001
0000
0000
0000
0001
0010
0001
0010
,
0000
0000
0001
0000
0100
0000
0010
0000
1000
0000
0000
0000
1000
0010
1000
0010
,
0000
0000
1000
0000
0001
0000
0010
0000
0100
0000
0000
0000
1000
0100
1000
0100
,
0000
0000
1000
0000
0001
0000
0100
0000
0001
0000
0000
0000
0100
0001
0100
0001
,
0000
0000
0010
0000
0100
0000
1000
0000
0010
0000
0000
0000
0100
0010
0100
0010
,
0000
0000
1000
0000
0100
0000
0010
0000
0100
0000
0000
0000
1000
0100
1000
0100
,
0000
0000
1000
0000
0000
0000
0000
0001
0000
0000
0100
0000
0000
0000
0000
0000
,
1001
0000
0100
0000
1000
0000
0100
0000
1000
0000
0001
1000
0000
0000
0000
0000
,
0100
0000
0010
0000
0100
0000
1000
0000
0001
0000
0100
0001
0100
0000
0000
0000
,
0001
0000
0010
0000
0100
0000
1000
0000
0010
0000
0100
0010
0000
0000
0000
0000
,
1000
0000
0100
0000
1000
0000
0001
0000
1000
0000
0001
1000
0000
0000
0000
0000
,
0001
0000
0010
0000
0100
0000
1000
0000
0100
0000
1000
0100
1000
0000
0000
0000
,
0001
0000
0100
0000
0001
0000
0010
0000
0001
0000
0100
0001
0100
0000
0000
0000
,
0001
1000
0100
0010
0100
1000
0001
0100
,
0001
0000
0010
0000
0001
0000
0100
0000
0001
0100
0001
0000
1000
0000
0000
0000
,
0200
0000
1300
1000
,
1000
1000
0100
0100
0010
0010
0001
0001
,
0002
0000
0013
0100
,
1000
1000
0001
0001
0100
0100
0010
0010
,
2000
0000
3001
0001
,
0100
0100
0010
0010
0100
0100
0001
0001
,
0020
0000
0031
0011
,
0001
0000
1000
0000
0100
0000
1000
0000
0001
0000
0000
0000
0010
0100
0010
0100
,
0000
0000
1000
0000
0001
0000
0100
0000
0001
0000
0000
0000
0100
0001
0100
0001
,
0000
0000
0010
0000
0001
0000
0100
0000
0010
0000
0000
0000
1000
0010
1000
0010
,
0000
0000
1000
0000
0100
0000
0010
0000
0100
0000
0000
0000
0010
0100
1000
0001
,
0000
0000
0100
0000
0001
0000
1000
0000
0001
0000
0000
0000
0010
0100
1000
0010
,
0000
0000
0100
0000
0010
0000
1000
0000
0100
0000
0000
0000
0010
0100
1000
0001
,
0000
0000
0100
0000
0001
0000
0010
0000
0001
0000
0000
0000
0100
0010
1000
0100
,
0000
0000
0010
0000
0100
0000
1000
0000
0010
0000
0000
0000
1000
0001
1000
0100
,
0000
0000
1000
0000
0000
0000
0000
0001
0000
0000
0100
0000
0000
0000
0000
1001
;
