#TITLE:Climax Jump;
#SUBTITLE:;
#ARTIST:AAA DEN-O form;
#TITLETRANSLIT:;
#SUBTITLETRANSLIT:;
#ARTISTTRANSLIT:;
#CREDIT:DGJ (nddro.mistrust.com);
#BANNER:Climax Jump BN.png;
#BACKGROUND:Climax Jump BG.png;
#LYRICSPATH:;
#CDTITLE:cd.png;
#MUSIC:Climax Jump.mp3;
#OFFSET:-5.687;
#SAMPLESTART:50.828;
#SAMPLELENGTH:12.000;
#SELECTABLE:YES;
#BPMS:0.000=170.000;
#STOPS:;
#BGCHANGES:;

//---------------dance-single - ----------------
#NOTES:
     dance-single:
     :
     Hard:
     8:
     0.588,0.573,0.377,0.000,0.000:
1000
0010
0100
0001
,
0100
0010
1000
0100
,
1000
0010
0100
0001
,
0100
0010
1000
0100
,
1000
0010
0100
0001
,
0100
0010
1000
0100
,
1000
0010
0100
0001
,
0100
0010
1000
0100
,
1000
0010
0100
0001
0010
0001
0100
0010
,
1000
0100
1000
0010
0100
0001
0010
0001
,
0100
0010
1000
0100
1000
0010
0100
0001
,
0010
0001
0100
0010
1000
0010
0100
0001
,
1001
0000
0010
0000
0101
0000
1000
0010
,
0000
0101
0000
0001
0100
0000
1010
0000
,
0100
0001
0010
0000
0101
0000
1000
0010
,
0000
0101
0000
0001
0100
0000
1010
0000
,
1000
0100
1000
0001
0000
0100
0010
1000
,
0000
0010
0100
0001
0000
1000
0100
0000
,
0010
0001
0010
0100
0000
1000
0001
0100
,
0000
0001
1000
0010
0000
0100
0001
0000
,
1000
0100
1000
0001
0000
0100
0010
1000
,
0000
0010
0100
0001
0000
1000
0100
0000
,
0010
0001
0010
0100
0000
1000
0001
0010
,
0000
0000
1100
0000
0001
1000
0000
0010
,
1000
0100
1000
0001
1000
0010
1000
0100
,
0010
0001
0100
1000
0000
1000
0000
0100
,
0001
0010
0001
1000
0001
0100
0001
0010
,
0100
1000
0010
0100
0000
0100
0000
0000
,
0001
0100
0001
0100
0000
0010
1000
0000
,
0100
0010
0000
0001
1000
0000
0100
0000
,
0101
1100
1010
0011
,
0001
0100
0001
0010
0100
1000
0100
0000
,
1000
0010
0100
0001
0010
0001
0100
0010
,
1000
0100
1000
0010
0100
0001
0010
0001
,
0100
0010
1000
0100
1000
0010
0100
0001
,
0010
0001
0100
0010
0000
1000
0010
0000
,
0010
1000
0001
0100
0010
1000
0100
1000
,
0010
0100
0001
0010
0001
0100
0010
1000
,
0100
1100
1000
1001
,
0001
0011
0010
0110
,
1000
0010
0100
0001
0010
0100
0010
0001
,
0100
0010
1000
0010
0100
0001
0010
0100
,
0010
1100
0100
0011
,
0010
0100
0100
1000
0000
0010
1000
0000
,
0001
0100
0010
1000
0100
1000
0010
0100
,
0001
0010
0001
0100
0010
1000
0100
1000
,
0010
0100
0001
0010
0001
0100
0010
1000
,
0100
1000
0010
0100
0000
0001
0100
0000
,
0100
0001
1000
0010
0100
0001
0010
0001
,
0100
0010
1000
0100
1000
0010
0100
0001
,
0010
0101
0001
1001
,
1000
1010
0010
0110
,
0001
0100
0010
1000
0000
0100
1000
0001
,
0000
1100
0000
1000
0100
0000
0011
0000
,
1000
0010
0100
0001
0000
0010
0001
1000
,
0000
0011
0000
0001
0010
0000
1100
0000
,
0000
0011
0101
1010
,
1001
0000
0010
0000
0101
0000
1000
0010
,
0000
0101
0000
0001
0100
0000
1010
0000
,
0100
0001
0010
0000
0101
0000
1000
0010
,
0000
0101
0000
0001
0100
0000
1010
0000
;

//---------------dance-single - ----------------
#NOTES:
     dance-single:
     :
     Easy:
     4:
     0.247,0.286,0.126,0.168,0.000:
1000
0000
0000
0000
,
0001
0000
0000
0000
,
1000
0000
0000
0000
,
0001
0000
0000
0000
,
0010
0000
0000
0000
,
0100
0000
0000
0000
,
0010
0000
0000
0000
,
0100
0000
0000
0000
,
1000
0000
0001
0000
,
1000
0000
0010
0000
,
0100
0000
0010
0000
,
1000
0000
0001
0000
,
1001
0000
1000
0000
,
0010
0000
0110
0000
,
1000
0000
0001
0000
,
0100
0000
1001
0000
,
1000
0100
1000
0000
,
0010
0000
1000
0000
,
0001
0010
0001
0000
,
0100
0000
0010
0000
,
1000
0100
1000
0000
,
0010
0000
1000
0000
,
0001
0010
0001
0000
,
0100
0000
0010
0000
,
1000
0001
0100
0010
,
1001
0000
0101
0000
,
0010
0100
0001
1000
,
1001
0000
1010
0000
,
0010
1000
0010
0000
,
0001
0100
0001
0000
,
1000
0000
1000
0000
,
1001
0000
0000
0000
,
1000
1000
1000
0000
,
0001
0001
0001
0000
,
2000
3000
0002
0003
,
0200
0300
0020
0030
,
1000
1000
1000
0000
,
0001
0001
0001
0000
,
2000
3000
0002
0003
,
0200
0300
0020
0030
,
1000
0000
0100
0000
,
0010
0001
1000
0000
,
0001
0000
0100
0000
,
0010
1000
0001
0000
,
0001
0001
0001
0000
,
1000
1000
1000
0000
,
0002
0003
2000
3000
,
0020
0030
0200
0300
,
0001
0001
0001
0000
,
1000
1000
1000
0000
,
0002
0003
2000
3000
,
0020
0030
0200
0300
,
0001
0000
0010
0000
,
0100
1000
0001
0000
,
1000
0000
0010
0000
,
0100
0001
1000
0000
,
0000
0001
0010
0100
,
1001
0000
1000
0000
,
0010
0000
0110
0000
,
1000
0000
0001
0000
,
0100
0000
0110
1001
;

//---------------dance-single - ----------------
#NOTES:
     dance-single:
     :
     Medium:
     6:
     0.418,0.414,0.272,0.000,0.000: // measure 1
1000
0000
0000
0001
0000
0001
0000
0000
,  // measure 2
0010
0000
0000
0100
0000
0100
0000
0000
,  // measure 3
1000
0000
0000
0001
0000
0001
0000
0000
,  // measure 4
0100
0000
0000
0010
0000
1000
0000
0000
,  // measure 5
0001
0000
0000
1000
0000
1000
0000
0000
,  // measure 6
0010
0000
0000
0100
0000
0100
0000
0000
,  // measure 7
0001
0000
0000
1000
0000
1000
0000
0000
,  // measure 8
0100
0000
0000
0010
0000
0001
0000
0000
,  // measure 9
1000
0001
1000
0000
0010
0000
0100
0000
,  // measure 10
0001
1000
0001
0010
,  // measure 11
0100
0010
0100
0000
1000
0000
0001
0000
,  // measure 12
0100
0010
0100
0001
,  // measure 13
1001
1000
0010
0100
,  // measure 14
0010
0000
1000
0000
0001
0100
0001
0000
,  // measure 15
1001
0010
0001
1000
,  // measure 16
0001
0000
0010
0000
0100
1000
0100
0000
,  // measure 17
1000
0010
1000
0001
,  // measure 18
1010
1001
1010
1001
,  // measure 19
0001
0100
0001
1000
,  // measure 20
0101
1001
0101
1001
,  // measure 21
0010
0001
0010
0100
,  // measure 22
0011
0110
0011
0110
,  // measure 23
0100
1000
0100
0010
,  // measure 24
1100
0110
1100
0110
,  // measure 25
1000
0001
0100
0010
,  // measure 26
1000
0001
1000
0010
0000
0000
0000
0000
,  // measure 27
0100
0010
1000
0001
,  // measure 28
0100
0010
0100
0001
0000
0000
0000
0000
,  // measure 29
1000
0100
1000
0100
,  // measure 30
0010
0001
0010
0001
,  // measure 31
0100
0010
1000
0000
0101
0000
0000
0000
,  // measure 32
1010
0000
0000
0000
,  // measure 33
1000
0100
0010
0000
0100
0000
1000
0000
,  // measure 34
0010
0100
0001
1000
,  // measure 35
0100
0010
0001
0000
0010
0000
0100
0000
,  // measure 36
1000
0001
0100
0011
,  // measure 37
0001
0010
0100
0000
0010
0000
0001
0000
,  // measure 38
0100
0010
1000
0001
,  // measure 39
0010
0100
1000
0000
0100
0000
0010
0000
,  // measure 40
0001
1000
0010
1100
,  // measure 41
1000
0100
0010
0000
0100
0000
1000
0000
,  // measure 42
0001
0010
0100
0000
0010
0000
0001
0000
,  // measure 43
0100
0010
1000
0000
0010
0000
0100
0000
,  // measure 44
0001
0010
0100
1000
0000
0000
0000
0000
,  // measure 45
1000
0100
0010
0000
0100
0000
1000
0000
,  // measure 46
0010
0100
0001
1000
,  // measure 47
0100
0010
0001
0000
0010
0000
0100
0000
,  // measure 48
1000
0001
0100
0011
,  // measure 49
0001
0010
0100
0000
0010
0000
0001
0000
,  // measure 50
0100
0010
1000
0001
,  // measure 51
0010
0100
1000
0000
0100
0000
0010
0000
,  // measure 52
0001
1000
0010
1100
,  // measure 53
1000
0100
0010
0000
0100
0000
1000
0000
,  // measure 54
0001
0010
0100
0000
0010
0000
0001
0000
,  // measure 55
0100
0010
1000
0000
0010
0000
0100
0000
,  // measure 56
0010
1000
0100
0000
1000
0000
0010
0000
,  // measure 57
0000
1000
0001
0100
,  // measure 58
1010
1000
0010
0100
,  // measure 59
0010
0000
1000
0000
0001
0100
0001
0000
,  // measure 60
1001
0010
0001
1000
,  // measure 61
0001
0000
0010
0000
0100
1000
0100
0000
;
