#TITLE:Caramelldansen;
#SUBTITLE:(Speedycake Remix);
#ARTIST:Caramell;
#TITLETRANSLIT:;
#SUBTITLETRANSLIT:;
#ARTISTTRANSLIT:;
#CREDIT:;
#BANNER:Caramelldansen (Speedycake Remix).png;
#BACKGROUND:Caramelldansen (Speedycake Remix)-bg.png;
#LYRICSPATH:;
#CDTITLE:cdtitle.png;
#MUSIC:Caramelldansen (Speedycake Remix).mp3;
#OFFSET:-0.408;
#SAMPLESTART:51.380;
#SAMPLELENGTH:11.980;
#SELECTABLE:YES;
#BPMS:0.000=164.731;
#STOPS:;
#BGCHANGES:-0.500=caramell1.avi=1.000=1=0=1,
201.000=caramell2.avi=1.000=0=0=1,
272.000=Caramelldansen (Speedycake Remix)-bg.png=1.000=1=0=1,
99999=-nosongbg-=1.000=0=0=0 // don't automatically add -songbackground-
;

//---------------dance-single - ----------------
#NOTES:
     dance-single:
     :
     Hard:
     7:
     0.534,0.547,0.527,0.229,0.085: // measure 1
0000
0000
0000
0000
,  // measure 2
0000
0000
0000
0000
,  // measure 3
0000
0000
0000
0000
,  // measure 4
0000
0000
0000
0000
,  // measure 5
0000
0000
0000
0000
,  // measure 6
0010
0000
0000
1000
0000
0000
0001
0000
0000
0000
0100
0000
0010
0000
0100
0000
,  // measure 7
0000
1001
0000
0000
0000
0000
0000
0000
,  // measure 8
0010
0000
0010
0000
1000
0000
0001
1000
,  // measure 9
0010
0000
0000
0000
0000
0000
0000
2000
,  // measure 10
0002
0000
0000
0000
,  // measure 11
0000
0000
3003
0110
,  // measure 12
0010
0000
0000
1000
0000
0000
0010
0000
0000
1000
0000
0000
0001
0000
0010
0000
,  // measure 13
0100
0000
0000
1000
0000
0000
0010
0000
0000
0100
0000
0000
0001
0000
1000
0000
,  // measure 14
0001
0000
0000
1000
0000
0000
0100
0000
0000
0010
0000
0000
0100
0000
1000
0000
,  // measure 15
0010
0000
0000
0100
0000
0000
0010
0000
0000
0100
0000
0000
0001
0000
0010
0000
,  // measure 16
0100
0000
0000
1000
0000
0000
0010
0000
0000
1000
0000
0000
0010
0000
0100
0000
,  // measure 17
0001
0000
0000
0100
0000
0000
0010
0000
0000
0100
0000
0000
0001
0000
1000
0000
,  // measure 18
0001
0000
0000
1000
0000
0000
0010
0000
0000
1000
0000
0000
0100
0000
0010
0000
,  // measure 19
0001
0000
0000
0001
0000
0000
0001
0000
0000
1000
0000
0000
0010
0000
0100
0000
,  // measure 20
0001
0001
1000
1000
,  // measure 21
0010
0100
0000
1001
0000
0010
1000
0001
,  // measure 22
0100
0100
0001
0001
,  // measure 23
1000
0010
0000
0101
0000
0010
1000
0100
,  // measure 24
0010
0000
0010
0020
0000
0000
0030
0000
,  // measure 25
0100
1001
0101
1010
,  // measure 26
0100
0000
0001
0002
0000
0000
0003
0000
,  // measure 27
0100
0000
1000
2000
0000
0000
3001
0000
,  // measure 28
0010
1000
0010
1000
0001
0100
0010
1000
,  // measure 29
0001
0001
0000
1100
0000
0010
0100
0001
,  // measure 30
1000
0010
1000
0010
0100
0001
1000
0100
,  // measure 31
0010
0010
0000
0101
0000
0000
1001
0000
,  // measure 32
0010
0000
0010
0020
0000
0000
0030
0000
,  // measure 33
0011
0000
1000
0001
0000
0100
0010
0100
,  // measure 34
0002
0100
1000
0103
,  // measure 35
0000
0100
0010
0000
0011
0000
1100
0000
,  // measure 36
0001
1000
0100
0000
1000
0001
0100
0000
,  // measure 37
0011
1010
1100
1001
,  // measure 38
0200
0000
0310
0000
0020
0000
0130
0001
,  // measure 39
0000
1000
0001
1000
0101
0000
1010
0000
,  // measure 40
0100
0001
1000
0000
0100
1000
0001
0000
,  // measure 41
1010
1100
0101
1001
,  // measure 42
0200
0000
0301
0000
0002
0000
1003
0100
,  // measure 43
0000
1000
0001
0100
1010
0000
0101
0000
,  // measure 44
0020
0001
0100
1030
,  // measure 45
0000
0010
0000
0100
0000
1001
1001
0000
,  // measure 46
0200
0000
1000
0000
0010
0000
0301
0100
,  // measure 47
0000
1000
0200
0000
0010
0000
0310
0000
,  // measure 48
2000
0010
0001
3100
,  // measure 49
0000
0001
0000
1000
0000
0110
0110
0000
,  // measure 50
0002
0000
0010
0000
1000
0000
0103
0010
,  // measure 51
0000
0001
2000
0000
0001
0000
3001
0000
,  // measure 52
1000
0001
0010
0000
0001
1000
0010
0000
,  // measure 53
1100
0101
1010
0101
,  // measure 54
1000
0000
0001
1000
0020
0000
0130
0001
,  // measure 55
0000
1000
0100
0010
0011
0000
1100
0000
,  // measure 56
0001
0010
0100
0000
1000
0100
0010
0000
,  // measure 57
0011
1100
1010
0101
,  // measure 58
1000
0000
0001
0100
0020
0000
1030
0100
,  // measure 59
0000
1000
0010
0100
0101
0000
1100
0000
,  // measure 60
0001
1000
0010
0000
1000
0100
0010
0000
,  // measure 61
0011
0101
1010
1100
,  // measure 62
0001
0000
0100
0010
2000
0000
3001
0010
,  // measure 63
0000
0100
1000
0001
0101
0000
1100
0000
,  // measure 64
0010
0001
0100
0000
0010
1000
0100
0000
,  // measure 65
1010
0101
0011
1100
,  // measure 66
0001
0000
1000
0100
0020
0000
0031
1000
,  // measure 67
0000
0010
0100
0001
1001
0000
0010
0000
,  // measure 68
2002
0000
0000
0000
,  // measure 69
0000
0000
0000
3003
;

//---------------dance-single - ----------------
#NOTES:
     dance-single:
     :
     Medium:
     5:
     0.361,0.410,0.199,0.169,0.000:
0000
0000
0000
0000
,
0000
0000
0000
0000
,
0000
0000
0000
0000
,
0000
0000
0000
0000
,
0000
0000
0000
0000
,
0010
0010
0020
0000
,
0000
0000
0000
0030
,
1000
0000
0001
0000
,
0010
0000
0000
0000
,
1001
0000
0000
0000
,
0000
0000
0000
0000
,
0010
0010
1000
1000
,
0001
0001
0010
0010
,
1000
1000
0010
0010
,
0001
0001
1000
1000
,
0100
0100
0001
0001
,
0100
0100
1000
1000
,
0001
0001
1000
1000
,
0001
0010
0011
1100
,
0002
0003
0002
0003
,
0100
0010
0000
0010
0000
0000
0000
0000
,
2000
3000
2000
3000
,
0100
0010
0000
0010
0000
0000
0000
0000
,
0001
0000
0000
0100
0001
0000
1000
0000
,
0100
0010
0100
1000
,
0010
0000
0000
1000
0002
0000
0003
0000
,
0010
0000
0000
0001
2000
0000
3000
0000
,
0010
0010
0100
0100
,
0001
1000
0000
1001
0000
0000
0000
0000
,
0100
0100
0010
0010
,
1000
0001
0000
1001
0000
0000
0000
0000
,
0010
0000
0000
0001
0100
0000
0001
0000
,
0010
0100
0010
0001
,
0200
0300
0000
0000
,
0000
1000
0001
1000
0001
0000
0110
0000
,
1000
0100
0010
0100
,
0001
2000
0010
3010
,
0001
0100
0010
0100
,
1000
0002
0100
0103
,
0010
0000
1000
0100
1000
0000
0000
0000
,
0001
0010
1000
0100
,
0001
0000
0010
0001
0010
0000
0000
0000
,
0100
1001
0010
1001
,
0100
0100
0100
0100
,
0000
0010
0000
0010
0000
0100
0010
0000
,
1000
1000
1000
1000
,
0000
0020
0000
0000
0000
0000
0030
0000
,
0100
0100
0100
0100
,
0000
0010
0000
0010
0000
0100
0010
0000
,
0001
0001
0001
0001
,
1000
0110
0001
0110
,
1000
0100
0001
0010
,
0001
0200
1000
1300
,
0001
0100
1000
0010
,
1000
0200
0001
0301
,
0010
0000
1000
0100
1000
0000
0000
0000
,
0010
0001
0100
1001
,
0010
0000
0001
0100
0001
0000
0000
0000
,
0110
1000
0100
1001
,
0010
0001
0100
0101
,
0010
2000
0001
3001
,
0010
1000
0100
1100
,
0010
0002
1000
1003
,
0010
0000
1000
0001
1000
0000
0000
0000
,
0010
1100
0010
1001
,
0010
0000
0001
1000
0001
0000
0000
0000
,
0100
1001
0010
0101
,
2002
0000
0000
0000
,
0000
0000
0000
3003
;

//---------------dance-single - ----------------
#NOTES:
     dance-single:
     :
     Easy:
     2:
     0.200,0.273,0.060,0.050,0.000:
0000
0000
0000
0000
,
0000
0000
0000
0000
,
0000
0000
0000
0000
,
0000
0000
0000
0000
,
0000
0000
0000
0000
,
0100
0000
0000
0000
,
0100
0000
0100
0000
,
0010
0000
0000
0000
,
0000
0000
0000
0000
,
1001
0000
0000
0000
,
0000
0000
0000
0000
,
0010
0000
0010
0000
,
0001
1000
0001
0000
,
0100
0000
0100
0000
,
1000
0001
1000
0000
,
0010
0000
0010
0000
,
0010
0001
0100
0000
,
0010
0000
0010
0000
,
0010
1000
0100
0000
,
1001
0000
0010
0000
,
0001
0001
1000
0000
,
0100
0000
0010
0000
,
1000
1000
0001
0000
,
0200
0300
0000
0000
,
0000
0000
0000
0000
,
0020
0030
0000
0000
,
0020
0030
0000
0000
,
1000
0000
0010
0000
,
0001
0100
0001
0000
,
0001
0000
0010
0000
,
1000
0100
1000
0000
,
0010
0000
0000
0000
,
0000
0000
0000
0000
,
1001
0000
0000
0000
,
0200
0000
0010
0310
,
0010
0000
0010
0000
,
1000
0001
1000
0001
,
1000
0000
0010
0000
,
0001
1000
0001
1000
,
0001
0000
0100
0000
,
0010
1000
0010
1000
,
0010
0000
0100
0000
,
0001
0010
0001
0010
,
0001
0000
0001
0000
,
0000
0000
0000
0000
,
1000
0000
1000
0000
,
0000
0000
0000
0000
,
0001
0000
0001
0000
,
0000
0000
0000
0000
,
1000
0000
1000
0000
,
0000
0100
0100
0000
,
1001
0000
0010
0000
,
0001
1000
0001
0000
,
1000
0000
0010
0000
,
1000
0001
1000
0000
,
0001
0000
0100
0000
,
0010
1000
0010
0000
,
1000
0000
0100
0000
,
0001
1000
1001
0000
,
0110
0000
0010
0000
,
0100
1000
0100
0000
,
1000
0000
0010
0000
,
0100
0001
0100
0000
,
0001
0010
0100
0000
,
1000
0001
1000
0000
,
0001
0000
0001
0000
,
1000
0100
0001
0100
,
2000
0000
0000
0000
,
0000
0000
0000
3000
;

//---------------dance-single - ----------------
#NOTES:
     dance-single:
     :
     Beginner:
     1:
     0.134,0.200,0.060,0.000,0.000:
0000
0000
0000
0000
,
0000
0000
0000
0000
,
0000
0000
0000
0000
,
0000
0000
0000
0000
,
0000
0000
0000
0000
,
1000
0000
0000
0000
,
0001
0000
0000
0000
,
1000
0000
0000
0000
,
0000
0000
0000
0000
,
1001
0000
0000
0000
,
0000
0000
0000
0000
,
0010
0000
0010
0000
,
0001
0000
0001
0000
,
0100
0000
0100
0000
,
0010
0000
0010
0000
,
1000
0000
1000
0000
,
0100
0000
0100
0000
,
0010
0000
0010
0000
,
0001
0000
0001
0000
,
1001
0000
0010
0000
,
0001
0000
0000
0000
,
0100
0000
0010
0000
,
1000
0000
0000
0000
,
0100
0000
0000
0000
,
0000
0000
0000
0000
,
0010
0000
0000
0000
,
0010
0000
0000
0000
,
1000
0000
0010
0000
,
1000
0000
0000
0000
,
0001
0000
0010
0000
,
0001
0000
0000
0000
,
1001
0000
0000
0000
,
0000
0000
0000
0000
,
1001
0000
0000
0000
,
0100
0000
0010
0010
,
0010
0000
0010
0000
,
1000
0000
1000
0000
,
0010
0000
0010
0000
,
0001
0000
0001
0000
,
0100
0000
0100
0000
,
1000
0000
1000
0000
,
0100
0000
0100
0000
,
0001
0000
0001
0000
,
0010
0000
0000
0000
,
0000
0000
0000
0000
,
0010
0000
0000
0000
,
0000
0000
0000
0000
,
0100
0000
0000
0000
,
0000
0000
0000
0000
,
0100
0000
0000
0000
,
0000
0100
0100
0000
,
1001
0000
0010
0000
,
0001
0000
0000
0000
,
1000
0000
0010
0000
,
1000
0000
0000
0000
,
0001
0000
0100
0000
,
0010
0000
0000
0000
,
1000
0000
0100
0000
,
0010
0000
0000
0000
,
0001
0000
0010
0000
,
0100
0000
0000
0000
,
1000
0000
0010
0000
,
0100
0000
0000
0000
,
0001
0000
0100
0000
,
1000
0000
0000
0000
,
1000
0000
0100
0000
,
0001
0000
0010
0000
,
1001
0000
0000
0000
;

//---------------dance-double - ----------------
#NOTES:
     dance-double:
     :
     Hard:
     7:
     0.500,0.479,0.298,0.119,0.085:
00000000
00000000
00000000
00000000
,
00000000
00000000
00000000
00000000
,
00000000
00000000
00000000
00000000
,
00000000
00000000
00000000
00000000
,
00000000
00000000
00000000
00000000
10000000
00100000
10000000
00100000
,
01000000
00000000
00000000
01000000
00000000
00000000
01000000
00000000
00000000
00000000
00001000
00000000
00000000
00000000
00010000
00000000
,
00000000
00022000
00000000
00000000
00000000
00000000
00033000
00000000
,
00000100
00000010
00000001
00001000
,
00000020
00000000
00000000
00000000
00000000
00000000
00000030
00000100
,
00000100
00000000
00000000
00000000
,
00000010
00000100
00000010
00001001
,
00000010
00000000
00000000
00000001
00000000
00000000
00000100
00000000
00000000
00000010
00000000
00000000
00001000
00000000
00000010
00000000
,
00001000
00000000
00000000
00000100
00000000
00000000
00010000
00000000
00000000
00001000
00000000
00000000
00100000
00000000
00010000
00000000
,
00100000
00000000
00000000
01000000
00000000
00000000
10000000
00000000
00000000
00010000
00000000
00000000
10000000
00000000
00100000
00000000
,
01000000
00000000
00000000
00010000
00000000
00000000
00100000
00000000
00000000
00001000
00000000
00000000
00010000
00000000
00001000
00000000
,
00010000
00000000
00000000
00000100
00000000
00000000
00000010
00000000
00000000
00000001
00000000
00000000
00000100
00000000
00000010
00000000
,
00000100
00000000
00000000
00000001
00000000
00000000
00000010
00000000
00000000
00000100
00000000
00000000
00010000
00000000
00001000
00000000
,
00010000
00000000
00000000
00001000
00000000
00000000
00100000
00000000
00000000
01000000
00000000
00000000
10000000
00000000
00100000
00000000
,
10000000
00000000
00000000
00010000
00000000
00000000
00100000
00000000
00000000
01000000
00000000
00000000
10000000
00000000
00100000
00000000
,
10000000
00010000
10000000
00010000
,
00100000
01000000
00000000
00010000
00000000
00001000
00010000
00000100
,
00001000
00000001
00001000
00000001
,
00000100
00000010
00000000
00001000
00000000
00000100
00010000
00001000
,
00010000
00000000
00100000
10000000
00200000
00000000
00300000
00000000
,
00000000
00000000
00000000
10000000
00000000
01000000
00010000
00001000
,
00010000
00000000
00000100
00000010
00000200
00000000
00000300
00000000
,
00000001
00000000
00000100
00000010
00000200
00000000
00000300
00000000
,
00000001
00001000
00000000
00000010
00000000
00010000
00001000
00100000
,
00010000
00100000
00000000
00011000
00000000
01000000
00100000
00000000
,
10000000
01000000
00000000
10000000
00000000
00010000
00100000
00001000
,
00010000
00001000
00000000
00011000
00000000
00000100
00000010
00000000
,
00000001
00000000
00000100
00001000
00020000
00000000
00030000
00000000
,
00000000
00000000
00000000
10000000
00000000
00100000
00010000
00001000
,
00000020
00000000
00000030
00000000
00000000
00000100
00000000
00000100
,
00000000
00000001
00001000
00000000
00010010
00000000
00101000
00000000
,
00010000
00000000
01000000
00100000
10000000
00000000
01000000
00010000
,
00000000
00001000
00000100
00000000
00000101
00000000
00001100
00000000
,
00000001
00000000
00000100
00000010
00001000
00000000
00000100
00010000
,
00000000
00001000
01000000
00000000
00110000
00000000
11000000
00000000
,
00010000
00000000
01000000
00100000
20000000
00000000
30000000
00010000
,
00000000
01000000
00100000
10000000
01000000
00000000
11000000
00000000
,
00100000
00000000
00001000
00010000
00001000
00000000
00010000
00000100
,
00000000
00001000
00000010
00000000
00000101
00000000
00001100
00000000
,
00001001
00000000
00001001
00000000
00000010
00000100
00000010
00000100
,
00000000
00001000
00000000
00010000
00000000
00001000
00010000
00000000
,
01100000
00000000
01100000
00000000
10000000
00010000
10000000
00010000
,
00000000
01000000
00100000
00000000
00000000
00000000
00000000
00000000
,
10010000
00000000
10010000
00000000
01000000
00100000
01000000
00100000
,
00000000
00001000
00000000
00010000
00000000
00001000
00010000
00000000
,
00000110
00000000
00000110
00000000
00001000
00000001
00001000
00000001
,
00000000
00000200
00000010
00000000
00000010
00000000
00000310
00000000
,
00000001
00000010
00000100
00001000
00000010
00000000
00001000
00000100
,
00000000
00010000
00001000
00010000
00100000
00000000
01100000
00000000
,
10000000
01000000
00100000
00010000
01000000
00000000
00100000
10000000
,
00000000
01000000
00010000
00001000
00000100
00000000
00000101
00000000
,
00000010
00000000
00000001
00000010
00001000
00000000
00010000
00100000
,
00000000
01000000
00010000
10000000
01000000
00000000
00110000
00000000
,
10000000
00000000
00100000
01000000
00001000
00000000
00010000
00000100
,
00000000
00010000
00001000
00000100
00000001
00000000
00000110
00000000
,
00000001
00000100
00000010
00010000
00001000
00000000
00010000
00100000
,
00000000
10000000
01000000
10000000
00010000
00000000
00101000
00000000
,
00010000
00000000
01000000
00100000
00010000
00000000
00001000
00000100
,
00000000
00001000
00010000
00000000
01000000
00000000
11000000
00000000
,
00010000
00000000
00100000
01000000
00010000
00000000
00001000
00000100
,
00000000
00000001
00001000
00000100
00000010
00000000
00000011
00000000
,
00001100
00000000
00000010
00000001
00000010
00000000
00000100
00010000
,
00001000
00010000
00100000
10000000
,
02200000
00000000
00000000
00000000
,
00000000
00000000
00000000
03300000
;

//---------------dance-double - ----------------
#NOTES:
     dance-double:
     :
     Easy:
     3:
     0.207,0.376,0.109,0.020,0.000:
00000000
00000000
00000000
00000000
,
00000000
00000000
00000000
00000000
,
00000000
00000000
00000000
00000000
,
00000000
00000000
00000000
00000000
,
00000000
00000000
10000000
00010000
,
00100000
00000000
00000000
00000000
,
00000000
00000000
00000000
00000000
,
00001000
00000000
00000000
00000000
,
00000100
00000000
00000000
00000000
,
00000010
00000000
00000000
00000000
,
00000000
00000000
00000000
00001001
,
00000001
00000000
00000100
00000000
,
00000001
00000000
00001000
00000000
,
00000100
00000000
00010000
00000000
,
00001000
00000000
00010000
00000000
,
00100000
00000000
10000000
00000000
,
00100000
00000000
01000000
00000000
,
00010000
00000000
10000000
00000000
,
00010000
00000000
01000000
00000000
,
00100000
10000000
00100000
00000000
,
01000000
00000000
01000000
00000000
,
00001000
00010000
00001000
00000000
,
00100000
00000000
00100000
00000000
,
00001000
00000100
00001000
00000000
,
00000000
00000000
00000000
00000000
,
00000001
00000010
00000001
00000000
,
00000110
00000000
00000000
00000000
,
00000010
00000000
00000010
00000000
,
00000001
00001000
00000001
00000000
,
00001000
00000000
00001000
00000000
,
00000100
00010000
00000100
00000000
,
00001000
00000000
01000000
00000000
,
00010000
00000000
00100000
00000000
,
10010000
00000000
00000000
00000000
,
01000000
00000000
01000000
00000000
,
00100000
00000000
00000000
00000000
,
10000000
00010000
10000000
00000000
,
00010000
00000000
00000000
00000000
,
00100000
00010000
00001000
00000000
,
00000100
00000000
00000000
00000000
,
00000001
00001000
00000001
00000000
,
00000010
00000000
00000000
00000000
,
00000001
00000100
00001000
00010000
,
00100000
00000000
00000000
00000000
,
10010000
10010000
10010000
00000000
,
01000000
00010000
00001000
00000000
,
00000100
00000000
00000000
00000000
,
00000010
00000000
00000000
00000000
,
00001001
00001001
00001001
00000000
,
00000010
00000001
00000100
00001000
,
00010000
00000000
00011000
00000000
,
00100000
01000000
00100000
00000000
,
10000000
00000000
00010000
00000000
,
01000000
00100000
01000000
00000000
,
00001000
00000000
00010000
00000000
,
00000100
00000010
00000100
00000000
,
00001000
00000000
00000001
00000000
,
00000100
00000010
00000100
00000000
,
00000001
00000000
00001000
00000000
,
00000001
00000000
00000000
00000000
,
00000100
00000010
00001000
00000100
,
00010000
00000000
00000000
00000000
,
00001000
00100000
00010000
01000000
,
00100000
00000000
00000000
00000000
,
10000000
01000000
00100000
00010000
,
01000000
00000000
00000000
00000000
,
00001000
00010000
00001000
00010000
,
00022000
00000000
00000000
00000000
,
00000000
00000000
00000000
00033000
;

//---------------dance-double - ----------------
#NOTES:
     dance-double:
     :
     Medium:
     5:
     0.412,0.444,0.398,0.129,0.005:
00000000
00000000
00000000
00000000
,
00000000
00000000
00000000
00000000
,
00000000
00000000
00000000
00000000
,
00000000
00000000
00000000
00000000
,
00000000
00000000
00001000
00010000
,
00000010
00000000
00000000
00000010
00000000
00000000
00000010
00000000
00000000
00000000
00000000
00000000
00000000
00000000
00000000
00000000
,
00002002
00000000
00000000
00003003
,
00000100
00000000
00000010
00000000
,
00000110
00000000
00000000
00000000
00000000
00000000
00000000
00010000
,
00001000
00000000
00000000
00000000
,
00000000
00000000
00000000
10010000
,
00100000
00010000
00100000
01000000
,
00010000
00001000
00010000
00001000
,
00000010
00000001
00000010
00000100
,
00001000
00000001
00001000
00000001
,
00000100
00000010
00000100
00001000
,
00010000
00001000
00010000
00001000
,
01000000
00010000
01000000
00100000
,
10000000
01000000
00010000
00100000
,
11000000
00010000
00100000
01000000
,
00001000
00001000
00000000
00011000
00000000
00000000
00001100
00000000
,
00000010
00000001
00000100
00001000
,
00000001
00000001
00000000
00000110
00000000
00000000
00000000
00000000
,
00001000
00000000
00010000
00001000
00010000
00000000
00000000
00000000
,
00100000
10000000
01000000
00100000
,
00010000
00000000
10000000
01000000
10000000
00000000
00000000
00000000
,
00010000
00000000
10000000
01000000
10000000
00000000
00000000
00000000
,
00100000
00100000
00100000
00100000
,
01000000
00010000
00000000
00011000
00000000
00000000
00000000
00000000
,
00000010
00000010
00000010
00000010
,
00000100
00010000
00000000
00011000
00000000
00000000
00000000
00000000
,
00001000
00000010
00000001
00000110
,
00001000
00000000
00000100
00000000
00010000
00001000
00010000
00000000
,
00022000
00033000
00000000
00000000
,
10000000
01000000
10100000
01010000
,
00100000
10000000
01000000
00010000
,
00011000
00010100
00011000
01001000
,
00010000
00000100
00001000
00000010
,
00002000
00003001
00000020
00000130
,
00000001
00000010
00000100
00010000
,
00011000
00010010
00011000
00101000
,
00010000
00100000
10000000
01000000
,
20000000
30100000
02000000
03010000
,
10000000
10000000
00010000
00010000
,
00000000
01100000
00000000
01100000
00000000
10000000
01000000
00000000
,
00010000
00010000
00001000
00001000
,
00000010
00000200
00000000
00000300
,
00000001
00000001
00001000
00001000
,
00000000
00000110
00000000
00000110
00000000
00000001
00000100
00000000
,
00001000
00001000
00010000
00010000
,
00001000
00101000
00010000
00010010
,
00001000
00010000
00001000
00000000
00100000
00000000
00010000
00000000
,
01000000
00100000
10010000
10010000
,
00100000
01000000
00001000
00010000
,
00000100
00001000
00000100
00000000
00001100
00000000
00000101
00000000
,
00000010
00000001
00000010
00001000
,
00010000
00000000
00001000
00010000
00001000
00000000
00101000
00000000
,
00010000
01000000
10000000
00100000
,
10000000
01000000
00100000
00000000
00110000
00000000
11000000
00000000
,
00010000
00100000
00010000
00000000
10000000
00000000
10000000
00000000
,
00100000
00010000
00001000
00001100
,
00000010
00000000
00000010
00000000
00001000
00000100
00001000
00000000
,
00000001
00000010
00001000
00010000
,
00001000
00001010
00000022
00000033
,
00000100
00000010
00000100
00000000
00000001
00000000
00001000
00000000
,
00000100
00010000
00001000
00100000
,
00010000
01000000
00100000
00000000
10010000
00000000
01100000
00000000
,
20020000
00000000
00000000
00000000
,
00000000
00000000
00000000
30030000
;
