#TITLE:超!;
#SUBTITLE:;
#ARTIST:DJ OZMA;
#TITLETRANSLIT:CHOU!;
#SUBTITLETRANSLIT:;
#ARTISTTRANSLIT:;
#CREDIT:DGJ (sd.mistrust.com);
#BANNER:CHOU!.png;
#BACKGROUND:CHOU!-bg.png;
#LYRICSPATH:;
#CDTITLE:cd.png;
#MUSIC:CHOU!.mp3;
#OFFSET:0.153;
#SAMPLESTART:17.855;
#SAMPLELENGTH:12.000;
#SELECTABLE:YES;
#BPMS:0.000=138.000;
#STOPS:;
#BGCHANGES:0.500=CHOU!.avi=1.000=1=0=0,
242.000=CHOU!-bg.png=1.000=1=0=0,
99999=-nosongbg-=1.000=0=0=0 // don't automatically add -songbackground-
;

//---------------dance-single - ----------------
#NOTES:
     dance-single:
     :
     Easy:
     4:
     0.292,0.342,0.248,0.000,0.000:
0000
0000
0000
0000
,
0000
0000
0000
0000
,
0000
0000
0000
0000
,
0000
0000
0000
0000
,
0000
0000
0000
1000
,
0000
0001
0000
1000
,
1000
0001
0001
1000
,
0000
0001
0000
1000
,
1000
0001
0001
0100
,
0100
0100
0100
1001
,
0000
0000
0000
1000
,
0000
0001
0000
1000
,
0100
1000
0000
0001
,
0000
1000
0000
0001
,
0100
0010
0000
1000
,
0000
0001
0000
1000
,
0010
1000
0000
0001
,
0000
1000
0000
0001
,
0100
0010
0000
1000
,
1000
0100
0010
0001
,
0001
0100
0010
1000
,
1000
0100
0010
1001
,
0000
0110
0000
0010
,
0001
0010
0001
1000
,
0001
0010
0011
0100
,
1000
0100
1000
0001
,
1000
0100
1100
0010
,
0001
0010
0001
0100
,
0001
0010
0011
0100
,
1000
0100
1000
0010
,
1000
0100
1100
0001
,
0000
1000
1001
0010
,
0000
1000
1010
0100
,
0000
0010
0110
0001
,
0000
0100
0101
1000
,
0001
0100
0010
1001
,
1000
1001
0001
0010
,
0100
1000
0001
0110
,
0010
0110
0100
0010
,
0010
0010
0010
1000
,
0010
0100
0001
1000
,
0010
0100
0001
1000
,
0000
0001
0100
1001
,
0110
1001
0110
0001
,
0100
0010
1000
0001
,
0100
0010
1000
0001
,
0000
1000
0010
0110
,
1001
0110
1001
1000
,
1000
0100
0010
0001
,
0001
0100
0010
1000
,
1000
0100
0010
1001
,
0000
0110
0000
1000
,
1000
0001
0001
1000
,
0100
1000
0000
0001
,
0001
1000
1000
0001
,
0100
0010
0000
1000
,
1000
0001
0001
1000
,
0010
1000
0000
0001
,
0001
1000
1000
0001
,
0100
0010
0000
1001
;

//---------------dance-single - ----------------
#NOTES:
     dance-single:
     :
     Hard:
     7:
     0.473,0.456,0.267,0.029,0.029:
0000
0000
0000
0000
,
0000
0000
0000
0000
,
0000
0000
0000
0000
,
0000
0000
0000
0000
,
0000
0000
0000
1000
,
0000
0001
0000
1000
,
1000
0000
0001
0000
0001
0000
1000
0001
,
1000
0000
0001
1000
0001
0000
1000
0000
,
0001
1000
0001
1100
,
0011
0110
1001
0200
,
0000
0000
0000
0000
0300
0000
0001
0001
,
0001
0010
0000
0010
0001
1000
0000
1000
,
0000
0001
0000
0001
0100
0010
0000
0010
,
0000
0000
1000
0000
0000
0000
1000
0000
0001
0000
0100
0000
0010
0000
0000
0010
,
0000
0110
0000
0100
0100
0010
1000
1000
,
1000
0100
0000
0100
1000
0001
0000
0001
,
0000
0100
0000
0100
0010
1000
0000
1000
,
0000
0000
0001
0000
0000
0000
0001
0000
0100
0000
0010
0000
0100
0000
0000
0100
,
0000
0110
0000
0010
0010
0010
1000
0000
,
0001
0000
1000
0100
0001
0100
1000
0000
,
0001
0000
1000
0100
0001
0100
1000
0000
,
0001
0000
1000
0100
0001
0100
0000
0010
,
1000
0100
1000
1000
0001
0001
1000
0010
,
0100
0000
0001
0100
0010
0000
1000
0100
,
0010
0100
1000
0000
1010
0000
0100
0001
,
1000
0010
0100
0001
0100
0000
0100
0100
,
0001
0001
1000
1000
0010
0010
1000
0001
,
0100
0000
0010
0001
1000
0000
0100
1000
,
0010
1000
0100
0000
0011
0000
0100
0001
,
0100
0000
0001
0000
1000
0000
0000
1100
0000
0000
1000
0000
0100
0000
1000
0000
,
0100
0000
1000
0000
0001
0000
0000
0101
0000
0000
0001
0000
1000
0000
0010
0000
,
0100
0010
0100
0000
0101
0000
0001
0100
,
0010
0100
0010
0000
1100
0000
0010
1000
,
0001
0010
0010
0000
0100
0001
0010
0001
,
0001
1000
1000
0000
0100
0000
0102
0000
,
1000
0010
0013
0110
,
0010
0010
0100
0000
0101
0000
1020
0000
,
0100
0001
0031
1001
,
1000
1000
0001
0000
0011
0000
1100
0000
,
0011
0000
0110
0000
1001
0000
1000
0100
,
0001
0001
0100
1000
0100
0000
1000
0100
,
1000
1000
0010
0100
0001
0000
1000
0010
,
0100
0000
0100
0010
1000
0000
0010
0100
,
0001
0000
0001
0100
0010
0000
0001
1000
,
0100
0100
1000
0001
0010
0000
0100
1000
,
0010
0010
0100
0001
1000
0000
0010
1000
,
0100
0000
0100
1000
0010
0000
0100
0001
,
1000
0000
1000
0001
0100
0000
0001
0000
,
1000
0000
0001
0010
1000
0010
0001
0000
,
1000
0000
0001
0010
1000
0010
0001
0000
,
1000
0000
0001
0010
1000
0010
0000
0001
,
0010
0001
1000
1000
0010
0010
0100
0100
,
0100
0010
0000
0010
0100
0001
1000
0001
,
0000
1000
0000
1000
0100
0010
0000
0010
,
0000
0000
0100
0000
0000
0000
0100
0000
0100
0000
0000
0000
1100
0000
0000
1010
,
0000
1100
0000
0001
0010
0100
1000
1000
,
1000
0001
0000
0001
1000
0100
0010
0100
,
0000
0010
0000
0010
1000
0001
0000
0001
,
0000
0000
1000
0000
0000
0000
1000
0000
1000
0000
0000
0000
0101
0000
0000
0011
,
0000
0101
0000
1000
0100
0010
0001
0000
;

//---------------dance-single - ----------------
#NOTES:
     dance-single:
     :
     Medium:
     6:
     0.370,0.399,0.363,0.010,0.000:
0000
0000
0000
0000
,
0000
0000
0000
0000
,
0000
0000
0000
0000
,
0000
0000
0000
0000
,
0000
0000
0000
0001
,
0000
1000
0000
0001
,
0001
1000
1000
0010
,
0000
0100
0000
0010
,
0010
0100
0100
1001
,
1001
1001
1001
2000
,
0000
0000
0000
0000
3000
0000
0000
1001
,
0000
1000
0000
0100
0000
0100
0000
0001
,
0000
0001
0000
0010
0000
0010
0000
1000
,
0000
1000
0000
0100
0000
0000
0110
0000
,
0000
0000
0000
0010
0100
0010
0000
1001
,
0000
1000
0000
0010
0000
0010
0000
0001
,
0000
0001
0000
0100
0000
0100
0000
1000
,
0000
1000
0000
0010
0000
0000
0110
0000
,
0000
0000
0000
1000
0001
1000
0001
0000
,
1000
0000
0001
0010
0001
0000
1000
0000
,
0001
0000
1000
0010
1000
0000
0001
0000
,
1000
0000
0001
1000
0001
0000
0000
0000
,
0000
0000
0011
0000
1100
0000
1000
0001
,
0010
0000
0001
0000
1000
0000
0010
1000
,
0001
0100
0010
1000
,
0100
1100
1010
0001
,
0100
0000
0101
0000
0011
0000
0100
0001
,
1000
0000
0001
0000
0010
0000
0001
1000
,
0100
0000
1000
0000
0001
0000
1000
0100
,
1000
0000
0110
0000
1100
0000
0001
0010
,
0001
0000
0110
0000
0011
0000
1000
0010
,
0100
0000
0001
0000
0100
0000
0010
1000
,
0001
0000
0010
0000
0001
0000
0100
0001
,
1000
0000
0010
0000
0100
0000
0001
1000
,
0010
1000
0001
0000
0010
0000
1100
0000
,
1000
1000
0100
1010
,
0100
0001
0101
0011
,
0001
0001
0010
0101
,
0010
1000
0110
1001
,
1001
1001
1001
0010
,
0010
0000
0100
0001
1000
0000
0001
0000
,
0001
0000
1000
0100
0010
0000
1000
0000
,
1000
0110
1001
0010
,
0000
0100
0100
0001
,
0001
0000
0010
0001
1000
0000
0100
0000
,
0100
0000
1000
0010
0100
0000
0001
0000
,
0001
0000
1010
0000
0101
0000
1000
0001
,
1000
0000
0001
0100
0001
0000
0100
0000
,
0010
0000
0100
0001
0100
0000
0010
0000
,
0100
0000
0010
1000
0010
0000
0100
0000
,
0010
0000
0100
0010
0100
0000
0000
0000
,
0000
0000
1100
0000
0011
0000
0000
0011
,
0000
0001
0000
0100
0010
0100
0000
0010
,
0000
0010
0000
1000
0100
1000
0000
0100
,
0000
0100
0000
1000
0000
0000
1001
0000
,
0000
0000
0000
1000
0010
0100
0000
0101
,
0000
0001
0000
1000
0100
1000
0000
0010
,
0000
0010
0000
0100
0001
0100
0000
0010
,
0000
0010
0000
1000
0000
0000
1001
0000
,
0000
0000
0000
1000
0010
0100
0010
0000
;
