#TITLE:CHEMISTRY OF A CAR CRASH;
#SUBTITLE:;
#ARTIST:SHINY TOY GUNS;
#TITLETRANSLIT:;
#SUBTITLETRANSLIT:;
#ARTISTTRANSLIT:;
#CREDIT:;
#BANNER:CHEMISTRY OF A CAR CRASH.png;
#BACKGROUND:CHEMISTRY OF A CAR CRASH-bg.png;
#LYRICSPATH:;
#CDTITLE:WE ARE PILOTS.png;
#MUSIC:CHEMISTRY OF A CAR CRASH.mp3;
#OFFSET:-0.028;
#SAMPLESTART:47.593;
#SAMPLELENGTH:19.000;
#SELECTABLE:YES;
#BPMS:0.000=101.000;
#STOPS:;
#BGCHANGES:;

//---------------dance-single - ----------------
#NOTES:
     dance-single:
     :
     Hard:
     7:
     0.293,0.436,0.103,0.051,0.118:
0000
0000
0000
0000
,
0000
0000
0000
0000
,
0000
0000
0000
0000
,
0000
0000
0000
0000
,
0000
0000
0000
0000
,
0000
0000
0000
0001
0010
0100
1000
0000
,
0000
0000
0000
0000
0000
0001
0010
0100
,
1000
0000
1000
0000
0010
0100
0001
0000
,
1000
0000
0000
0000
,
0000
0000
0001
0010
0001
0010
0001
0000
,
0000
0000
1000
0010
1000
0010
1000
0001
,
0100
0000
0000
0000
0000
0000
0000
1000
,
0010
0000
0000
1000
0000
0000
0100
0000
0100
0000
0000
0000
1000
0000
0001
0100
,
0001
0000
0000
1000
0000
0000
0001
0000
0100
0000
0000
0001
1000
0000
1000
0000
,
0100
0000
0000
1000
0000
0000
0001
0000
0100
0000
0000
0001
0100
0000
0010
1000
,
0010
0000
0000
1000
0000
0000
0100
0000
0010
0000
0000
0001
1000
0000
0100
0000
,
1000
0000
0000
0100
0000
0000
0001
0000
0100
0000
0000
1000
0000
0000
0001
0100
,
0001
0000
0000
0010
0000
0000
0100
0000
1000
0000
0000
0100
0010
0000
0001
0000
,
0001
0000
0000
0100
0000
0000
0010
0000
1000
0000
0000
0010
0100
0000
0001
0010
,
0001
0000
0000
1000
0000
0000
0100
0000
1000
0000
0000
0010
0000
0000
0100
0000
,
0001
0000
0001
0000
0001
0000
0001
0000
0001
1000
0001
1000
0001
1000
0001
1000
,
0001
1000
0011
0100
1000
0001
1010
0100
,
0001
0010
0001
1000
0000
0010
0000
0100
,
0001
0001
1010
0100
0001
0001
1010
0100
,
0001
0000
1000
0000
0001
0010
0100
1000
,
0001
0000
1010
0100
0001
0000
1010
0100
,
0001
0000
0010
0100
0000
0010
0000
0100
,
1000
0100
0010
0002
0000
0000
0000
0000
,
1003
0000
0010
0100
0000
0001
0001
0000
,
0012
0000
0000
0023
0000
0000
0031
0000
,
1010
0000
0001
0000
0010
0100
1000
0000
,
0001
0000
1001
0000
0100
0010
1000
0000
,
0001
0010
0001
1000
0100
1000
0001
0000
,
2010
0000
0000
3002
0000
0000
1000
0000
,
0103
0000
0001
0100
0000
0001
0010
0100
,
1000
0000
0001
0100
0000
0010
1000
0001
,
0100
0000
0001
0000
0010
0100
1000
0100
,
0010
0000
0000
0000
;

//---------------dance-single - ----------------
#NOTES:
     dance-single:
     :
     Medium:
     6:
     0.242,0.292,0.051,0.021,0.021:
0000
0000
0000
0000
,
0000
0000
0000
0000
,
0000
0000
0000
0000
,
0000
0000
0000
0000
,
0000
0000
0000
0000
,
0000
0000
0000
0000
1000
0010
1000
0000
,
0000
0000
0000
0000
0000
0000
0010
0001
,
0010
0000
0010
0000
1000
0001
1000
0000
,
1001
0000
0000
0000
,
0000
0000
0001
1000
0001
1000
0001
0000
,
0000
0000
1000
0010
1000
0010
1000
0000
,
0001
0000
0000
0000
,
0001
0000
0010
0000
0001
0000
1000
0010
,
1000
0000
0100
0000
1000
0000
0001
0001
,
0100
0000
0000
0000
0001
0000
0000
0000
0010
0000
0000
0100
0000
0000
1000
0000
,
0001
0000
1000
0000
0001
0000
0010
0010
,
0100
0000
0000
1000
0000
0000
0100
0000
0010
0000
0000
0001
0000
0000
0010
0000
,
0001
0000
1000
0000
0010
0000
1000
1000
,
0001
0000
0000
0010
0000
0000
0001
0000
1000
0000
0000
0000
0100
0000
0100
0000
,
1000
0000
0010
0000
1000
0000
0001
0001
,
0010
0000
0001
1000
0002
0000
0000
0000
,
1003
1000
0010
0000
1000
1000
0010
0000
,
0100
0100
0001
0000
0010
0100
1000
0100
,
0010
0010
0001
0000
0010
0010
0001
0000
,
0100
0000
0001
0000
1000
0100
1000
0100
,
1000
1000
0001
0000
1000
1000
0001
0000
,
0100
0100
0010
0100
0010
0100
0010
0000
,
1000
0100
1000
0000
0001
0100
0001
0000
,
1000
0010
0010
0100
0001
0000
1000
0000
,
0011
0000
0000
1100
0000
0000
0000
0000
,
0001
0001
0001
1000
0001
1000
0001
0000
,
1000
1000
1000
0001
1000
0001
1000
0000
,
0010
1000
0001
0100
,
1010
0000
0000
0101
0000
0000
0000
0000
,
0010
0000
0100
0000
1000
1000
0001
0000
,
0100
0000
0010
0000
1000
0001
1000
0000
,
0001
0000
0100
0010
0100
0010
0100
0010
,
0200
0000
0000
0000
,
0300
0000
0000
0000
;

//---------------dance-single - ----------------
#NOTES:
     dance-single:
     :
     Easy:
     4:
     0.170,0.228,0.031,0.123,0.000:
0000
0000
0000
0000
,
0000
0000
0000
0000
,
0000
0000
0000
0000
,
0000
0000
0000
0000
,
0000
0000
0000
0000
,
0000
0000
1000
1000
,
0000
0000
0000
0000
0000
0000
0001
0010
,
0001
0001
0001
0001
,
0000
0000
0000
0000
,
0000
0000
0010
0010
0010
0010
0010
0000
,
0000
0000
0010
0010
0010
0010
0010
0000
,
0000
0000
0000
0000
,
0001
0010
0001
1000
,
0020
0000
1030
0001
,
0010
0000
0001
0000
0010
0000
0100
0100
,
2000
0000
0000
0000
,
3002
0103
2000
3100
,
0001
0000
0010
0000
0001
0000
0001
0001
,
1000
0010
0100
0010
,
2000
0000
0000
3000
,
2002
0000
0000
3003
,
0001
0001
0001
0000
0010
0000
0001
0000
,
1000
0010
1000
0001
,
0100
0100
0100
0000
0010
0000
1000
0000
,
0002
0000
0020
0033
,
1000
1000
0001
0000
1000
0000
0010
0000
,
0100
0001
0010
0100
,
1000
0100
0010
0001
,
1000
0000
0001
0000
0100
0000
0010
0010
,
0020
0000
0000
0030
,
1000
0100
1000
0001
,
0100
0010
1000
0000
,
0001
0010
0001
0100
,
2002
0000
0000
3003
,
0000
0000
0001
0010
,
0000
0000
0100
1000
,
0000
0010
0010
0010
,
1001
0000
0000
0000
;

//---------------dance-single - ----------------
#NOTES:
     dance-single:
     :
     Beginner:
     1:
     0.085,0.133,0.041,0.031,0.000:
0000
0000
0000
0000
,
0000
0000
0000
0000
,
0000
0000
0000
0000
,
0000
0000
0000
0000
,
0000
0000
0000
0000
,
0000
0000
1000
1000
,
0000
0000
0000
0000
,
0001
0000
0001
0000
,
0010
0000
0000
0000
,
0000
0001
0001
0001
,
0000
0001
0001
0001
,
0000
0000
0000
0000
,
1000
0000
0010
0000
,
1001
0000
0100
0000
,
1000
0000
0000
0000
,
0000
0000
0000
0000
,
0001
0001
0001
0000
,
1000
0000
0000
0000
,
0010
0000
0100
0000
,
1001
0000
0000
0000
,
0002
0000
0003
0000
,
1000
0000
1000
0000
,
1000
0000
0000
0000
,
0001
0000
0000
0000
,
0001
0001
0001
0000
,
1000
0000
0010
0000
,
1001
0000
0000
0000
,
0100
0000
0100
0000
,
0100
0000
0010
0000
,
2000
0000
3000
0000
,
0000
0000
1000
1000
,
0000
0000
1000
1000
,
1000
0000
0000
0000
,
0020
0000
0030
0000
,
1000
0000
1000
0000
,
0010
0000
0010
0000
,
0100
0000
0000
0000
,
0110
0000
0000
0000
;
