#TITLE:CARRY ON NIGHT;
#SUBTITLE:(english version);
#ARTIST:platoniX (EURO style);
#TITLETRANSLIT:;
#SUBTITLETRANSLIT:;
#ARTISTTRANSLIT:;
#CREDIT:;
#BANNER:CARRY ON NIGHT (English Version).png;
#BACKGROUND:CARRY ON NIGHT (English Version)-bg.png;
#LYRICSPATH:;
#CDTITLE:cdtitle.png;
#MUSIC:CARRY ON NIGHT (English Version).mp3;
#OFFSET:-6.160;
#SAMPLESTART:38.702;
#SAMPLELENGTH:12.000;
#SELECTABLE:YES;
#BPMS:0.000=158.000;
#STOPS:;
#BGCHANGES:;

//---------------dance-single - ----------------
#NOTES:
     dance-single:
     :
     Hard:
     8:
     0.555,0.575,0.258,0.010,0.170:
1000
0001
0000
0001
0100
0000
0010
1000
0000
1000
0100
0000
0010
0000
0001
0000
,
0100
0000
0000
0010
0000
0000
1000
0000
0000
0000
0100
0000
1000
0000
0000
0000
,
0000
0000
0010
0000
0100
0000
0001
0010
0000
0010
0000
0100
1000
0000
0010
0000
,
1000
0000
0000
0100
0000
0000
1000
0000
0000
0001
0000
0000
0010
0000
0001
0000
,
0100
0000
0001
0100
0001
0000
1000
0100
,
1000
0000
0010
0100
0001
1000
0010
1000
,
0100
0000
1000
0001
1000
0000
0100
0010
,
1000
0000
0101
0010
0000
0100
0000
0001
,
0010
0000
0001
0100
0001
0000
1000
0100
,
1000
0000
0001
0100
0010
1000
0100
1000
,
0010
0000
0010
0100
0001
0000
1000
0100
,
1000
0000
0101
0010
0000
0001
0100
0000
,
0001
0010
0001
0000
1000
0100
1000
0000
,
0010
0000
0100
0000
0001
1000
0001
0000
,
1000
0010
0101
0000
1000
0010
1100
0000
,
0001
0000
1001
0000
0000
0100
0000
0100
,
0010
1000
0100
0000
1000
0001
0010
0000
,
0001
0000
0001
0000
1000
0100
1000
0000
,
0001
0000
0000
1000
0000
0000
0100
0000
1000
0000
0000
0001
0000
0000
0010
0000
,
0001
0000
0000
0100
0000
0000
0010
0000
0000
1000
0000
0000
0001
0000
0010
0000
,
0100
0000
0000
0010
0000
0000
0001
0000
0000
1000
0000
0000
0001
0000
0100
0000
,
0010
1001
0000
0000
,
0000
0110
0000
0000
,
0000
0000
0100
1001
0000
0010
0101
0000
,
1000
0001
0010
0100
1000
0010
0100
0001
,
1000
0000
0010
0000
1000
0000
0001
0000
0100
0000
0010
1000
0010
0000
1000
0000
,
0100
0000
1000
0001
1000
0000
1010
0000
,
0101
0000
0001
0000
0010
0100
1000
0000
,
0011
0000
1010
0000
1000
0100
0001
0000
,
0100
1000
0010
0100
0001
0010
0001
0000
,
1000
0000
0100
0000
0010
0000
0000
0001
0000
0000
0100
0000
0010
0000
1000
0000
,
0001
0000
0010
0000
0100
0000
0000
1000
0000
0000
0001
0000
0100
0000
0010
0000
,
0100
0000
0001
0000
1000
0000
0000
0100
0000
0000
1000
0000
0100
0000
0001
0000
,
0100
1000
0001
1000
0001
0010
0100
0000
,
1000
0000
0010
0000
0100
0000
0001
0000
0010
0000
0001
0000
0100
0010
0100
0000
,
0001
0000
1000
0000
0100
0000
0010
0000
0001
0000
0100
0000
0010
1000
0010
0000
,
0100
0001
0010
0001
0100
0010
1000
0100
,
0010
0001
0100
0000
0010
0001
0100
0010
,
1000
0000
1001
0000
0010
0100
0001
0100
,
0010
0000
1010
0100
0000
0000
0001
0000
,
1000
0100
0000
1000
0000
0010
0000
0100
,
0000
0001
0000
0010
0000
0001
0100
0010
,
1000
0100
0010
0100
,
1000
0000
0001
0000
0100
0010
1000
0000
,
0100
0010
0001
0100
,
0010
0000
0000
0000
0100
1000
0100
1000
,
0010
0000
1001
0000
0010
0100
0001
0100
,
0000
1010
1001
0000
0110
0000
0001
0000
,
0100
0001
1000
0010
1000
0100
1000
0001
,
0010
0000
0100
0000
1000
0000
0010
0000
0100
0000
0001
0000
1000
0000
0100
1000
,
0100
0000
1000
0000
0001
0100
0010
0000
,
1010
0000
0101
0000
1000
0001
1000
0000
,
1001
0000
0010
0000
0001
0100
0010
0000
,
1001
0000
0010
0000
0100
0001
0100
0010
,
1000
0100
0000
0100
0010
0000
0001
1000
0000
1000
0010
0000
0100
0000
0001
0000
,
0010
0000
0000
0001
0000
0000
0100
0000
0000
0000
0100
0000
0001
0000
0000
0000
,
0000
0000
1000
0000
0100
0000
1000
0010
0000
0010
0000
0100
0001
0000
1000
0000
,
0100
0000
0000
1100
0000
0000
0001
0000
0000
1001
0000
0000
0100
0000
0010
0000
,
2000
0000
0000
0000
0000
3000
0000
0000
;

//---------------dance-single - ----------------
#NOTES:
     dance-single:
     :
     Easy:
     4:
     0.345,0.419,0.207,0.176,0.000: // measure 1
1000
0100
0010
0100
,  // measure 2
1010
0001
0010
0000
,  // measure 3
0000
0001
1000
0100
,  // measure 4
0010
0010
0010
0010
,  // measure 5
2000
3000
2000
3000
,  // measure 6
0001
0100
0010
1000
,  // measure 7
0200
0300
0200
0300
,  // measure 8
1000
0010
0100
0001
,  // measure 9
2002
3003
2002
3003
,  // measure 10
0001
0100
0010
1000
,  // measure 11
2020
3030
2020
3030
,  // measure 12
0001
0100
0010
0000
,  // measure 13
1000
0100
1000
0010
,  // measure 14
0100
0001
1000
0000
,  // measure 15
1001
0000
0101
0000
,  // measure 16
1010
0001
0100
0010
,  // measure 17
1000
0100
0001
0010
,  // measure 18
0100
0001
1000
0000
,  // measure 19
1001
0000
0101
0000
,  // measure 20
1010
1001
0010
0100
,  // measure 21
0001
0001
1000
0100
,  // measure 22
0010
0010
0001
1000
,  // measure 23
0000
1001
0001
0100
,  // measure 24
0010
0000
0000
0000
,  // measure 25
1000
0100
1000
0010
,  // measure 26
0100
0001
0010
0001
,  // measure 27
1100
0010
0100
0001
,  // measure 28
1000
0100
0010
1000
,  // measure 29
0002
0003
2000
3000
,  // measure 30
0100
0010
1000
0001
,  // measure 31
1000
1000
0100
0001
,  // measure 32
0010
0010
0100
1000
,  // measure 33
0001
0001
0100
0001
,  // measure 34
0010
1000
0100
0001
,  // measure 35
1000
0100
1000
0001
,  // measure 36
0001
0100
0010
1000
,  // measure 37
1000
0100
0010
0001
,  // measure 38
0100
0010
1000
0001
,  // measure 39
0000
1010
0001
0100
,  // measure 40
0010
0000
0000
0000
,  // measure 41
1000
0000
0001
0000
,  // measure 42
1000
0100
0001
0100
,  // measure 43
1000
0010
0100
0001
,  // measure 44
0010
0001
1000
0100
,  // measure 45
0010
1000
0100
0001
,  // measure 46
2000
3000
0010
0100
,  // measure 47
0001
1001
0010
0100
,  // measure 48
0001
1010
1001
0010
,  // measure 49
0100
0001
0010
0100
,  // measure 50
1000
0010
0100
0000
,  // measure 51
1001
0010
0100
0001
,  // measure 52
0010
0001
1000
0010
,  // measure 53
0200
0300
0010
0100
,  // measure 54
0002
0003
0000
0000
,  // measure 55
1000
0100
0010
1000
,  // measure 56
1010
0001
0010
0000
,  // measure 57
0000
0001
1000
0100
,  // measure 58
0010
0000
0010
0000
0010
0000
0010
1000
,  // measure 59
0100
0000
0000
0000
;

//---------------dance-single - Copied from----------------
#NOTES:
     dance-single:
     Copied from:
     Medium:
     6:
     0.404,0.389,0.124,0.000,0.031:
1000
0100
1000
0000
0001
0100
0001
0000
,
1000
0100
1000
0000
,
0000
0000
0001
0100
0010
0000
1000
0100
,
1000
0000
0000
0010
0000
0000
0100
0000
0000
0001
0000
0000
0010
0000
0001
0000
,
1000
0000
0100
0000
,
1000
0000
0100
0000
0010
0100
1000
0010
,
0100
0000
0001
0000
,
1000
0000
0100
1000
0000
1001
0000
0001
,
0010
0000
0001
0000
,
1000
0000
0100
0000
0010
0100
0001
0100
,
0010
0000
1000
0000
,
0100
0000
0010
1000
0000
1001
0000
0000
,
0010
0100
0001
1000
,
0001
0100
1000
0000
0100
0000
0001
0000
,
0010
1100
0010
1100
,
0001
1001
0000
0000
,
1000
0000
0100
0000
0010
0100
1000
0000
,
0001
0000
0100
0000
0010
0100
0001
0000
,
1001
0010
0100
0001
,
1001
0000
0010
0000
0100
0000
0001
1000
,
0010
0000
0000
0100
0000
0000
0010
0000
0000
0100
0000
0000
0001
0000
1000
0000
,
0100
0000
0100
0000
1000
0001
1000
0010
,
0000
0000
0000
0000
1000
0100
0010
0100
,
0000
0000
0000
1000
,
0001
0100
0001
0000
1000
0100
1000
0000
,
0010
0000
0100
0000
0001
1000
0001
0000
,
0010
0000
0001
0000
1000
0100
0001
0000
,
0100
0000
1000
0000
0010
0100
0001
0000
,
1001
0000
0010
0100
,
0101
1000
0100
0010
,
1000
0001
1000
0000
0001
0000
0001
0000
,
1000
0100
1000
0000
0010
0000
0010
0000
,
0100
0001
0100
0000
0010
0000
0010
0000
,
0001
0100
0001
0000
1000
0100
1000
0000
,
0010
0000
0100
0000
0001
0000
1000
0100
,
0001
0000
0100
0000
1000
0000
0010
0100
,
1000
0000
0100
0000
0010
0000
1000
0100
,
0001
0000
0100
0000
1000
0010
0100
0001
,
0000
0000
0010
0000
0001
0100
0010
1000
,
0000
0000
0100
0100
0000
0000
0000
0000
,
1000
0100
1000
0010
,
0100
0000
0001
0000
1000
0000
0010
0100
,
0001
0001
1000
1000
,
0100
0000
0100
0000
1000
0100
0001
0000
,
0010
0001
0100
0010
,
1000
0000
0000
0000
0100
0001
1000
0010
,
0100
0000
1001
0000
0010
0100
0001
1000
,
0000
0100
1000
0000
0010
0000
0100
0000
,
0001
0100
0001
0000
1000
0100
1000
0000
,
0010
0000
0100
0000
0001
0010
0100
0000
,
1000
0000
1000
0000
0001
0100
0010
0000
,
1000
0010
0100
0001
,
1001
0000
0100
0010
,
1010
0000
0010
0100
,
0001
0100
0001
0000
1000
0100
1000
0000
,
0010
0100
0001
0000
,
1000
0100
1000
0000
0001
0100
0010
0000
,
1000
0000
0000
0100
0000
0000
1000
0000
0000
0001
0000
0000
0010
0000
0100
0000
,
0001
0000
0000
0000
;
