#TITLE:CAPTAIN KARAOKE;
#SUBTITLE:;
#ARTIST:TIGGY;
#TITLETRANSLIT:;
#SUBTITLETRANSLIT:;
#ARTISTTRANSLIT:;
#CREDIT:;
#BANNER:CAPTAIN KARAOKE.png;
#BACKGROUND:CAPTAIN KARAOKE-bg.png;
#LYRICSPATH:;
#CDTITLE:DANCE MANIA BASS 6.PNG;
#MUSIC:CAPTAIN KARAOKE.mp3;
#OFFSET:-0.548;
#SAMPLESTART:43.930;
#SAMPLELENGTH:12.000;
#SELECTABLE:YES;
#BPMS:0.000=131.978;
#STOPS:;
#BGCHANGES:;

//---------------dance-single - ----------------
#NOTES:
     dance-single:
     :
     Easy:
     2:
     0.165,0.217,0.074,0.000,0.000:
0000
0000
0000
0000
,
0000
0000
0000
0000
,
0000
0000
0000
0000
,
0000
0000
0000
0000
,
0100
0000
0000
0000
,
0100
0000
0000
0000
,
0010
0000
0010
0000
,
1000
0001
1000
0000
,
0001
0000
0001
0000
,
0010
0000
0010
0000
,
1000
0000
1000
0000
,
0100
0000
0100
0000
,
1000
0000
0010
0000
,
1000
0000
0010
0000
,
0001
0000
0100
0000
,
0001
0000
0100
0000
,
1000
0000
0000
0000
,
0010
0010
0010
0000
,
0001
0000
0000
0000
,
0100
0100
0100
0000
,
1001
0000
0000
0000
,
0010
0010
0100
0000
,
1001
0000
0000
0000
,
0100
0100
0010
0000
,
1000
0000
0000
0000
,
0001
0000
0000
0000
,
0100
0000
0100
0000
,
0001
0010
0001
0000
,
1000
0000
0000
0000
,
0001
0000
0000
0000
,
0100
0000
0100
0000
,
1000
0010
1000
0000
,
0100
0000
0100
0000
,
0010
0010
0010
0000
,
0100
0000
0100
0000
,
0010
0010
0010
0000
,
0001
0000
0001
0000
,
1000
0001
1000
0000
,
0110
0000
0100
0000
,
0001
0010
0100
0000
,
0001
0000
0100
0000
,
0001
0100
0010
0000
,
1000
0000
0100
0000
,
1000
0100
0010
0000
,
0001
0000
1000
0000
,
0001
0001
1000
0000
,
0110
0000
0100
0000
,
1000
0010
0100
0000
,
0110
0000
0100
0000
,
0001
0010
0100
0000
,
0110
0000
0100
0000
,
1000
0001
1001
0000
;

//---------------dance-single - ----------------
#NOTES:
     dance-single:
     :
     Beginner:
     1:
     0.125,0.163,0.042,0.000,0.000:
0000
0000
0000
0000
,
0000
0000
0000
0000
,
0000
0000
0000
0000
,
0000
0000
0000
0000
,
0100
0000
0000
0000
,
0100
0000
0000
0000
,
0010
0000
0010
0000
,
1000
0000
1000
0000
,
0001
0000
0001
0000
,
0010
0000
0010
0000
,
0001
0000
0001
0000
,
1000
0000
1000
0000
,
0100
0000
0100
0000
,
1000
0000
1000
0000
,
0001
0000
0001
0000
,
0100
0000
0100
0000
,
0100
0000
0000
0000
,
0010
0000
0000
0000
,
0001
0000
0000
0000
,
0100
0000
0000
0000
,
0010
0000
0000
0000
,
0100
0000
0000
0000
,
1000
0000
0000
0000
,
0100
0000
0000
0000
,
1000
0000
0000
0000
,
0001
0000
0000
0000
,
0100
0000
0100
0000
,
0001
0000
0001
0000
,
1000
0000
0000
0000
,
0001
0000
0000
0000
,
0001
0000
0001
0000
,
1000
0000
1000
0000
,
0001
0000
0001
0000
,
1000
0000
1000
0000
,
0100
0000
0100
0000
,
0010
0000
0010
0000
,
0100
0000
0100
0000
,
0010
0000
0010
0000
,
1001
0000
0000
0000
,
0001
0000
1000
0000
,
0001
0000
0001
0000
,
1000
0000
1000
0000
,
0001
0000
0001
0000
,
1000
0000
1000
0000
,
0010
0000
0010
0000
,
0100
0000
0100
0000
,
1001
0000
0000
0000
,
1000
0000
0001
0000
,
1001
0000
0000
0000
,
0001
0000
1000
0000
,
0110
0000
0000
0000
,
0100
0100
0100
0000
;

//---------------dance-single - ----------------
#NOTES:
     dance-single:
     :
     Hard:
     7:
     0.439,0.434,0.147,0.042,0.089: // measure 1
0000
0000
0000
0000
,  // measure 2
0000
0000
0000
0000
,  // measure 3
0000
0000
0000
0000
,  // measure 4
0000
0000
0000
0000
,  // measure 5
0001
0010
1000
0100
,  // measure 6
0010
0100
1000
0001
,  // measure 7
0200
0300
0200
0300
,  // measure 8
1000
0001
1000
1001
,  // measure 9
0010
0000
0000
1000
0000
0000
0010
0000
0000
1000
0000
0000
0100
0000
0010
0000
,  // measure 10
0001
0000
0000
0100
0000
0000
0001
0000
0000
0100
0000
0000
0001
0000
0010
0000
,  // measure 11
0100
0000
0000
1000
0000
0000
0100
0000
0000
1000
0000
0000
0010
0000
0100
0000
,  // measure 12
0001
0000
0000
0010
0000
0000
0001
0000
0000
0010
0000
0000
0100
0000
1000
0000
,  // measure 13
0001
0000
0000
0100
0000
0000
0010
0000
0000
1000
0000
0000
0001
0000
0010
0000
,  // measure 14
0100
0000
0000
1000
0000
0000
0010
0000
0000
0100
0000
0000
0001
0000
1000
0000
,  // measure 15
0100
0000
0000
0010
0000
0000
0100
0000
0000
1000
0000
0000
0001
0000
0100
0000
,  // measure 16
0010
0000
0000
1000
0000
0000
0100
0000
0000
0010
0000
0000
0001
0000
1000
0000
,  // measure 17
0000
0001
0100
0001
0000
1000
0010
1000
,  // measure 18
0100
0010
0100
1001
,  // measure 19
0000
0010
1000
0010
0000
0100
0001
0100
,  // measure 20
0010
1000
0100
1001
,  // measure 21
0000
1000
0100
0001
0000
0100
0100
0010
,  // measure 22
0100
1000
0001
0101
,  // measure 23
0000
1000
0100
0001
0000
1000
0100
0001
,  // measure 24
1000
0100
0010
0011
,  // measure 25
1000
0100
0010
0001
0100
0010
1000
0000
,  // measure 26
1001
1000
0100
0000
1001
0001
0100
0000
,  // measure 27
0010
0000
0000
1000
0000
0000
0001
0000
0100
0000
0010
0000
0100
0000
0000
0000
,  // measure 28
2000
0000
3001
1000
0010
0000
0100
0000
,  // measure 29
0001
0010
0100
1000
0010
0100
0001
0000
,  // measure 30
1010
0001
0100
0000
0011
1000
0100
0000
,  // measure 31
0001
0100
0010
1000
,  // measure 32
0010
0100
0001
1000
0200
0000
0300
0000
,  // measure 33
0001
0001
1000
1000
0001
0001
1000
1000
,  // measure 34
0010
0100
0010
0000
1000
0001
1000
0000
,  // measure 35
0001
0001
0010
0010
0100
0100
1000
1000
,  // measure 36
0001
0100
0010
1000
0001
0000
1100
0000
,  // measure 37
0010
0010
0001
0001
1000
1000
0100
0100
,  // measure 38
0010
0001
0100
0000
0010
1000
0100
0000
,  // measure 39
0000
0010
1000
0001
1000
0000
0010
0000
,  // measure 40
1000
1000
0100
0010
0001
0000
0110
0000
,  // measure 41
1000
1000
0001
0001
1000
1000
0001
0001
,  // measure 42
0100
0010
1000
0000
0100
0010
0001
0000
,  // measure 43
1000
1000
0010
0010
0100
0100
0001
0001
,  // measure 44
0010
0100
1000
0010
0100
0000
0101
0000
,  // measure 45
0010
0010
0100
0100
0001
0001
1000
1000
,  // measure 46
0010
0001
0010
0000
1000
0100
1000
0000
,  // measure 47
0000
0001
0001
1000
0100
0000
0010
0000
,  // measure 48
0001
0001
0100
0010
1000
0000
0110
0000
,  // measure 49
0000
0001
0001
1000
0100
0000
1000
0000
,  // measure 50
0001
0001
0100
0010
1000
0000
1100
0000
,  // measure 51
0000
1000
1000
0001
0100
0000
0010
0000
,  // measure 52
0001
0000
1000
0001
0100
0000
0000
0000
;

//---------------dance-single - ----------------
#NOTES:
     dance-single:
     :
     Medium:
     5:
     0.335,0.325,0.147,0.084,0.000:
0000
0000
0000
0000
,
0000
0000
0000
0000
,
0000
0000
0000
0000
,
0000
0000
0000
0000
,
1000
0100
0010
0001
,
0100
0010
1000
0000
,
0020
0030
0020
0030
,
1000
0001
1000
1001
,
0010
0010
0010
0010
,
1000
1000
1000
1000
,
0001
0001
0001
0001
,
0010
0000
0001
1000
0001
0000
0010
0000
,
0001
0001
0001
0001
,
0100
0100
0100
0100
,
0010
0010
0010
0010
,
1000
0000
0001
0100
0001
0000
1000
0000
,
0001
1000
1000
0000
0010
0000
0000
0000
,
1000
0000
0100
0000
0001
0100
1000
0000
,
0010
0001
0010
0100
,
0001
1000
0100
1100
,
0001
1000
1000
0000
0010
0000
0000
0000
,
1000
0000
0001
0000
0010
0001
1000
0000
,
0100
0001
0100
1000
,
0010
0100
0001
1100
,
0001
1000
0001
0000
0001
0000
0001
0000
,
1000
0010
0100
0001
,
1000
0001
1000
0000
1000
0000
1000
0000
,
0020
0130
0200
0310
,
0001
1000
0001
0000
0001
0000
0001
0000
,
0000
0100
0100
0000
1001
0000
0110
0000
,
2000
3000
2000
3000
,
1001
0010
0101
0000
,
1000
0100
0001
0100
,
1000
0001
1000
0000
1000
0001
1000
0000
,
0001
0100
1000
0100
,
0001
1000
0020
0130
,
0001
1000
0001
0000
0001
1000
0001
0000
,
1000
0100
0001
0100
,
0000
1000
0001
0000
0100
0000
0010
0000
,
1100
0010
0101
0000
,
0010
1000
0010
0000
0010
1000
0010
0000
,
1000
0100
0001
0100
,
0010
0001
0010
0000
0010
0001
0010
0000
,
0001
0100
0002
1003
,
0100
1000
0100
0000
0100
1000
0100
0000
,
1000
0001
0100
0010
,
0000
1000
1000
0000
0001
0000
0100
0000
,
0011
0100
1010
0000
,
0000
0001
0001
0000
1000
0000
0100
0000
,
1010
0100
0011
0000
,
0000
1000
1000
0000
0100
0000
1001
0000
,
0010
0100
0001
1000
0100
0000
0000
0000
;

//---------------dance-double - ----------------
#NOTES:
     dance-double:
     :
     Hard:
     7:
     0.424,0.461,0.126,0.021,0.084:
00000000
00000000
00000000
00000000
,
00000000
00000000
00000000
00000000
,
00000000
00000000
00000000
00000000
,
00000000
00000000
00000000
00000000
,
02000000
00000000
00000000
03000000
,
20000000
00000000
00010000
30000000
,
00100000
00000000
00010000
00000000
,
00011000
00001000
00000100
00001001
,
00000010
00000000
00000000
00000100
00000000
00000000
00000010
00000000
00000000
00000100
00000000
00000000
00000001
00000000
00000100
00000000
,
00001000
00000000
00000000
00010000
00000000
00000000
00001000
00000000
00000000
00010000
00000000
00000000
00001000
00000000
00010000
00000000
,
01000000
00000000
00000000
10000000
00000000
00000000
01000000
00000000
00000000
10000000
00000000
00000000
00010000
00000000
01000000
00000000
,
00100000
00000000
00000000
10000000
00000000
00000000
00100000
00000000
00000000
10000000
00000000
00000000
01000000
00000000
00010000
00000000
,
00001000
00000000
00000000
00010000
00000000
00000000
00001000
00000000
00000000
00010000
00000000
00000000
00001000
00000000
00010000
00000000
,
00000100
00000000
00000000
00001000
00000000
00000000
00000100
00000000
00000000
00001000
00000000
00000000
00000100
00000000
00000010
00000000
,
00000001
00000000
00000000
00000010
00000000
00000000
00000001
00000000
00000000
00000010
00000000
00000000
00001000
00000000
00010000
00000000
,
00000100
00000000
00000000
00010000
00000000
00000000
00000100
00000000
00000000
00010000
00000000
00000000
00001000
00000000
00010000
00000000
,
00001000
00010000
01000000
10000000
,
00010000
00000000
01000000
00000000
00010000
10000000
00010000
10000000
,
01000000
00100000
00010000
00001000
,
00000010
00000000
00000001
00000000
00000100
00000010
00000100
00000010
,
00001000
00000001
00000100
00000101
,
00000010
00000000
00001000
00000000
00000100
00001000
00000100
00001000
,
00000001
00000100
00001000
00011000
,
00100000
00000000
00010000
00000000
01000000
00010000
01000000
00010000
,
10000000
01000000
10000000
00000000
00100000
01000000
00100000
00000000
,
00010000
00001000
00000100
00000000
00000010
00000100
00000010
00000000
,
00001000
00000001
00000010
00001000
,
00000110
00000001
00001100
00010000
,
00000100
00001000
00000100
00000000
00010000
00001000
00010000
00000000
,
00001000
00010000
00100000
00000000
10000000
00010000
10000000
00000000
,
00000000
00010000
01000000
01000000
00001000
00000000
00011000
00000000
,
10000000
00010000
01010000
00000000
,
10000000
10000000
00010000
00010000
10000000
10000000
00010000
00010000
,
01000000
00100000
01000000
00010000
10000000
00100000
00010000
00001000
,
00000010
00000010
00000001
00000001
00001000
00001000
00000100
00000100
,
00001000
00000010
00000100
00000010
00001000
00000001
00000001
00000000
,
00001000
00001000
00000001
00000001
00001000
00001000
00000001
00000001
,
00001000
00000001
00000010
00001000
00010000
00100000
10000000
00010000
,
01000000
00100000
01000000
00000000
00010000
10000000
00010000
00000000
,
10000000
00010000
01100000
00000000
00011000
00000000
00000000
00000000
,
00001000
00001000
00000001
00000001
00001000
00001000
00000001
00000001
,
00000100
00000010
00000001
00000010
00000100
00000001
00000100
00001000
,
00010000
00010000
00100000
00100000
10000000
10000000
01000000
01000000
,
10000000
00100000
01000000
00100000
10000000
00010000
00010000
00000000
,
10000000
10000000
00010000
00010000
10000000
10000000
00010000
00010000
,
10000000
01000000
00010000
00001000
00000100
00000001
00001000
00000001
,
00000100
00000010
00000100
00000000
00000001
00001000
00000001
00000000
,
00001000
00000001
00000110
00000000
00011000
00000000
00000000
00000000
,
00000000
00010000
00100000
10000000
01000000
00000000
10000000
00000000
,
00010000
01000000
00001000
00010000
,
00000000
00001000
00000010
00000001
00000100
00000000
00000001
00000000
,
00001000
00000100
00010000
00000000
;

//---------------dance-double - ----------------
#NOTES:
     dance-double:
     :
     Easy:
     2:
     0.177,0.217,0.116,0.011,0.000:
00000000
00000000
00000000
00000000
,
00000000
00000000
00000000
00000000
,
00000000
00000000
00000000
00000000
,
00000000
00000000
00000000
00000000
,
00010000
00000000
00000000
00000000
,
00100000
00000000
00000000
00000000
,
10000000
00000000
00010000
00000000
,
10000000
00010000
10000000
10010000
,
01000000
00000000
01000000
00000000
,
00100000
00000000
00100000
00000000
,
00010000
00000000
00010000
00000000
,
00001000
00000000
00001000
00000000
,
00000100
00000000
00000100
00000000
,
00000001
00000000
00000001
00000000
,
00001000
00000000
00001000
00000000
,
00010000
00000000
00010000
00000000
,
10000000
00000000
00000000
00000000
,
00010000
10000000
00010000
00000000
,
01000000
00000000
00000000
00000000
,
00001000
00010000
00001000
00000000
,
00000010
00000000
00000000
00000000
,
00000001
00001000
00000001
00000000
,
00000100
00000000
00000000
00000000
,
00000001
00000010
00001000
00000000
,
00010000
00100000
10000000
01000000
,
10000000
00000000
10000000
00000000
,
00100000
00000000
00100000
00000000
,
01000000
01000000
01100000
00000000
,
00010000
00001000
00000100
00000001
,
00000010
00000000
00000010
00000000
,
00000100
00000000
00000100
00000000
,
00000001
00000001
00001001
00000000
,
00000000
00000100
00000000
00000100
,
00000001
00000000
00001000
00000000
,
00000000
00000100
00000000
00000100
,
00010000
00000000
00001000
00000000
,
00000000
01000000
00000000
01000000
,
00010000
00000000
10000000
00000000
,
01000000
00000000
00011000
00000000
,
00000100
00000000
00001001
00000000
,
00000000
00000100
00000000
00000100
,
00000001
00001000
00000001
00000000
,
00000000
00000100
00000000
00000100
,
00001000
00010000
00001000
00000000
,
00000000
01000000
00000000
01000000
,
00010000
10000000
00010000
00000000
,
10000000
00000000
01100000
00000000
,
00010000
00000000
01100000
00000000
,
00010000
00000000
00011000
00000000
,
00001000
00000000
00011000
00000000
,
00000100
00000000
00001001
00000000
,
00000020
00000130
00001001
00000000
;

//---------------dance-double - ----------------
#NOTES:
     dance-double:
     :
     Medium:
     5:
     0.329,0.298,0.053,0.105,0.000:
00000000
00000000
00000000
00000000
,
00000000
00000000
00000000
00000000
,
00000000
00000000
00000000
00000000
,
00000000
00000000
00000000
00000000
,
20000000
30000000
00010000
00000000
,
00020000
00030000
10000000
00000000
,
00100000
00010000
00001000
00000100
,
00000010
00000100
00000001
00001100
,
00000001
00000100
00000001
00000100
,
00001000
00000000
00010000
00000000
00001000
00000000
00010000
00001000
,
01000000
00010000
01000000
00010000
,
10000000
00000000
01000000
00000000
10000000
00000000
00010000
01000000
,
00100000
10000000
00010000
01000000
,
00001000
00000000
00010000
00000000
00100000
00000000
00010000
00001000
,
00010000
00001000
00010000
00000100
,
00001000
00000000
00000010
00000000
00000100
00000000
00000001
00000010
,
00000200
00000300
00000200
00000300
,
00000001
00000100
00001000
00010000
,
02000000
03000000
02000000
03000000
,
10000000
00100000
00010000
00001000
,
00000020
00000030
00000020
00000030
,
00000001
00000010
00001000
00010000
,
00200000
00300000
00200000
00300000
,
10000000
00010000
01100000
00000000
,
10000000
00010000
10000000
00000000
00100000
00000000
01000000
00000000
,
00001000
00010000
00000100
00000010
,
00000001
00001000
00000001
00000000
00000100
00000000
00000010
00000000
,
00001000
00000001
00000100
00000101
,
00001000
00000001
00001000
00000000
00000100
00000000
00000010
00000000
,
00001000
00010000
01000000
00100000
,
00010000
10000000
00010000
00000000
01000000
00000000
00100000
00000000
,
10000000
00010000
01010000
00000000
,
00010000
00100000
00010000
00000000
00001000
00000100
00001000
00000000
,
00000100
00000001
00001000
00000100
,
00000001
00000100
00000001
00000000
00001000
00000100
00001000
00000000
,
00000010
00010000
00001000
00100000
,
00010000
01000000
00010000
00000000
10000000
01000000
10000000
00000000
,
00010000
01000000
00100000
10000000
,
00010000
00010000
00010000
00000000
01000000
00000000
00001000
00000000
,
00010000
01000000
10000000
01000000
00010000
00000000
00000000
00000000
,
00001000
00000010
00001000
00000000
00010000
01000000
00010000
00000000
,
00001000
00010000
00000100
00001000
,
00000010
00001000
00000010
00000000
00000100
00000001
00000100
00000000
,
00000001
00000100
00001000
00010000
,
00100000
10000000
00100000
00000000
01000000
00010000
01000000
00000000
,
00100000
10000000
01000000
00010000
,
00001000
00001000
00001000
00000000
00010000
00000000
00000100
00000000
,
00001000
00000100
00000001
00000100
00001000
00000000
00000000
00000000
,
00000001
00000001
00000001
00000000
00000100
00000000
00001000
00000000
,
00010000
00001000
00100000
00010000
01000000
00000000
00000000
00000000
,
00000000
10000000
00010000
00000000
01000000
00000000
00001000
00000000
,
00101000
00000000
00010000
01000000
10000000
00000000
00000000
00000000
;
