#TITLE:Bend and Break;
#SUBTITLE:;
#ARTIST:KEANE;
#TITLETRANSLIT:;
#SUBTITLETRANSLIT:;
#ARTISTTRANSLIT:;
#CREDIT:Juub005;
#BANNER:Bend and Break-bn-big.png;
#BACKGROUND:Bend and Break-bg-big.png;
#LYRICSPATH:Bend and Break.lrc;
#CDTITLE:HOPES AND FEARS.png;
#MUSIC:Bend and Break.mp3;
#OFFSET:-0.040;
#SAMPLESTART:48.160;
#SAMPLELENGTH:27.800;
#SELECTABLE:YES;
#BPMS:0.000=137.960,224.000=68.980,226.250=67.170,226.750=60.350,227.250=59.840,227.750=58.830,228.000=52.640,228.250=49.630,228.500=47.860,228.750=46.320,229.000=42.930,229.250=37.700,229.500=33.210,229.750=25.920;
#STOPS:;
#BGCHANGES:;

//---------------dance-single - ----------------
#NOTES:
     dance-single:
     :
     Hard:
     8:
     0.413,0.421,0.284,0.192,0.005: // measure 1
0000
0000
0000
0000
,  // measure 2
0000
0000
0000
0000
,  // measure 3
0000
0000
0000
0000
,  // measure 4
0000
0000
0000
0000
,  // measure 5
0001
0100
0000
0010
0000
1000
0000
0100
,  // measure 6
0010
0100
0000
1000
0000
1001
0000
0100
,  // measure 7
0010
0001
0000
1000
0000
0110
0000
1000
,  // measure 8
0001
0100
0000
0001
0100
0010
1000
0000
,  // measure 9
1001
0000
0000
1100
,  // measure 10
0010
0000
0100
0001
0000
1000
0100
0000
,  // measure 11
0010
0000
0100
1000
0000
0001
0100
0000
,  // measure 12
0010
0000
1000
0100
0000
0010
0001
0000
,  // measure 13
0100
0000
0001
0010
0000
0100
1000
0000
,  // measure 14
0001
1000
0000
0011
0000
1010
0000
0001
,  // measure 15
1000
0000
0000
0100
0000
0010
0001
0000
,  // measure 16
0100
0000
0010
0001
0000
0010
1000
0000
,  // measure 17
0100
0000
0010
1000
0000
0010
0001
0000
,  // measure 18
1000
0000
0001
0100
0000
0010
1000
0000
,  // measure 19
0100
0000
1000
0010
0000
0100
0001
0000
,  // measure 20
1000
0001
0000
1010
0000
0011
0000
0000
,  // measure 21
2001
0000
0100
0000
3020
0000
0130
0001
,  // measure 22
0000
1020
0000
1030
0000
0001
1000
0000
,  // measure 23
0100
0000
0010
0000
0010
0000
0000
0100
,  // measure 24
0000
1000
0000
0010
0000
0000
0000
0000
,  // measure 25
2001
0000
0010
0000
3200
0000
0310
0001
,  // measure 26
0000
1200
0000
1300
0000
0001
1000
0000
,  // measure 27
0010
0100
0010
0000
1000
0010
1000
0000
,  // measure 28
0001
0010
0001
0000
0100
0000
0001
0000
,  // measure 29
0020
0000
0031
1000
0000
0001
0000
0010
,  // measure 30
0002
0000
1003
0001
1000
0100
0001
0000
,  // measure 31
2100
0000
3001
0010
0000
0001
1000
0001
,  // measure 32
0000
0100
0001
0000
0100
0010
1000
0000
,  // measure 33
0001
0100
0000
1001
0000
0100
1000
0000
,  // measure 34
1010
0000
0100
0001
0000
0010
0100
0000
,  // measure 35
1100
0000
0001
0100
0000
0001
0010
0000
,  // measure 36
1001
0000
0100
1000
0000
0100
0010
0000
,  // measure 37
0011
0000
1000
0001
0100
0000
0001
0000
,  // measure 38
0021
0000
0031
1000
0100
0000
1000
0000
,  // measure 39
1020
0000
1030
0001
0000
1000
0100
0010
,  // measure 40
0000
0001
0100
0000
1000
0100
1000
0000
,  // measure 41
1001
0000
0010
0001
0000
0100
0001
1000
,  // measure 42
0000
0001
0010
0100
1000
0001
0010
0000
,  // measure 43
2002
0000
3000
1003
0000
0010
1000
0000
,  // measure 44
1002
0000
0103
0001
0000
1000
0001
0000
,  // measure 45
0021
0000
0130
1000
0000
1010
0000
0101
,  // measure 46
0000
1000
0001
0000
1000
0100
0010
0000
,  // measure 47
0001
1000
0100
1000
,  // measure 48
0001
0010
0100
1000
0000
0100
0010
0000
,  // measure 49
0001
0100
0010
1000
,  // measure 50
0001
0100
0001
1000
0000
0010
0100
0000
,  // measure 51
1010
0000
0001
1000
0100
0000
1000
0000
,  // measure 52
1020
0000
1030
0001
0100
0000
0001
0000
,  // measure 53
0021
0000
0031
1000
0000
0001
0100
0010
,  // measure 54
0000
1000
0100
0000
0001
0100
0001
0000
,  // measure 55
1001
0000
0010
2000
0000
3100
0010
0002
,  // measure 56
0000
0103
0010
0000
0100
0001
0010
0000
,  // measure 57
2002
0000
0000
3003
,  // measure 58
0010
0000
0010
0000
0100
0000
1000
0001
0100
0000
0000
0000
0000
0000
0000
0000
;

//---------------dance-single - ----------------
#NOTES:
     dance-single:
     :
     Medium:
     6:
     0.321,0.369,0.082,0.110,0.000:
0000
0000
0000
0000
,
0000
0000
0000
0000
,
0000
0000
0000
0000
,
0000
0000
0000
0000
,
0001
0010
0000
0100
0000
1000
0000
0000
,
0010
1000
0000
0100
0000
1000
0000
0000
,
0001
0010
0000
0001
0000
0100
0000
0000
,
0010
1000
0000
0100
1000
0100
1000
0000
,
0100
0000
0000
0010
0000
0000
0001
0000
,
0100
0000
0000
0010
0000
0000
1000
0000
,
0100
0000
0000
0100
0000
0000
0100
0000
,
0010
0000
0000
0010
0000
0000
0010
0000
,
0001
0000
0000
0001
0000
0000
0001
0000
,
1000
0002
0000
0100
0000
0103
0000
0001
,
1000
0000
0000
0100
0000
0000
0010
0000
,
0001
0000
0000
0010
0000
0000
0100
0000
,
1000
0000
0000
0010
0000
0000
0100
0000
,
0001
0000
0000
0100
0000
0000
0010
0000
,
1000
0000
0000
0100
0000
0000
0100
0000
,
0010
0002
0000
0100
0000
0103
0000
0000
,
1001
0000
0100
0000
1001
0000
0001
1000
,
0001
1000
0000
0001
0000
1000
0001
0000
,
0010
0010
0010
0010
,
0100
1000
0001
0010
,
1001
0000
0100
0000
1001
0000
1000
0001
,
1000
0001
0000
1000
0000
0001
1000
0001
,
1000
0100
0010
0001
,
1000
0100
0010
0001
,
1002
0000
0100
0100
,
0203
0000
0010
0010
,
0320
0000
0000
1030
,
0001
0001
0010
0100
,
1000
0100
0000
1000
0000
0100
1000
0000
,
0001
0000
0100
0001
0000
0100
0001
0000
,
0010
0001
0000
0010
0000
0001
0010
0000
,
0100
0000
1000
0100
0000
1000
0100
0000
,
0120
0000
0001
0001
,
0032
0000
0100
0100
,
2003
0000
0100
0100
,
3100
0000
0010
0000
0100
0100
0010
0000
,
0001
1000
0000
1000
0000
0001
1000
0000
,
0100
1000
1000
0010
1000
1000
0010
0000
,
1001
0000
0000
1001
0000
0000
0100
0000
,
1000
0000
0000
1000
0000
0000
1000
0000
,
0010
0000
0000
0010
0000
0010
0000
0010
,
0000
0100
0010
0000
0100
0001
0100
0000
,
0001
1000
0000
0100
0000
1000
0100
0000
,
0010
0000
0000
0010
0000
0000
0010
0000
,
0001
1000
0000
0100
0000
1000
0100
0000
,
0010
0000
0000
0010
0000
0001
0010
0000
,
0001
0000
1000
0001
0000
0100
0000
0001
,
1000
0000
0010
1000
0010
1000
0010
0000
,
2000
0000
3100
1000
0100
1000
0100
0000
,
0010
0001
0010
0000
0001
0010
0001
0000
,
1000
0000
0001
1000
0000
0001
0010
0001
,
0000
1000
0100
1000
0000
0001
0010
0001
,
2002
0000
0000
3003
,
0100
0010
0010
0100
0200
0300
0000
0000
;

//---------------dance-single - ----------------
#NOTES:
     dance-single:
     :
     Easy:
     3:
     0.216,0.263,0.055,0.073,0.000:
0000
0000
0000
0000
,
0000
0000
0000
0000
,
0000
0000
0000
0000
,
0000
0000
0000
0000
,
0001
0000
1000
0001
,
1000
0000
0010
0010
,
0010
0000
1000
0100
,
1000
1000
0100
0000
,
0010
0000
0010
0000
,
0001
1000
0100
1000
,
0001
0000
0100
0000
,
0100
0001
0010
0000
,
1000
0000
1000
0000
,
0100
0010
0100
0010
,
1001
0000
0100
0010
,
0100
0000
0001
1000
,
0001
0000
0010
0100
,
0010
0000
0100
1000
,
0100
0000
0001
0000
,
0010
0010
0010
0010
,
0100
1000
0001
0000
,
0010
0000
0010
0000
,
0001
0100
0010
0000
,
1000
0000
1000
0000
,
0100
0010
0001
0000
,
0100
0000
0100
0000
,
0010
0010
1000
1000
,
0001
0001
0100
0100
,
1001
0000
0100
0000
,
0001
1000
0010
0000
,
2000
0000
3001
0000
,
0001
0010
0001
0000
,
0100
0010
0010
0000
,
1000
0010
0010
0000
,
1000
0100
0100
0000
,
0010
0100
0100
0000
,
0110
0000
1001
0000
,
0002
0000
0013
0010
,
0100
0100
1000
0000
,
1000
0010
1000
0000
,
0001
0100
0001
0000
,
1000
0100
1000
0010
,
1001
0000
0100
0000
,
0001
0000
0010
0000
,
0100
0000
1000
0000
,
0010
0000
0010
0000
,
0002
0000
0103
0000
,
0020
0000
0130
0000
,
2000
0000
3100
0000
,
0020
0000
0130
0000
,
1001
0000
0010
0010
,
0002
0000
0103
0100
,
0010
0000
1000
0010
,
1000
0001
0001
0010
,
0100
1000
1000
0010
,
0001
1000
0010
0100
,
0002
0000
0003
0000
,
1000
0001
1000
0000
;

//---------------dance-single - ----------------
#NOTES:
     dance-single:
     :
     Beginner:
     1:
     0.084,0.132,0.055,0.000,0.000:
0000
0000
0000
0000
,
0000
0000
0000
0000
,
0000
0000
0000
0000
,
0000
0000
0000
0000
,
0100
0000
0000
0000
,
0010
0000
0000
0000
,
0010
0000
0000
0000
,
0100
0000
0000
0000
,
1001
0000
0000
0000
,
0000
0000
0000
0000
,
0010
0000
0000
0000
,
0010
0000
0000
0000
,
1001
0000
0000
0000
,
0001
0000
0000
0000
,
0001
0000
0000
0000
,
1000
0000
0000
0000
,
0100
0000
0000
0000
,
0000
0000
0000
0000
,
0010
0000
0000
0000
,
0010
0000
0000
0000
,
0001
0000
0000
0000
,
1000
0000
0000
0000
,
0010
0000
0000
0000
,
0010
0000
0000
0000
,
0110
0000
0000
0000
,
0001
0000
0000
0000
,
1000
0000
1000
0000
,
1000
0000
0000
0000
,
0001
0000
0000
0000
,
0010
0000
0000
0000
,
0001
0000
0001
0000
,
0001
0000
0000
0000
,
1001
0000
0000
0000
,
0100
0000
0000
0000
,
0010
0000
0010
0000
,
0010
0000
0010
0000
,
0010
0000
0000
0000
,
1000
0000
0000
0000
,
0100
0000
0000
0000
,
0001
0000
0000
0000
,
0110
0000
0000
0000
,
0100
0000
0000
0000
,
0001
0000
0000
0000
,
0000
0000
0000
0000
,
1000
0000
1000
0000
,
1000
0000
0000
0000
,
0100
0000
0000
0000
,
0010
0000
0000
0000
,
0001
0000
0000
0000
,
0001
0000
0001
0000
,
0100
0000
0000
0000
,
0010
0000
0000
0000
,
1000
0000
0000
0000
,
0001
0000
0001
0000
,
0010
0000
0000
0000
,
1000
0000
0000
0000
,
1001
0000
0000
0000
,
0000
0000
0001
0000
;
