#TITLE:Ben Cao Gang Mu;
#SUBTITLE:Herbalist's Manual;
#ARTIST:Jay Chou;
#TITLETRANSLIT:;
#SUBTITLETRANSLIT:;
#ARTISTTRANSLIT:;
#CREDIT:;
#BANNER:Ben Cao Gang Mu -Herbalist's Manual-.png;
#BACKGROUND:Ben Cao Gang Mu -Herbalist's Manual--bg.png;
#LYRICSPATH:;
#CDTITLE:Still Fantasy.png;
#MUSIC:Ben Cao Gang Mu -Herbalist's Manual-.mp3;
#OFFSET:-4.977;
#SAMPLESTART:47.800;
#SAMPLELENGTH:12.000;
#SELECTABLE:YES;
#BPMS:0.000=100.885;
#STOPS:;
#BGCHANGES:-7.761=Ben Cao Gang Mu -Herbalist's Manual-.avi=1.000=1=0=0,
135.000=Ben Cao Gang Mu -Herbalist's Manual--bg.png=1.000=1=0=0,
99999=-nosongbg-=1.000=0=0=0 // don't automatically add -songbackground-
;

//---------------dance-single - Beginner----------------
#NOTES:
     dance-single:
     Beginner:
     Beginner:
     1:
     0.128,0.193,0.125,0.000,0.000:
0100
0000
0000
0000
,
0010
0000
0000
0000
,
1000
0000
1000
0000
,
0001
0000
0001
0000
,
0100
0000
0100
0000
,
0010
0000
0010
0000
,
1000
0000
1000
0000
,
0001
0000
0001
0000
,
0100
0000
0100
0000
,
0010
0000
0010
0000
,
1000
0000
1000
0000
,
0001
0000
0001
0000
,
0100
0000
0100
0000
,
0010
0000
0010
0000
,
1001
0000
0000
0000
,
1001
0000
0000
0000
,
0110
0000
0000
0000
,
0110
0000
1001
0000
,
0100
0100
0100
0000
,
0010
0010
0010
0000
,
0001
0001
0001
0000
,
1000
1000
1000
0000
,
1001
0000
0100
0100
,
1001
0000
0010
0010
,
1001
0000
1000
1000
,
0110
0000
0001
0001
,
0110
0000
0000
0000
,
1000
0000
0000
0000
,
0001
0000
0000
0000
,
0010
0000
0000
0000
,
0100
1000
0000
0000
,
0100
0001
0000
0000
,
0010
1000
0000
0000
,
0010
0001
0000
0000
,
1001
0000
0000
0000
;

//---------------dance-single - Basic----------------
#NOTES:
     dance-single:
     Basic:
     Easy:
     2:
     0.208,0.232,0.273,0.000,0.000:
0001
0000
0000
0001
0000
0000
0000
0000
,
1000
0000
0000
1000
0000
0000
0000
0000
,
1001
0100
1000
0001
,
1001
0010
0100
1000
,
1001
0010
0100
0001
,
1001
0010
0100
1000
,
0110
1000
0010
0100
,
0110
0010
0001
0100
,
0110
0010
1000
0100
,
0110
0010
0001
0100
,
1001
0000
0100
0000
,
1000
0001
0100
0001
,
1001
0000
0100
0000
,
0010
0100
1000
0000
,
1001
0000
0010
0000
,
0010
0100
0010
1000
,
1001
0000
0001
0000
,
0010
0001
0100
0001
,
1001
0000
0110
0000
,
1001
0000
0000
0000
0010
0010
0010
0000
,
1001
0000
0100
0000
,
1001
0000
0000
0000
1000
1000
1000
0000
,
1001
0000
0010
0000
,
0110
0000
0000
0000
0001
0001
0001
0000
,
1001
0000
0110
0000
,
1000
0000
0000
0000
0010
0010
0010
0000
,
0001
0000
0000
0000
,
1000
0000
0000
0000
,
1001
0000
0000
0000
,
0110
0000
0000
0000
,
0001
1000
0001
0010
,
0100
1000
0001
0100
,
0010
0100
0001
0010
,
0100
1000
0001
1000
,
1001
0000
0000
0000
;

//---------------dance-single - Trick----------------
#NOTES:
     dance-single:
     Trick:
     Medium:
     4:
     0.326,0.309,0.455,0.000,0.000:
1010
0000
0000
0101
0000
0000
0000
0000
,
0011
0000
0000
1100
0000
0000
0001
0000
,
1000
0100
0010
0000
1001
0000
0101
0000
,
0001
1000
0100
0000
0110
0000
1010
0000
,
0010
1000
0100
0000
1100
0000
0101
0000
,
0001
1000
0001
0000
1000
0001
1000
0000
,
0110
0000
1001
0000
0100
0001
1000
0000
,
1001
0000
1100
0000
0100
1000
0001
0000
,
0010
0000
0001
0000
0100
0001
1000
0000
,
0010
0000
1000
0000
0010
0100
1000
0000
,
1001
0000
0100
0000
1000
0001
0100
0000
,
1001
0000
0010
0000
0100
1000
0010
0100
,
0001
0000
1000
0000
0001
0010
0100
0000
,
1001
0000
0100
0000
1000
1000
1000
0000
,
0001
0000
0100
0000
0001
0010
0100
0000
,
1100
0000
0101
0000
0001
1000
0100
0000
,
0010
0000
0100
0000
1000
0010
0100
0000
,
0001
0000
1000
0000
0001
0001
1000
1000
,
1001
0000
0100
0000
0010
0100
1000
0000
,
1001
0000
0010
0000
0100
0010
0100
0000
,
0001
0000
1000
0000
0100
0010
0100
0000
,
1000
0000
0001
0000
0100
0010
1000
0000
,
1001
0000
0110
0000
0010
0100
1000
0000
,
1001
0000
0110
0000
0010
1000
0100
0000
,
1100
0000
0011
0000
0001
0100
0001
0000
,
1000
0000
0100
0000
0010
0100
1000
0001
,
0101
0000
0000
1100
0000
0000
0000
0000
,
0110
0000
0000
0011
0000
0000
0000
0000
,
1001
0000
0000
1100
0000
0000
0000
0000
,
1001
0000
0000
0110
0000
0000
1100
0000
,
1001
0000
0001
0000
1000
0100
0010
0000
,
0001
0000
0100
0000
0001
1000
0100
0000
,
1010
0000
0100
0001
0010
0100
1000
0000
,
1001
0000
1000
0100
0010
0001
0100
0000
,
1001
0000
0000
0000
;

//---------------dance-single - Maniac----------------
#NOTES:
     dance-single:
     Maniac:
     Hard:
     9:
     0.549,0.541,0.205,0.182,0.415: // measure 1
1100
0000
0000
0000
0000
0000
0101
0000
0000
0000
0000
0000
0000
0000
0000
1000
,  // measure 2
0001
0000
0000
0000
0000
0000
0110
0000
0000
0000
1100
0000
0001
1000
0001
0000
,  // measure 3
1000
0000
0100
1000
0100
0000
0010
0000
0100
0010
0100
0000
0020
0000
0000
0000
,  // measure 4
0031
0000
0010
0001
0010
0000
0001
0000
0100
0010
0100
0000
0020
0000
0000
0000
,  // measure 5
1030
0000
0100
1000
0100
0000
1000
0000
0100
0010
0100
0000
0020
0000
0000
0000
,  // measure 6
0130
0000
1000
0100
1000
0000
0010
0000
0001
0010
0001
0000
0020
0000
0000
0000
,  // measure 7
1030
0000
0100
1000
0100
0000
1000
0000
0100
0010
0100
0000
0020
0000
0000
0000
,  // measure 8
0031
0000
0010
0001
0010
0000
0001
0000
0100
0010
0100
0000
2000
0000
0000
0000
,  // measure 9
3100
0000
0001
0010
0100
0000
0010
0000
0001
0100
0010
0000
2000
0000
0000
0000
,  // measure 10
3001
0000
0100
0010
1000
0000
0100
0000
0010
0001
0010
0000
0002
0000
0000
0000
,  // measure 11
0103
0010
1000
0100
0010
0100
1000
0000
,  // measure 12
0001
0000
0100
0000
0001
0000
0100
0000
0010
1000
0010
0000
1010
0000
0000
0000
,  // measure 13
1000
0001
0100
0001
1000
0100
0010
0100
,  // measure 14
1000
0000
0001
0000
0100
0000
0001
0000
1000
0001
1000
0100
1000
0000
0001
0000
,  // measure 15
1100
0000
0100
0000
1000
0000
0001
0000
1000
0100
1000
0000
0001
0000
0000
0000
,  // measure 16
1000
0000
0000
0001
0000
0000
1000
0000
0000
0001
0000
0000
1000
0001
1000
0001
0000
0000
1001
0000
0000
0000
0000
0000
,  // measure 17
1000
0000
0100
0000
1000
0100
1100
0000
0010
0000
0001
0000
0010
0001
0011
0000
,  // measure 18
0101
0000
1001
0000
1100
0000
1001
0000
0100
0001
0100
0001
1000
0000
1001
0000
,  // measure 19
1000
0000
0100
1000
0100
0000
0010
0000
0100
0010
0100
0000
0020
0000
0000
0000
,  // measure 20
0031
0000
0010
0001
0010
0000
0001
0000
0100
0010
0100
0000
0020
0000
0000
0000
,  // measure 21
1030
0000
0100
1000
0100
0000
1000
0000
0100
0010
0100
0000
0020
0000
0000
0000
,  // measure 22
0130
0000
1000
0100
1000
0000
0010
0000
0001
0010
0001
0000
0020
0000
0000
0000
,  // measure 23
1030
0000
0100
1000
0100
0000
1000
0000
0100
0010
0100
0000
0020
0000
0000
0000
,  // measure 24
0031
0000
0010
0001
0010
0000
0001
0000
0100
0010
0100
0000
2000
0000
0000
0000
,  // measure 25
3100
0000
0001
0010
0100
0000
0010
0000
0001
0100
0010
0000
2000
0000
0000
0000
,  // measure 26
3001
0000
0100
0010
1000
0000
0100
0000
0010
0001
0010
0000
0002
0000
0000
0000
,  // measure 27
0103
0000
0010
0000
1000
0100
0000
1000
0001
0000
0100
0000
0001
1000
0000
1000
,  // measure 28
0100
0000
0100
0000
1000
0010
0000
0010
0100
0000
0010
0000
0100
0010
1000
0000
,  // measure 29
1100
0000
0001
0000
1000
0100
0000
1000
0100
0000
0010
0000
0100
1000
0000
1000
,  // measure 30
0010
0000
0100
0000
0010
1000
0000
1000
0100
0000
0010
0001
0010
0000
0011
0000
,  // measure 31
0001
0000
0100
0000
0001
1000
0000
0001
0100
0000
0001
0000
0010
0100
0000
0100
,  // measure 32
1000
0000
0001
0000
1000
0100
0000
1000
0100
0000
0010
0000
0100
1000
0000
1000
,  // measure 33
0001
0000
0100
0000
0001
0100
0000
0100
0010
0000
1000
0000
0010
1000
0000
1000
,  // measure 34
0100
0000
0010
0000
0100
0010
0000
0010
0001
0000
0010
0001
0010
0000
0011
0000
,  // measure 35
1001
0000
0000
0000
;
