#TITLE:BUY U A DRANK;
#SUBTITLE:(SHAWTY SNAPPIN');
#ARTIST:T-PAIN ft Yung Joc;
#TITLETRANSLIT:;
#SUBTITLETRANSLIT:;
#ARTISTTRANSLIT:;
#CREDIT:JUUBENILE;
#BANNER:BUY U A DRANK (SHAWTY SNAPPIN')-bn.png;
#BACKGROUND:BUY U A DRANK (SHAWTY SNAPPIN')-bg.png;
#LYRICSPATH:BUY U A DRANK (SHAWTY SNAPPIN').lrc;
#CDTITLE:EPIPHANY.png;
#MUSIC:BUY U A DRANK (SHAWTY SNAPPIN').mp3;
#OFFSET:-0.030;
#SAMPLESTART:46.935;
#SAMPLELENGTH:18.000;
#SELECTABLE:YES;
#BPMS:0.000=80.000;
#STOPS:;
#BGCHANGES:16.000=BUY U A DRANK (SHAWTY SNAPPIN').avi=1.000=1=0=1,
159.000=BUY U A DRANK (SHAWTY SNAPPIN')-bg.png=1.000=0=0=1,
99999=-nosongbg-=1.000=0=0=0 // don't automatically add -songbackground-
;

//---------------dance-single - ----------------
#NOTES:
     dance-single:
     :
     Hard:
     5:
     0.214,0.249,0.000,0.067,0.017:
0000
0000
0000
0000
,
0000
0000
0000
0000
,
0000
0000
0000
0000
,
0000
0000
0000
0000
,
0020
0000
0000
0000
,
0030
0000
0000
0000
,
0002
0000
0000
1000
0203
0000
0000
0000
,
0320
0000
0000
0000
0030
0010
0100
0001
,
1000
0000
0010
0001
1000
0000
0001
0100
,
1000
0000
0010
0100
0001
0000
0010
1000
,
0001
0000
0001
1000
0100
0000
0010
0100
,
1000
0010
0100
0001
0010
0000
0001
0001
,
1000
0100
0010
0000
1000
0010
0001
0000
,
1000
0010
0100
0001
0010
0000
0100
0010
,
0001
0000
1000
0100
0010
0000
0001
1000
,
0010
0100
0001
0010
0100
1000
0010
0100
,
0001
0000
0000
0000
,
1000
0001
0100
0010
1000
0000
0001
0000
0100
0000
0000
0000
0010
0000
0001
0000
,
1000
0000
0001
0010
0010
0001
1000
0000
,
0001
0010
0100
1000
0000
1000
0100
0010
,
0001
0000
0000
1000
0000
1000
0000
0000
,
0001
0000
0000
0010
0000
0000
0000
0000
,
0100
0000
0000
1000
0000
1000
0000
0000
,
0010
0000
0000
0010
0000
0000
0010
1000
,
0100
0000
0010
0010
0010
1000
1000
0100
,
0100
0020
0000
0130
,
0010
0010
0001
0001
,
0100
0100
0100
0000
0010
0010
0010
1000
,
0100
0000
0010
1000
0001
0100
0001
1000
,
0100
0020
0000
0130
,
0010
0010
0100
0100
,
1000
0001
0010
0100
0100
1000
1000
0010
,
0010
0000
0000
0000
,
0001
1000
0010
0100
0001
0000
1000
0000
0010
0000
0000
0000
0100
0000
1000
0000
,
0001
0000
1000
0100
0100
1000
0001
0000
,
1000
0010
0100
0001
0000
0001
0100
0010
,
2000
0000
0000
0010
0000
0010
0000
0000
,
0100
0000
0000
0001
0000
0000
0000
0000
,
3020
0000
0000
1000
0000
1000
0000
0000
,
0001
0000
0000
0100
0000
0000
0030
0000
;

//---------------dance-single - ----------------
#NOTES:
     dance-single:
     :
     Medium:
     4:
     0.184,0.249,0.000,0.217,0.000:
0000
0000
0000
0000
,
0000
0000
0000
0000
,
0000
0000
0000
0000
,
0000
0000
0000
0000
,
0002
0000
0000
0000
,
0003
0000
0000
0000
,
2000
0000
3000
0000
,
0020
0000
0230
0000
,
0310
2000
3002
0003
,
1000
0200
0320
0030
,
0001
2000
3200
0300
,
1000
0000
0010
0100
0001
0000
0000
0000
,
0002
2003
3010
0100
,
0200
0302
0013
0001
,
0002
0203
0310
1000
,
1000
0000
0010
0100
0001
0000
1000
1000
,
0100
0000
0000
0000
,
0001
0001
0001
1000
1000
0000
0100
0010
,
0001
0000
0000
0000
1000
1000
1000
0000
,
0001
0010
0001
0000
1000
0001
1000
0000
,
0200
0000
0000
0000
,
0320
0000
0000
0030
0000
0000
0000
0000
,
0002
0000
0000
0000
,
0203
0000
0000
0300
0000
0000
1000
0010
,
0100
0000
0001
0100
0010
1000
0001
1000
,
0001
2000
0000
3001
,
0001
0001
0001
0001
,
1000
0010
1000
0010
1000
0000
0001
0010
,
0100
0000
1000
0010
0100
0001
1000
0001
,
1000
0002
0000
1003
,
1000
1000
1000
1000
,
0010
0100
0010
0100
0001
1000
0001
1000
,
0010
0000
0000
0000
,
0001
0001
0001
1000
1000
0000
0100
0010
,
0001
0000
1000
1000
1000
1000
1000
0000
,
0001
0010
0001
0001
1000
0001
1000
1000
,
0200
0000
0000
0000
,
0320
0000
0000
0000
,
0032
0000
0000
0000
,
2003
0000
0000
3000
;

//---------------dance-single - ----------------
#NOTES:
     dance-single:
     :
     Easy:
     1:
     0.091,0.147,0.000,0.033,0.000: // measure 1
0000
0000
0000
0000
,  // measure 2
0000
0000
0000
0000
,  // measure 3
0000
0000
0000
0000
,  // measure 4
0000
0000
0000
0000
,  // measure 5
0010
0000
0000
0000
,  // measure 6
0001
0000
0000
0000
,  // measure 7
2000
0000
3000
0000
,  // measure 8
0020
0000
0030
0000
,  // measure 9
0100
0000
0100
0000
,  // measure 10
0001
0000
1000
0000
,  // measure 11
0100
0000
0100
0000
,  // measure 12
1000
0001
0010
0000
,  // measure 13
1000
0000
1000
0000
,  // measure 14
0010
1000
0001
0000
,  // measure 15
1000
0000
1000
0000
,  // measure 16
0001
0000
0010
0000
,  // measure 17
0100
0000
0000
0000
,  // measure 18
1000
1000
1000
0000
,  // measure 19
0100
1000
1000
0000
,  // measure 20
0010
0010
0100
0000
,  // measure 21
0001
0000
0000
0000
,  // measure 22
1000
0000
0000
0000
,  // measure 23
0100
0000
0000
0000
,  // measure 24
0010
0000
0000
0000
,  // measure 25
0001
0001
1000
0001
,  // measure 26
2000
0000
0000
3000
,  // measure 27
0010
0000
0100
0000
,  // measure 28
0010
0000
0100
0000
,  // measure 29
0001
0001
1000
0001
,  // measure 30
2000
0000
0000
3000
,  // measure 31
0100
0100
0010
0010
,  // measure 32
0100
0100
0010
0100
,  // measure 33
0010
0000
0000
0000
,  // measure 34
0001
0001
0001
0000
,  // measure 35
0100
0001
0001
0000
,  // measure 36
0100
0100
0010
0000
,  // measure 37
1000
0000
0000
0000
,  // measure 38
0001
0000
0000
0000
,  // measure 39
1000
0000
0000
0000
,  // measure 40
0100
0000
0000
0000
;

//---------------dance-single - ----------------
#NOTES:
     dance-single:
     :
     Beginner:
     1:
     0.085,0.100,0.000,0.092,0.000:
0000
0000
0000
0000
,
0000
0000
0000
0000
,
0000
0000
0000
0000
,
0000
0000
0000
0000
,
0002
0000
0000
0000
,
0003
0000
0000
0000
,
1000
0000
1000
0000
,
0010
0010
0010
0000
,
1000
0000
0100
0000
,
1000
0000
0001
0000
,
2000
0000
3000
0000
,
0001
0001
0001
0000
,
0100
0000
0010
0000
,
0100
0000
0010
0000
,
1000
0000
0001
0000
,
1000
0000
0100
0000
,
2000
0000
3000
0000
,
0001
0001
0001
0000
,
2000
0000
3000
0000
,
0010
0000
0100
0000
,
0001
0000
0000
0000
,
0100
0000
0000
0000
,
0010
0000
0000
0000
,
1000
0000
0000
0001
,
0001
0000
1000
1000
,
2000
0000
0000
3000
,
0010
0000
0100
0000
,
0010
0000
0100
0000
,
0001
0000
0001
0001
,
0002
0000
0000
0003
,
1000
0000
0001
0000
,
1000
0000
0001
0000
,
0020
0000
0030
0000
,
0001
0001
0001
0000
,
2000
0000
3000
0000
,
0100
0000
1000
0000
,
0002
0000
0000
0000
,
0000
0000
0003
0000
,
2000
0000
0000
3000
,
0002
0000
0000
0003
;
