#TITLE:BRING IT;
#SUBTITLE:(SNAKES ON A PLANE);
#ARTIST:COBRA STARSHIP;
#TITLETRANSLIT:;
#SUBTITLETRANSLIT:;
#ARTISTTRANSLIT:;
#CREDIT:;
#BANNER:BRING IT (SNAKES ON A PLANE).png;
#BACKGROUND:BRING IT (SNAKES ON A PLANE)-bg.png;
#LYRICSPATH:;
#CDTITLE:While The City Sleeps... We Rule The Streets.png;
#MUSIC:BRING IT (SNAKES ON A PLANE).mp3;
#OFFSET:-6.966;
#SAMPLESTART:26.368;
#SAMPLELENGTH:12.000;
#SELECTABLE:YES;
#BPMS:0.000=139.016;
#STOPS:;
#BGCHANGES:0.000=BRING IT (SNAKES ON A PLANE).avi=1.000=1=0=0,
240.000=BRING IT (SNAKES ON A PLANE)-bg.png=1.000=1=0=0,
99999=-nosongbg-=1.000=0=0=0 // don't automatically add -songbackground-
;

//---------------dance-single - Beginner----------------
#NOTES:
     dance-single:
     Beginner:
     Beginner:
     1:
     0.177,0.204,0.127,0.000,0.000:
1001
0000
0001
0000
,
1001
0000
1000
0000
,
0010
0010
0010
0000
,
0100
0100
0100
0000
,
1000
0000
0001
0000
,
1001
0000
0001
0000
,
0110
0000
0100
0000
,
1000
0000
0001
0000
,
1001
0000
0001
0001
,
0000
0000
0000
0000
,
1001
0000
1000
1000
,
0000
0000
0001
0001
,
0001
0000
1000
0000
,
1000
0000
1000
0000
,
0010
0010
0010
0010
,
0010
0000
0001
0001
,
0001
0100
0000
0100
,
0000
0100
0000
0100
,
0010
0010
0010
0000
,
1000
1000
1000
0000
,
0001
0000
1000
0000
,
0001
0000
0010
0000
,
0100
0100
0100
0100
,
0100
0000
0010
0000
,
0010
0000
1000
0000
,
1000
0000
0001
0000
,
0001
0000
1001
0000
,
1000
0000
1001
0000
,
0001
0000
1000
0000
,
1000
0000
0001
0000
,
0010
0000
0100
0000
,
0100
0000
0001
0001
,
0001
0000
1000
0000
,
0100
0000
1000
0000
,
0010
0000
0100
0000
,
0001
0001
0001
0001
,
1000
0000
0000
0000
,
1001
0000
0000
0000
,
0001
0000
0000
0000
,
0110
0000
0000
0000
,
1000
0000
1000
0000
,
0001
0000
0010
0010
,
0010
0000
0010
0000
,
0010
0000
1000
0000
,
1000
1000
0000
0001
,
0000
0001
0000
0100
,
0100
0100
0000
1000
,
0000
0001
0000
0001
,
1001
0000
0000
0000
,
0000
1000
1000
0000
,
0001
0000
0001
0000
,
0001
0000
0010
0010
,
1001
0000
0000
0000
,
0000
0000
0100
0000
,
0100
0000
0001
0000
,
1000
0000
0001
0000
,
1001
0000
0001
0001
,
0000
0000
0000
0000
,
1001
0000
1000
1000
,
0000
0000
0001
0001
,
1001
0000
0000
0000
;

//---------------dance-single - Basic----------------
#NOTES:
     dance-single:
     Basic:
     Easy:
     2:
     0.230,0.229,0.068,0.068,0.000:
0001
1000
0100
0000
,
0001
0010
0001
0000
,
1000
1000
1000
0000
,
0001
0001
0001
0000
,
1001
0000
1001
0000
,
0110
0000
0110
0000
,
0001
0001
0001
0000
,
1000
1000
1000
0000
,
1001
0000
0100
0100
,
0000
0010
0010
0010
,
1001
0000
0100
0100
,
0000
0010
0010
0010
,
2000
0001
0000
0001
,
0000
3001
0001
1000
,
0100
0010
0100
1000
,
0001
0000
0100
0100
,
0020
0000
0100
0000
,
0100
0000
0130
0100
,
1000
0001
0100
0000
,
0001
0010
0100
0000
,
0002
1000
0000
1000
,
0000
1003
0100
1000
,
0001
0100
0010
1000
,
0100
1000
0001
1000
,
0010
0020
0000
0100
,
0000
0100
0130
1000
,
0100
1000
0001
0100
,
0000
0001
1000
0100
,
1000
0000
0001
0000
,
1000
0000
0001
0000
,
1000
0000
0001
0000
,
1000
1000
1000
1000
,
0001
0000
0010
0000
,
0100
0000
0010
0000
,
0100
0000
0010
0000
,
1000
1000
1000
1000
,
0002
0000
0000
0000
,
2003
0000
0000
0000
,
3200
0000
0000
0000
,
0320
0000
0000
0000
,
0031
0001
0000
1000
,
0000
0001
1000
0100
,
1000
0001
0100
0001
,
1000
0000
0001
0001
,
1000
0100
0000
0100
,
0000
0100
0010
1000
,
0100
1000
0001
0100
,
0000
0001
0000
1000
,
0001
1000
0000
1000
,
0000
0010
1000
0001
,
0100
0001
1000
0100
,
1000
0001
0100
0010
,
1000
0001
0000
0001
,
0000
0001
0010
0100
,
1000
0001
0000
1000
,
0001
0100
0001
1000
,
0100
0000
0100
0100
,
0000
0010
0010
0010
,
1001
0000
0001
0001
,
0000
1000
1000
0001
,
1001
0000
0000
0000
;

//---------------dance-single - Trick----------------
#NOTES:
     dance-single:
     Trick:
     Medium:
     6:
     0.404,0.382,0.212,0.025,0.000:
1001
0100
1000
0001
,
1001
0001
0010
0100
,
1000
0000
0001
1000
0000
0100
1000
0000
,
0001
0010
0001
0010
0000
0001
0100
0000
,
0001
1000
0100
1000
,
0001
0100
0010
1000
,
0100
0000
1000
0001
0000
1000
0100
0000
,
1000
0000
0001
0100
0000
0001
1000
0000
,
1100
0000
0000
1000
0001
0000
0100
0001
,
0000
1000
0100
0010
0000
0100
1000
0001
,
0100
0000
0000
0001
1000
0000
0100
1000
,
0000
0001
0100
0001
1000
0100
1000
0000
,
0001
0000
0100
0000
0010
1000
0100
0000
,
1000
0001
0010
0000
0010
0001
0100
0000
,
1001
1100
1001
0101
,
1001
0000
0100
1000
0000
0100
0001
0000
,
0010
0100
1000
0000
0001
0000
0100
0000
,
0010
1000
0100
0000
1000
0100
1000
0000
,
0001
0100
0001
0000
1000
0000
0100
0000
,
0010
0100
1000
0000
0010
0100
0001
0000
,
1000
1100
1000
0101
,
0001
0101
0001
1001
,
1000
0100
1000
0000
0001
0100
0001
0000
,
0100
0001
1000
0100
1000
0000
0001
0000
,
0100
1001
1000
1100
,
1000
1010
1000
1100
,
1000
0001
0100
0000
0001
1000
0100
0000
,
0010
0100
1000
0000
0010
0100
0001
0000
,
0001
0000
1000
0100
1000
0100
1000
0000
,
0001
0000
0100
0000
0001
0100
0001
0000
,
0100
0000
0010
0000
1000
0010
1000
0000
,
0100
1000
0100
0000
1000
0001
1000
0000
,
0001
0000
0100
0000
0001
1000
0100
0000
,
0010
0000
0100
0000
1000
0010
0100
0000
,
0010
0000
1000
0000
0001
1000
0001
0000
,
0100
0001
1000
0100
1000
0001
0100
0001
,
2000
0000
0000
0000
,
3002
0000
0000
0000
,
0003
0000
0000
0000
,
0210
0010
0010
0310
,
0110
0000
0001
0000
1000
0100
0010
0000
,
0100
0000
1000
0001
0100
0000
0001
1000
,
0100
0000
0010
0000
0100
0000
1000
0010
,
1000
0000
0100
1000
0100
1000
0001
0000
,
0100
0000
0001
1000
0100
0000
0110
0000
,
1000
0000
0001
0100
0001
0000
1000
0000
,
0100
1000
0100
0000
0010
0100
0010
0000
,
0001
0010
0001
0000
0010
0100
0010
0000
,
0100
0000
1000
0001
0100
0000
1001
0000
,
0010
0000
0100
1000
0100
0000
1000
0001
,
1000
0000
0001
0100
0001
0000
1000
0100
,
1000
0000
0001
0000
0100
0010
1000
0000
,
1100
1001
0100
1001
,
0010
0000
0110
0000
0100
1000
0001
0000
,
0100
0001
1000
0000
0010
0100
1000
0000
,
0010
0100
0001
0000
1000
0000
0001
0000
,
1000
0100
0000
1000
0001
0000
0100
0001
,
0000
1000
0100
1000
0100
0010
0100
1000
,
0001
0100
0000
0001
1000
0000
0001
0100
,
0000
0001
0010
0100
1000
0010
0100
0001
,
1001
0000
0000
0000
;

//---------------dance-single - Maniac----------------
#NOTES:
     dance-single:
     Maniac:
     Hard:
     7:
     0.421,0.433,0.034,0.127,0.004:
1001
0000
0010
0100
1000
0001
0100
0000
,
0001
0000
1000
0100
0000
1000
0001
0100
,
0001
0010
0100
1000
0000
0001
1000
0000
,
0100
0010
0100
1000
0000
0010
0100
0001
,
1000
0100
0010
0100
0000
1000
0001
0100
,
0001
0000
0010
0001
0000
0100
0001
1000
,
0100
0000
0010
0100
0000
1000
0010
0100
,
0010
1000
0100
0010
0001
0100
0001
1000
,
1001
0000
0000
1000
0100
1000
0100
1000
,
0000
0001
0100
0001
0000
0010
0001
0100
,
1001
0000
0000
1000
0100
0010
0100
1000
,
0000
0010
0100
0001
0010
0001
0100
0000
,
0002
1000
0000
1000
,
0000
0000
1003
0100
0010
0100
1000
0000
,
0010
0000
0100
0000
0001
0000
0010
0001
,
0000
0010
0001
0100
0001
1000
0100
0000
,
0020
0200
0000
0000
,
0000
0000
0330
0000
0001
1000
0100
0010
,
0100
1000
0001
0100
0001
0010
0001
0000
,
0100
0001
0100
0000
0001
0010
0100
0000
,
2000
0001
0000
0001
,
0000
0000
3001
0010
0100
0000
1000
0010
,
0100
0000
0001
0000
1000
0000
0100
1000
,
0100
1000
0001
0100
0001
0010
0100
0000
,
2000
0002
0000
0000
,
0000
0000
3003
0000
0001
1000
0100
0010
,
0100
1000
0000
0001
0000
0100
0010
0000
,
1000
0010
0000
1000
0100
0010
0100
1000
,
0001
0100
0001
0010
0001
0100
0001
1000
,
0000
0100
0000
1000
0001
0100
0010
1000
,
0000
0100
1000
0100
0010
0100
1000
0001
,
0100
0001
0010
0000
0010
0001
0100
0001
,
0000
0010
0100
1000
0001
0100
0001
1000
,
0000
0010
0100
1000
0010
0100
0010
1000
,
0000
1000
0000
1000
0010
0001
0010
1000
,
0100
0001
0100
1000
0010
0100
0010
1000
,
0200
0000
0000
0000
,
2300
0000
0000
0000
0000
0000
0000
0100
,
3002
0000
0000
0000
,
1003
0100
1000
0000
0000
0000
0001
0000
1000
0000
0100
0000
0010
0000
0000
0000
,
0200
1000
0000
1000
,
0000
0000
1300
0001
1000
0001
0100
0000
,
0001
0010
0100
0000
1000
0001
0100
0000
,
0001
0010
0001
0100
0001
1000
0100
0000
,
0020
0200
0000
0000
,
0000
0000
0330
0000
0001
1000
0100
0010
,
0100
1000
0010
0100
0010
0001
0010
1000
,
0100
0010
0001
0100
0001
1000
0100
0000
,
2000
0001
0000
0001
,
0000
0000
3001
0010
0100
0000
1000
0001
,
0100
0000
0010
1000
0010
0000
1000
0010
,
0000
0010
1000
0100
0010
0100
1000
0000
,
0002
0200
0000
0000
,
0000
0000
0303
0000
0001
1000
0001
1000
,
0100
1000
0000
0001
0000
1000
0100
0000
,
1000
0001
0000
1000
0010
1000
0001
1000
,
0100
0010
0100
1000
0001
0100
0001
0010
,
0000
0001
0100
0001
1000
0100
0010
0100
,
1001
0000
0000
1000
0100
1000
0100
1000
,
0000
0001
1000
0001
0100
0001
1000
0001
,
1000
0000
0000
0000
;
