#TITLE:BOYS OF SUMMER;
#SUBTITLE:;
#ARTIST:DJ Sammy;
#TITLETRANSLIT:;
#SUBTITLETRANSLIT:;
#ARTISTTRANSLIT:;
#CREDIT:;
#BANNER:BOYS OF SUMMER.png;
#BACKGROUND:BOYS OF SUMMER-bg.png;
#LYRICSPATH:;
#CDTITLE:;
#MUSIC:BOYS OF SUMMER.mp3;
#OFFSET:-3.848;
#SAMPLESTART:43.980;
#SAMPLELENGTH:12.000;
#SELECTABLE:YES;
#BPMS:0.000=145.018;
#STOPS:;
#BGCHANGES:;

//---------------dance-single - ----------------
#NOTES:
     dance-single:
     :
     Hard:
     7:
     0.463,0.478,0.079,0.238,0.178:
0000
0000
0000
0000
,
0000
0000
0000
0000
,
2000
0000
0000
3020
0000
0000
0230
0000
,
0001
0010
1300
0000
,
0002
0000
0000
0023
0000
0000
0230
0000
,
1000
0010
0301
0000
,
1000
0000
0000
0010
0000
0000
0010
0000
0100
0000
0000
0001
0000
0000
0001
0000
,
1000
0000
0000
0100
0000
0000
0001
0000
1000
0000
0000
0010
0000
0000
0100
0000
,
0001
0000
0001
0000
1000
0100
0010
0100
,
1000
0001
0100
0010
0100
0001
0000
1000
,
0100
0000
1000
0000
0001
0100
0001
0000
,
1000
0010
0100
0001
0010
0000
1100
0000
,
0001
0000
0001
0000
1000
0010
0100
0010
,
1000
0001
0010
0100
0010
0001
0000
0100
,
0010
0000
1000
0000
0001
0010
0100
0000
,
1000
0010
0100
0001
1000
0000
0101
0000
,
0010
1000
0200
0000
0010
0000
0001
0000
,
1300
0010
0200
0000
0001
0000
1000
0000
,
0310
0100
0101
0000
0010
0100
1100
0000
,
0001
0000
0000
0000
1000
0000
0001
0100
,
2000
0000
0100
3001
,
0100
0010
0100
0001
2000
0000
0010
0000
,
3001
0000
0100
0010
0002
0000
0010
0000
,
1003
0000
0001
0100
1000
0100
0001
0000
,
1000
0000
0000
1000
0100
0000
0000
0100
0010
0000
0000
0010
0001
0000
0000
0001
,
1000
0000
0000
1000
0010
0000
0000
0010
0100
0000
0000
0100
0001
0000
0000
0001
,
0010
0000
0000
0010
0001
0000
0000
0001
1000
0000
0000
1000
0010
0000
0000
0010
,
1000
0000
0000
1000
0100
0000
0000
0100
0001
0000
0000
0001
0100
0000
0000
0100
,
1000
0001
1000
0000
0010
0100
0010
0000
,
0001
0100
0001
0000
1000
0100
1000
0000
,
0001
0000
0100
0010
0000
1000
0001
0000
,
1000
0000
0010
0100
0000
1000
0001
0000
,
0010
0000
0000
0010
0100
0000
0000
0100
0001
0000
0000
0001
1000
0000
0000
1000
,
0100
0000
0000
0100
1000
0000
0000
1000
0001
0000
0000
0001
0100
0000
0000
0100
,
0010
0000
0000
0010
1000
0000
0000
1000
0010
0000
0000
0010
0001
0000
0000
0001
,
0010
0000
0000
0010
1000
0000
0000
1000
0001
0000
0000
0001
0100
0000
0000
0100
,
0001
1000
0001
0000
0100
0010
0100
0000
,
1000
0100
1000
0000
0001
0100
0001
0000
,
1000
0000
0100
0001
0000
0100
0010
0000
,
0001
0000
0100
1000
0000
0100
0010
0000
,
1000
0100
0002
0000
0010
0000
1000
0000
,
0103
0010
1000
0000
0001
0000
0100
0000
,
0001
0100
2000
0000
0010
0000
0001
0000
,
3100
0010
0001
0000
1000
0001
1000
0000
,
0001
0000
0100
0010
0000
0010
1000
1000
,
0000
0001
0100
0000
0010
1000
0100
0000
,
1010
0000
1000
0001
0000
0001
0100
0100
,
0000
1001
0000
1000
0100
0000
0100
0000
,
0001
0010
2000
0000
0100
0000
3100
0000
,
0001
1000
0001
0000
1000
0100
1000
0000
,
0101
0000
0010
0100
0000
0001
0010
0000
,
0001
0100
0010
0000
0210
0000
1300
0000
,
0100
0001
0020
0000
0130
0000
0000
0000
,
2000
0000
3002
0203
,
0020
0300
0000
2000
0030
0000
3002
0000
,
0200
0003
0000
0020
0000
0000
0000
0000
,
0000
0000
0000
0330
;

//---------------dance-double - ----------------
#NOTES:
     dance-double:
     :
     Hard:
     7:
     0.412,0.478,0.000,0.367,0.149:
00000000
00000000
00000000
00000000
,
00000000
00000000
00000000
00000000
,
00010000
00000000
00000000
01000000
00000000
00000000
10000000
00000000
,
00100000
01000000
00010000
00000000
10000000
00000000
00000000
00000000
,
01000000
00000000
00000000
00010000
00000000
00000000
00000100
00000000
,
00000001
00000010
00000200
00000000
00000300
00000000
00000000
00000000
,
00000001
00000000
00000000
00000001
00000000
00000000
00000100
00000000
00001000
00000000
00000000
00001000
00000000
00000000
00010000
00000000
,
01000000
00000000
00000000
01000000
00000000
00000000
10000000
00000000
00010000
00000000
00000000
00010000
00000000
00000000
01000000
00000000
,
00100000
10000000
00010000
01000000
,
00001000
00000010
00000001
00000100
,
00000000
00000000
00000001
00000000
00001000
00000010
00000100
00000000
,
00000001
00000010
00001000
00010000
00000100
00000000
00001000
00000000
,
00000010
00010000
01000000
00000000
,
00010000
00000000
00100000
00000000
10000000
00000000
00100000
00010000
,
01000000
00000000
00000000
10000000
00000000
00000000
00100000
00000000
,
01000000
00010000
00000000
00001000
00010000
00000100
00000000
00000000
,
00000010
00000000
00000001
00000100
00001000
00000000
00000100
00000010
,
00010000
00000000
00001000
01000000
10000000
00000000
01000000
00100000
,
20000000
32000000
03200000
00320000
,
10030000
00000000
00000000
00100000
00000000
00000000
01000000
00000000
00010000
00000000
00000000
00001000
00000000
00000000
00000010
00000000
,
00000100
00000000
00000001
00000100
00001000
00000000
00000100
00000010
,
00010000
00000000
00001000
01000000
10000000
00000000
01000000
00100000
,
20000000
00000000
02000000
30000000
,
00020000
03000000
00002000
00030000
,
00003010
00000000
00000000
00000001
00000100
00000000
00000000
00000100
00000010
00000000
00000000
00000010
00001000
00000000
00000000
00001000
,
00000100
00000000
00000000
00000100
00010000
00000000
00000000
00010000
00001000
00000000
00000000
00001000
00010000
00000000
00000000
00010000
,
01000000
00000000
00000000
01000000
10000000
00000000
00000000
10000000
00010000
00000000
00000000
00010000
01000000
00000000
00000000
01000000
,
00100000
10000000
00100000
00000000
01000000
00010000
01000000
00000000
,
00002000
00003020
00002030
00023000
,
01030000
00000000
10000000
00010000
10000000
00000000
01000000
00000000
,
00010000
00000000
01000000
00010000
00000000
00010000
00001000
00000000
,
00000010
00000000
00001000
00010000
00000000
00000100
00000020
00000000
,
00000031
00000000
00000000
00000100
00000010
00000000
00000000
00000010
00001000
00000000
00000000
00001000
00000100
00000000
00000000
00000100
,
00010000
00000000
00000000
00010000
00001000
00000000
00000000
00001000
00010000
00000000
00000000
00010000
00100000
00000000
00000000
00100000
,
10000000
00000000
00000000
10000000
01000000
00000000
00000000
01000000
00010000
00000000
00000000
00010000
00001000
00000000
00000000
00001000
,
00000010
00000100
00000010
00000000
00001000
00000001
00001000
00000000
,
00000200
00020300
02030000
03020000
,
00030100
00000000
00000010
00000001
00000010
00000000
00000100
00000000
,
00000002
00000000
00000000
00002000
00000003
00000000
00003200
00000000
,
00001300
00000000
00010000
00100000
10000000
00000000
00000000
00000000
,
00010000
01000000
00100000
10000000
00000000
01000000
00100000
00000000
,
00010000
00000000
01000000
00100000
00000000
10000000
01000000
00000000
,
00010000
00001000
00100000
00010000
00000000
00001000
00000100
00000000
,
00000010
00000000
00000001
00001000
00000000
00000010
00000100
00000000
,
00000002
00000000
00000000
00000020
00000003
00000000
00002000
00000030
,
00000000
00020000
00003000
00000000
00230000
00000000
00010000
00000000
,
20300000
00000000
00000000
02000000
30000000
00000000
00020000
03000000
,
00000000
00002000
00030000
00000000
00003020
00000000
00001000
00000000
,
00000032
00000000
00001003
00000010
,
00000100
00000000
00010000
00100000
10000000
00000000
00000000
00000000
,
10000000
00000000
00010000
01000000
00001000
00000000
00000010
00000000
,
00000001
00000000
00000100
00001000
00000000
00000100
00000010
00000000
,
00000001
00000000
00000000
00001000
00000000
00000000
00000100
00000000
,
00000000
00010000
00000000
00000000
00001000
00000000
01000000
00000000
,
00020000
00000000
00000000
00200000
00030000
00000000
02300000
00000000
,
00002000
03000000
00000000
00020000
00000000
00000000
00000000
00000000
,
00000000
00000000
00000000
00033000
;

//---------------dance-single - ----------------
#NOTES:
     dance-single:
     :
     Medium:
     5:
     0.310,0.338,0.109,0.149,0.000:
0000
0000
0000
0000
,
0000
0000
0000
0000
,
1000
0000
0000
0001
0000
0000
0100
0000
,
0010
0000
0000
0000
,
0001
0000
0000
1000
0000
0000
0100
0000
,
0010
0000
0000
0000
,
0002
0000
2000
0003
,
0002
3000
2000
0003
,
3100
0100
0001
0001
,
1000
1000
0010
1000
,
0001
0100
1000
0010
,
0100
0100
0100
1010
,
0001
0001
1000
1000
,
0010
0010
0001
0010
,
1000
0100
0001
0010
,
0100
0100
0100
0101
,
0020
0000
0000
0030
,
2000
0000
0000
3000
,
0200
0300
0002
0003
,
0100
0010
0100
0010
,
0110
0000
0000
0000
,
0001
1000
0200
0000
,
0301
0100
1000
0010
,
1000
0001
1000
0001
1000
0000
0110
0000
,
0001
0000
0100
0000
0010
1000
0010
0000
,
1000
0000
0001
1000
0000
0000
0000
0000
,
1000
0000
0000
0100
0000
0000
0001
0000
,
0100
0010
0200
0000
0001
0000
0310
0000
,
1000
0000
0000
0010
0000
0000
0001
0000
,
1000
0001
0101
0101
,
0010
0000
0000
1000
0000
0000
0100
0000
,
1000
0100
0010
0000
0001
0010
0100
0000
,
1000
0000
0010
0000
0100
0001
0100
0000
,
0001
0000
1000
0001
0000
0000
0000
0000
,
1000
0000
0000
0100
0000
0000
0010
0000
,
0001
0010
0200
0000
0010
0000
1300
0000
,
0001
0000
0000
0010
0000
0000
1000
0000
,
0010
1000
1010
1010
,
0100
0000
0000
0001
0000
0000
1000
0000
,
0010
0100
0001
0000
0100
0010
1000
0000
,
0001
0000
1000
0100
0000
0100
1000
0000
,
0010
0100
0002
0003
,
0010
0000
0001
0100
0000
0100
0001
0000
,
1000
0010
0200
0300
,
0001
0000
1000
0010
0000
0010
0100
0000
,
0000
1001
0000
0000
0010
0000
0100
0000
,
0001
0000
1000
0010
0000
0010
0100
0000
,
0000
0011
0000
0000
0010
0000
0100
0000
,
1000
1000
1000
1000
,
0010
1000
0010
0000
1000
0010
1000
0000
,
0001
0001
0001
0001
,
0010
0001
0010
0000
0001
0010
0001
0000
,
0100
0000
0000
0100
0000
0000
0100
0000
,
0000
0010
0000
0000
1000
0000
1001
0000
,
0010
0000
0000
1000
0000
0000
0001
0000
,
2000
0000
0000
0200
0000
0000
0000
0000
,
0000
0000
0000
3300
;

//---------------dance-single - ----------------
#NOTES:
     dance-single:
     :
     Easy:
     2:
     0.178,0.225,0.059,0.139,0.000:
0000
0000
0000
0000
,
0000
0000
0000
0000
,
1000
0000
0000
0000
,
0200
0300
0000
0000
,
0001
0000
0000
0000
,
0200
0300
0000
0000
,
0020
0030
0000
0000
,
0200
0300
0000
0000
,
0010
0000
0010
0000
,
0001
1000
0001
0000
,
0100
0000
0100
0000
,
1000
0100
0001
0000
,
0010
0000
0010
0000
,
1000
0001
1000
0000
,
0100
0000
0100
0000
,
0001
0100
1000
0000
,
0002
0003
0000
0000
,
2000
3000
0000
0000
,
0010
0000
0110
0000
,
0000
0000
0000
0001
,
1001
0000
0100
0000
,
0010
1000
0010
0000
,
0100
0000
0001
0000
,
1000
0001
1000
0000
,
0001
0000
0010
0000
,
1000
0000
0010
0000
,
0100
0000
0100
0000
,
0001
0100
1000
0010
,
0100
0000
0001
0000
,
0100
0000
1000
0000
,
0010
0000
0010
0000
,
0100
0100
0100
0000
,
1000
0000
0010
0000
,
0001
0000
0010
0000
,
0100
0000
0100
0000
,
1000
0100
0001
0010
,
0100
0000
1000
0000
,
0100
0000
0001
0000
,
0010
0000
0010
0000
,
0100
0100
0100
0000
,
1001
0000
0000
0000
,
0000
0000
0000
0000
,
1001
0000
0000
0000
,
0000
0000
0000
0000
,
0020
0030
0000
0000
,
1000
0000
0001
0100
,
0020
0030
0000
0000
,
1000
0000
0100
0010
,
0002
0003
2000
3000
,
0010
0010
0010
0000
,
2000
3000
0002
0003
,
0100
0100
0100
0000
,
0010
0000
1001
0000
,
0100
0000
1001
0000
,
0010
0000
0000
0000
,
2000
0000
0002
0000
,
0000
0000
0000
3003
;

//---------------dance-single - ----------------
#NOTES:
     dance-single:
     :
     Beginner:
     1:
     0.108,0.138,0.020,0.000,0.000:
0000
0000
0000
0000
,
0000
0000
0000
0000
,
1000
0000
0000
0000
,
0100
0000
0000
0000
,
0001
0000
0000
0000
,
0100
0000
0000
0000
,
0010
0000
0000
0000
,
0000
0000
0000
0000
,
0010
0000
0010
0000
,
0001
0000
0000
0000
,
0100
0000
0100
0000
,
1000
0000
0000
0000
,
0010
0000
0010
0000
,
1000
0000
0000
0000
,
0100
0000
0100
0000
,
0001
0000
0000
0000
,
0001
0000
0000
0000
,
1000
0000
0000
0000
,
0010
0010
0010
0000
,
0000
0000
0000
0000
,
0001
0000
0000
0000
,
0010
0000
0000
0000
,
0100
0000
0000
0000
,
1000
0000
1000
0000
,
0001
0001
0000
0000
,
1000
1000
0000
0000
,
0100
0000
0000
0000
,
0100
0000
0000
0000
,
0010
0000
0010
0000
,
1000
0000
0100
0000
,
0010
0000
0001
0000
,
1001
0000
0000
0000
,
1000
1000
0000
0000
,
0001
0001
0000
0000
,
0010
0000
0000
0000
,
0010
0000
0000
0000
,
0100
0000
0100
0000
,
0001
0000
0010
0000
,
0100
0000
1000
0000
,
1001
0000
0000
0000
,
0100
0000
0000
0000
,
0000
0000
0000
0000
,
0100
0000
0000
0000
,
0000
0000
0000
0000
,
0010
0000
0000
0000
,
1000
0000
0001
0000
,
1000
0000
0000
0000
,
0010
0000
0100
0000
,
0010
0000
0000
0000
,
0010
0010
0010
0000
,
1000
0000
0000
0000
,
0001
0001
0001
0000
,
0010
0000
0000
0000
,
0100
0000
0000
0000
,
0010
0000
0000
0000
,
1000
0000
0001
0000
;

//---------------dance-double - ----------------
#NOTES:
     dance-double:
     :
     Easy:
     2:
     0.190,0.253,0.059,0.149,0.000:
00000000
00000000
00000000
00000000
,
00000000
00000000
00000000
00000000
,
00000001
00000000
00000000
00000000
,
00000200
00000300
00000000
00000000
,
00001000
00000000
00000000
00000000
,
00000020
00000030
00000000
00000000
,
00000100
00000000
00001000
00000000
,
00010000
00000000
01000000
00000000
,
10010000
00000000
00000000
00000000
,
01000000
00100000
01000000
00000000
,
00011000
00000000
00000000
00000000
,
00001000
00000001
00001000
00000000
,
00000110
00000000
00000000
00000000
,
00000001
00000100
00001000
00000000
,
00011000
00000000
00000000
00000000
,
00010000
01000000
00100000
00000000
,
20000000
30000000
20000000
30000000
,
00020000
00030000
00020000
00030000
,
01000000
00000000
00010000
00000000
,
00001000
00000000
00000000
00000010
,
00000200
00000000
00000300
00000000
,
00000001
00001000
00000100
00000000
,
00001000
00000000
00001000
00000000
,
00001000
00001000
00010000
00010000
,
00011000
00000000
00100000
00000000
,
10000000
00010000
10000000
00000000
,
01000000
00000000
01000000
00000000
,
00010000
00001000
00000100
00000000
,
00000010
00000000
00000010
00000000
,
00000100
00000001
00000010
00000001
,
00000200
00000300
00001000
00000000
,
00000010
00010000
00001000
00010000
,
02000000
03000000
00000000
00000000
,
10000000
00010000
10000000
00000000
,
01100000
00000000
00000000
00000000
,
00010000
00100000
01000000
00000000
,
00001000
00000100
00000010
00000000
,
00000002
00000003
00002000
00003000
,
00000010
00000000
00000001
00000000
,
00000010
00001000
00010000
00000000
,
02000000
00000000
03000000
00000000
,
00000000
00000000
10000000
00000000
,
00200000
00000000
00300000
00000000
,
00000000
00000000
01000000
01000000
,
00010000
00000000
00010000
00000000
,
01000000
00000000
10000000
00000000
,
00100000
00000000
00100000
00000000
,
00010000
00000000
00001000
00000000
,
00000010
00000000
00000010
00000000
,
00000001
00000000
00001000
00000000
,
00000100
00000010
00001000
00000000
,
00000001
00000100
00001000
00000000
,
00010000
00000000
00001000
00000000
,
01000000
00000000
00010000
00000000
,
10000000
00000000
00010000
00000000
,
02000000
00000000
00200000
00000000
,
00000000
00000000
00000000
03300000
;

//---------------dance-double - ----------------
#NOTES:
     dance-double:
     :
     Medium:
     5:
     0.334,0.366,0.079,0.198,0.000: // measure 1
00000000
00000000
00000000
00000000
,  // measure 2
00000000
00000000
00000000
00000000
,  // measure 3
00010000
00000000
00000000
01000000
00000000
00000000
00001000
00000000
,  // measure 4
00000200
00000300
00000010
00000000
,  // measure 5
00001000
00000000
00000000
00000010
00000000
00000000
00010000
00000000
,  // measure 6
02000000
03000000
00000000
00000000
,  // measure 7
10000000
00000000
00000000
00010000
01000000
00000000
00000000
00001000
,  // measure 8
00010000
00000000
00000000
00000100
00001000
00000000
00000000
00000001
,  // measure 9
00000100
00000010
00001000
00000001
,  // measure 10
00000100
00001000
00020000
00000000
00031000
00000000
00000000
00000000
,  // measure 11
01000000
00010000
10000000
00100000
,  // measure 12
10000000
01000000
00200000
00000000
00301000
00000000
00000000
00000000
,  // measure 13
00010000
01000000
10000000
00100000
,  // measure 14
00010000
00001000
00000200
00000000
00000310
00000000
00001000
00000000
,  // measure 15
00000001
00000010
00001000
00000100
,  // measure 16
00010000
00001000
00020000
00000000
00030100
00000000
00000000
00000000
,  // measure 17
00010000
00000000
02000000
00200000
03300000
00000000
00000000
00000000
,  // measure 18
10000000
00000000
00200000
02000000
03300000
00000000
00000000
00000000
,  // measure 19
10000000
01000000
00010000
01000000
,  // measure 20
02200000
00000000
03300000
00000000
00000000
00000000
00001000
00010000
,  // measure 21
00001000
00000100
00000100
00000100
,  // measure 22
00000001
00000010
00000200
00000000
00010300
00000000
00000000
00000000
,  // measure 23
00021000
00000000
00000000
00130000
00000000
00000000
20010000
00000000
,  // measure 24
00000000
31000000
00000000
00000000
01020000
00000000
00031000
00000000
,  // measure 25
00010000
00000000
00000010
00001000
00000000
00001000
00000100
00000000
,  // measure 26
00000010
00000000
00000001
00000100
00000000
00000100
00000001
00000000
,  // measure 27
00000100
00000000
00000000
00001000
00000000
00000000
00010000
00000000
,  // measure 28
00001000
00000000
00010000
00001000
00000000
00001000
00010000
00000000
,  // measure 29
01000000
00000000
00000000
10000000
00000000
00000000
00100000
00000000
,  // measure 30
10000000
00100000
00000000
01000000
00200000
00000000
01300000
00000000
,  // measure 31
00010000
10000000
00010000
00001000
,  // measure 32
00000100
00000010
00000200
00000000
00000001
00000000
00000301
00000000
,  // measure 33
00000010
00000000
00010000
00001000
00000000
00001000
00010000
00000000
,  // measure 34
01000000
00000000
00010000
10000000
00000000
10000000
01000000
00000000
,  // measure 35
00100000
00000000
00000000
00010000
00000000
00000000
01000000
00000000
,  // measure 36
00100000
10000000
01000000
10000000
00100000
00000000
00000000
00000000
,  // measure 37
10000000
00000000
00010000
01000000
00000000
00001000
00010000
00000000
,  // measure 38
00001100
00000000
00000011
00000000
,  // measure 39
00000001
00000000
00000100
00001000
00000000
00001000
00010000
00000000
,  // measure 40
00001000
00000000
00010000
01000000
00000000
01000000
10000000
00000000
,  // measure 41
00010000
00000000
01000000
00100000
00000000
01000000
00100000
00000000
,  // measure 42
00000000
10000000
00000000
00000000
00010000
00000000
00010000
00000000
,  // measure 43
10000000
00000000
01000000
00010000
00000000
00010000
00001000
00000000
,  // measure 44
00000000
00100000
00000000
00000000
00001000
00000000
00010000
00000000
,  // measure 45
00001000
00000000
00000010
00000001
00000000
00000001
00000100
00000000
,  // measure 46
00000000
00000101
00000000
00000000
00000001
00000000
00001000
00000000
,  // measure 47
00000010
00000000
00010000
00001000
00000000
00001000
00010000
00000000
,  // measure 48
00000000
01010000
00000000
00000000
10000000
00000000
00010000
00000000
,  // measure 49
01000000
01000000
01000000
01000000
,  // measure 50
00100000
00100000
00100000
00100000
,  // measure 51
10000000
10000000
00010000
00010000
,  // measure 52
01000000
01000000
00100000
00100000
,  // measure 53
10000000
00000000
00000000
00100000
00000000
00000000
00010000
00000000
,  // measure 54
00000000
00001000
00000000
00000000
00000010
00000000
00000001
00000000
,  // measure 55
00000100
00000000
00000001
00001000
00000000
00001000
00000001
00000000
,  // measure 56
00000200
00000000
00000000
00000020
00000000
00000000
00000000
00000000
,  // measure 57
00000000
00000000
00000000
00000330
;
