#TITLE:BOYS;
#SUBTITLE:(AND GIRL MIX);
#ARTIST:LTNO feat. MAMI-CHAN;
#TITLETRANSLIT:;
#SUBTITLETRANSLIT:;
#ARTISTTRANSLIT:;
#CREDIT:;
#BANNER:BOYS (AND GIRL MIX).png;
#BACKGROUND:BOYS (AND GIRL MIX)-bg.png;
#LYRICSPATH:;
#CDTITLE:This Is Electroclash.png;
#MUSIC:BOYS (AND GIRL MIX).mp3;
#OFFSET:-5.937;
#SAMPLESTART:80.640;
#SAMPLELENGTH:12.000;
#SELECTABLE:YES;
#BPMS:0.000=121.999;
#STOPS:;
#BGCHANGES:;

//---------------dance-single - Beginner----------------
#NOTES:
     dance-single:
     Beginner:
     Beginner:
     2:
     0.140,0.214,0.107,0.000,0.000:
0001
0000
0001
0000
,
1000
0000
0000
0000
,
0100
0000
0010
0000
,
1000
0000
0000
0000
,
0001
0000
0100
0000
,
0010
0000
0000
0000
,
0001
0000
0001
0000
,
1000
0000
0000
0000
,
0100
0000
0100
0000
,
1001
0000
0000
0000
,
0010
0010
0010
0000
,
1001
0000
0000
0000
,
0100
0100
0100
0000
,
1001
0000
0000
0000
,
0001
0001
0001
0000
,
1001
0000
0000
0000
,
1000
1000
1000
0000
,
0001
0000
1000
0000
,
1001
0001
0001
0000
,
1001
1000
1000
0000
,
0100
0000
0010
0000
,
0100
0000
0000
0000
,
0110
0010
0010
0000
,
0110
0100
0100
0000
,
1000
0000
0001
0000
,
1000
0000
0001
1001
,
1000
0000
0000
0000
,
0001
0000
0000
0000
,
0100
0000
0000
0000
,
0010
0000
0100
0000
,
1000
0000
0000
0000
,
0001
0000
0000
0000
,
1000
0000
0001
0000
,
1000
0000
0100
0000
,
1000
0000
0000
0000
,
0001
0000
0000
0000
,
1000
0000
0000
0000
,
0100
0100
0100
0100
,
0100
0000
0000
0000
,
0001
0000
1000
0000
,
0001
0000
0000
0000
,
0010
0000
0100
0000
,
0010
0000
0000
0000
,
0001
0000
0010
0000
,
0001
0000
0000
0000
,
1000
0000
0100
0000
,
1000
0000
0000
0000
,
0001
0000
0010
0000
,
0100
0000
0000
0000
,
1000
1000
1000
0000
,
1000
0000
0100
0000
,
0010
0000
0000
0000
,
0001
0001
0001
0000
,
1001
1001
1001
0000
;

//---------------dance-single - Basic----------------
#NOTES:
     dance-single:
     Basic:
     Easy:
     3:
     0.214,0.264,0.160,0.027,0.000:
2000
0000
3001
0000
,
0001
0000
0000
0000
,
0010
0000
0100
1000
,
0100
0000
0000
0000
,
0001
0000
0010
0001
,
0010
0000
0000
0000
,
0100
0000
1000
0001
,
1000
0000
0100
0000
,
0010
0000
1001
1001
,
0100
0100
0100
0000
,
0010
1000
0010
0000
,
0100
0100
0100
0000
,
0001
0010
0001
0000
,
0010
0010
0010
0000
,
1000
0100
1000
0000
,
0010
0010
0010
0000
,
0001
0100
0001
0000
,
1001
0000
0100
0000
,
1001
0000
0010
0000
,
1000
1000
1000
0000
,
0001
0000
0010
0000
,
0100
0000
0001
1001
,
1000
0000
0100
0000
,
0010
0010
0010
0000
,
0001
0000
1000
0000
,
0100
0000
0010
0110
,
0100
1000
0001
0000
,
1000
0100
0010
0000
,
0010
0100
0001
0000
,
0001
0100
1000
0000
,
0010
1000
0100
0000
,
1000
0001
1000
0000
,
1000
0100
0010
0000
,
0010
0100
1000
0000
,
0001
0001
0001
0000
,
1000
1000
1000
0000
,
0100
0100
0100
0000
,
0020
0000
0000
0000
,
0031
1000
0001
0000
,
0100
0010
0100
0000
,
1000
0001
1000
0000
,
0001
0001
0001
0000
,
0010
0001
0010
0000
,
0010
0001
0100
0000
,
0010
1000
0100
0000
,
1000
1000
1000
0000
,
1001
1001
1001
0000
,
0100
0100
0100
0000
,
1001
1001
1001
0000
,
0010
0010
0010
0000
,
0110
0110
0110
0000
,
0001
0001
0001
0000
,
0110
0110
0110
0000
,
1000
1000
2000
0000
,
3000
0000
0000
0000
;

//---------------dance-single - Trick----------------
#NOTES:
     dance-single:
     Trick:
     Medium:
     5:
     0.370,0.360,0.392,0.027,0.000:
2001
0001
0001
3001
,
0001
1000
0100
0010
,
0100
0000
1000
0000
0001
0100
0001
0000
,
1000
0100
0010
0100
,
0010
0000
0001
0000
0100
0001
0100
0000
,
0001
1000
0100
1000
,
0010
0000
1000
0000
0100
1000
0001
0000
,
0100
0001
0010
0100
,
1000
0000
0100
0000
0010
0001
0010
0000
,
1001
1100
1001
0000
,
0001
0001
0001
0000
1000
1000
1000
0000
,
1001
0110
0011
0000
,
0100
0100
0100
0000
0010
0010
0010
0000
,
0011
1100
0110
0000
,
1000
1000
1000
0000
0010
0010
0010
0000
,
1010
1100
0110
0000
,
0010
0010
0010
0000
0100
0100
0100
0000
,
1000
0000
0001
0000
1000
0001
1000
0001
,
0100
0000
0001
0000
0010
0000
0000
0001
,
0010
0010
0001
0000
,
1100
0001
1001
0001
,
0101
0000
0000
0000
0001
1000
0100
0000
,
0010
0000
0100
0000
1000
0000
0000
1000
,
0100
0010
0100
0001
,
1000
0001
0100
0000
0001
0010
0100
0000
,
1000
0100
0010
0000
0001
0000
0101
0000
,
0001
0000
1000
0100
0010
0000
0100
0000
,
1000
0000
0001
0100
0001
0000
0010
0000
,
0001
0000
0100
0001
0010
0000
0100
0000
,
1000
0000
1000
0100
0010
0100
1000
0000
,
0010
0000
1000
0010
0100
0000
0010
0000
,
0100
0000
0010
1000
0100
0000
0010
0000
,
0001
0000
0100
0001
0100
0001
0100
0000
,
0001
0000
0010
0001
0010
0001
0010
0000
,
0011
1100
1001
0000
,
0001
0000
0000
0000
,
1001
0110
1100
0000
,
0002
0000
1000
0000
1000
1000
1003
0000
,
1001
1100
0110
1100
,
0001
1000
0001
1000
0001
0000
0000
0000
,
0101
1010
1100
0110
,
0010
0100
0010
0100
0010
0000
0000
0000
,
0011
1100
0110
1010
,
0100
1000
0100
1000
0100
0000
0000
0000
,
0001
1000
0001
0000
,
1000
1000
1000
1000
1000
0000
0000
0000
,
1001
0110
1001
0000
,
0001
0100
0001
0010
0100
1000
0000
0000
,
1001
0000
0110
0000
1001
0000
0000
1000
,
0100
0010
0100
1000
0010
0000
0000
0000
,
1001
0101
1001
0000
,
0001
0010
0100
1000
0100
0010
0001
0100
,
0001
0000
1000
0000
0001
0000
0000
0010
,
0100
0010
1000
0010
0200
0000
0000
0000
,
0300
0000
0000
0000
;

//---------------dance-single - Maniac----------------
#NOTES:
     dance-single:
     Maniac:
     Hard:
     7:
     0.446,0.432,0.356,0.044,0.058:
0002
1000
1000
0000
0100
0100
0103
0000
,
0100
1000
0100
0010
0001
0100
0001
1000
,
0001
0000
0100
0000
0001
0000
0100
0000
0001
0000
1000
0100
0000
0100
1000
0000
,
0100
0010
0100
1000
0001
0100
0001
0010
,
0001
0000
0100
0000
0001
0000
1000
0000
0100
0000
1000
0100
0000
0100
1000
0000
,
0001
0100
0001
0010
0100
0010
0001
0100
,
0001
0000
1000
0000
0001
0000
0100
0000
0001
0000
0010
0100
0000
0100
0010
0000
,
0100
1000
0001
0100
0001
0010
0001
0100
,
0001
0000
1000
0000
0100
0000
0010
0000
0100
0000
1000
0100
0000
0100
1000
0000
,
0001
1000
1001
0000
,
0001
0010
0100
1000
0001
0000
1001
0000
,
1000
0100
0010
0000
0110
0000
0000
0000
,
1000
0001
0100
0001
1000
0000
0000
0000
,
1001
1000
0100
0000
,
0010
0001
0100
0001
1000
0100
0010
0000
,
0100
1000
0001
0000
1001
0000
0000
0000
,
0001
0001
0001
0000
1000
1000
1000
0000
,
0001
0000
1000
0000
0000
0000
0100
0010
0100
0000
1000
0001
0100
0000
0001
1000
,
0001
0100
0001
1000
0100
0000
0000
0010
,
0100
0000
0100
1000
0000
0000
0000
0000
,
1001
0101
0011
0101
,
1001
0000
0000
0000
0001
1000
1001
0000
,
0001
0010
0001
0000
0100
0001
1000
0001
,
1000
0000
0100
1000
0000
1000
0100
0010
,
0001
0000
0100
0000
0001
0000
1000
0001
,
1000
0000
0001
0100
0001
1000
1001
0000
,
0100
0000
0010
0100
1000
0001
0100
0000
,
0000
0000
0001
0010
0100
1000
0001
0000
,
0000
0000
0010
0100
0001
0010
0100
0000
,
0000
0001
0010
0000
0100
1000
0010
0000
,
1000
0000
0100
1000
0010
0100
0001
0000
,
0010
0000
0001
0010
0100
1000
0001
0000
,
1000
0000
0100
1000
0000
1000
0100
0000
,
1001
0000
0001
0100
0000
0100
0001
0000
,
1001
0000
0110
0000
1001
0000
0000
0002
,
0000
1000
1000
1000
1000
0000
1003
0000
,
1001
0000
0101
0000
1001
0000
0000
1000
,
0100
0000
1000
0000
0100
0000
1000
0000
0100
1000
0100
1000
0100
0000
0000
0000
,
1001
0000
0101
0000
1001
0000
0000
0100
,
0010
0100
1000
0001
0100
0000
0000
0000
,
1001
0000
0110
0000
1010
0000
0000
0010
,
1000
0100
0010
0001
0100
0000
0000
0000
,
1001
0000
0101
0000
1001
0000
0000
0001
,
0100
0010
1000
0100
0010
0001
0000
0000
,
1001
0000
0011
0000
1001
0000
0000
0001
,
1000
0100
0010
0100
2000
0000
0000
0000
,
3001
0000
0100
0000
0001
0000
0000
0001
,
0010
0100
0010
0001
0100
0000
1001
0000
,
0100
0010
0100
1000
0010
0000
1010
0000
,
1100
0000
1001
0000
0101
0000
0001
1000
,
0001
0010
0100
1000
,
0100
0010
0001
0100
0001
1000
0100
0000
,
1001
0000
0101
0000
1001
0000
0000
0001
,
0001
1000
1000
0100
0220
0000
0000
0000
,
0330
0000
0000
0000
;

//---------------dance-single - Expert----------------
#NOTES:
     dance-single:
     Expert:
     Challenge:
     8:
     0.543,0.481,0.418,0.027,0.200: // measure 1
1001
0100
1001
0000
1001
0010
1001
0000
,  // measure 2
0100
1000
0100
0010
0001
0100
0001
1000
,  // measure 3
0001
0000
0100
0000
0001
0000
1000
0000
0100
0000
1000
0100
1000
0001
1000
0000
,  // measure 4
0001
0100
0001
1000
0001
0010
0001
0100
,  // measure 5
0001
0000
1000
0000
0100
0000
0010
0000
0100
0000
1000
0100
1000
0001
1000
0000
,  // measure 6
0100
0010
0100
0010
0001
0010
0100
0010
,  // measure 7
0001
0000
0010
0000
0001
0000
0100
0000
0001
0000
0100
0001
0100
0001
1000
0000
,  // measure 8
0100
1000
0001
0010
0001
0100
0010
1000
,  // measure 9
0100
0000
0010
0000
0100
0000
1000
0000
0001
0000
0010
0001
0010
0100
1000
0000
,  // measure 10
1100
0100
0110
0100
0110
0000
0000
0100
,  // measure 11
0000
0000
1000
0000
0001
0000
1000
0100
0000
0000
0010
0000
0100
0000
1000
0000
,  // measure 12
0011
0010
0110
0100
0011
0000
0000
1000
,  // measure 13
0000
0100
1000
0001
0100
0002
0000
0000
,  // measure 14
1003
0000
0100
0000
1000
0000
0000
0001
,  // measure 15
0000
0000
1000
0000
0100
0000
0010
0100
0000
0000
1000
0000
0001
0000
0100
0000
,  // measure 16
1001
0000
0110
0000
1100
0000
0000
0100
,  // measure 17
0000
0000
1000
0000
0001
0000
0100
0001
0000
0000
1000
0000
0000
0000
0000
0000
,  // measure 18
0001
0000
1000
0000
0000
0000
0100
1000
0001
0000
0010
0100
1000
0000
0001
1000
,  // measure 19
0001
0000
0100
0000
0001
0000
1000
0000
0100
0000
1000
0100
1000
0000
0100
0000
,  // measure 20
1100
0000
0001
1001
0000
0001
1000
0000
,  // measure 21
0100
0010
0100
1000
0001
0100
0001
0010
,  // measure 22
0001
0000
0100
0000
0001
0000
0000
0000
0100
0010
0100
0000
0110
0000
0000
0000
,  // measure 23
0010
0000
0100
0000
0010
0000
1000
0000
0100
0000
0010
0100
1000
0000
0100
0000
,  // measure 24
1001
0000
0100
1100
0000
0001
0101
0000
,  // measure 25
0100
0010
0100
0010
0001
0010
0100
0001
,  // measure 26
0010
0000
0001
0000
0100
0000
0001
0000
1000
0100
1000
0100
1000
0000
0000
0000
,  // measure 27
1100
0000
0000
0000
0100
0000
1000
0000
0100
0010
0100
0000
1000
0000
0000
0000
,  // measure 28
0101
0000
0000
0000
0001
0000
0010
0000
0100
1000
0100
0000
1000
0000
0000
0000
,  // measure 29
0001
0000
0100
0000
0001
0000
1000
0001
1000
0001
1000
0000
0100
0000
0000
0000
,  // measure 30
0010
0100
1000
0000
0001
0100
0001
0000
,  // measure 31
1001
0000
0000
0000
0010
0000
0100
0000
0010
0100
0010
0000
0110
0000
0000
0000
,  // measure 32
1000
0000
0000
0000
0001
0000
0100
0000
0001
0010
0001
0000
1100
0000
0000
0000
,  // measure 33
0100
0000
1000
0100
0000
0010
0100
1000
,  // measure 34
0001
0000
0100
0001
0000
0100
0001
0010
,  // measure 35
0100
0000
1000
0000
1001
0000
0000
0100
,  // measure 36
0000
0000
1000
0000
0001
0000
0100
0001
0000
0000
1000
0000
0100
0000
0010
0000
,  // measure 37
0100
0000
1001
0000
0110
0000
0000
0010
,  // measure 38
0001
0000
1000
0000
0001
0000
1000
0100
0010
0001
0010
0100
1000
0100
0010
0001
,  // measure 39
0010
0000
1001
0000
1100
0000
0000
0001
,  // measure 40
1000
0000
0100
0000
0010
0000
0100
1000
0000
0001
1000
0000
0110
0000
0000
0000
,  // measure 41
0110
0000
0011
0000
0101
0000
0001
1000
,  // measure 42
0100
0000
0010
0000
0100
0000
1000
0000
0100
0000
1000
0100
0000
0100
0010
0000
,  // measure 43
0011
0000
1000
0000
0001
0000
0000
1000
,  // measure 44
0100
0000
0010
0000
0100
0000
1000
0001
0000
0100
0001
0000
1000
0000
0000
0000
,  // measure 45
0001
0000
0010
0000
0100
0000
0000
0100
,  // measure 46
0100
0000
0100
0000
0010
0000
0010
0000
0001
0000
0010
0100
0010
0001
0000
0000
,  // measure 47
1100
0000
1001
0000
0101
0000
0001
1000
,  // measure 48
0100
0000
0010
0000
0100
0000
1000
0001
0000
1000
0001
0000
0100
0000
0001
0000
,  // measure 49
0110
0000
1100
0000
1001
0000
1000
0100
,  // measure 50
0010
0000
0001
0000
0100
0000
0001
0000
1000
0000
0001
0010
0000
0010
0100
0000
,  // measure 51
0110
0000
1100
0000
1001
0000
0001
1000
,  // measure 52
0100
0000
0010
0000
0100
0000
1000
0100
0000
0001
0010
0000
0011
0000
0000
0000
,  // measure 53
0011
0000
0101
0000
1001
0000
0000
0100
,  // measure 54
1000
0100
0010
0100
2000
0000
0002
0000
,  // measure 55
0003
3000
0000
0000
0000
0000
0000
0000
0000
0000
0000
0000
0000
0000
0000
0000
0000
0000
0000
0000
0000
0000
0000
0000
0000
0000
0000
0000
0000
0000
0000
0000
0000
0000
0000
0000
0000
0000
0000
0000
0000
0000
0000
0000
0000
0000
0000
0000
0000
0000
0000
0000
0000
0000
0000
0000
0000
0000
0000
0000
0000
0000
0000
0000
0000
0000
0000
0000
0000
0000
0000
0000
0000
0000
0000
0000
0000
0000
0000
0000
0000
0000
0000
0000
0000
0000
0000
0000
0000
0000
0000
0000
0000
0000
0000
0000
0000
0000
0000
0000
0000
0000
0000
0000
0000
0000
0000
0000
0000
0000
0000
0000
0000
0000
0000
0000
0000
0000
0000
0000
0000
0000
0000
0000
0000
0000
0000
0000
0000
0000
0000
0000
0000
0000
0000
0000
0000
0000
0000
0000
0000
0000
0000
0000
0000
0000
0000
0000
0000
0000
0000
0000
0000
0000
0000
0000
0000
0000
0000
0000
0000
0000
0000
0000
0000
0000
0000
0000
0000
0000
0000
0000
0000
0000
0000
0000
0000
0000
0000
0000
0000
0000
0000
0000
0000
0000
0000
0000
0000
0000
0000
0000
;
