#TITLE:BLOOD on FIRE;
#SUBTITLE:;
#ARTIST:AAA;
#TITLETRANSLIT:;
#SUBTITLETRANSLIT:;
#ARTISTTRANSLIT:;
#CREDIT:;
#BANNER:BLOOD on FIRE.png;
#BACKGROUND:BLOOD on FIRE-bg.png;
#LYRICSPATH:;
#CDTITLE:First Attack.png;
#MUSIC:BLOOD on FIRE.mp3;
#OFFSET:-3.128;
#SAMPLESTART:61.291;
#SAMPLELENGTH:12.000;
#SELECTABLE:YES;
#BPMS:0.000=154.946;
#STOPS:;
#BGCHANGES:;

//---------------dance-single - Maniac----------------
#NOTES:
     dance-single:
     Maniac:
     Hard:
     8:
     0.531,0.529,0.312,0.187,0.036: // measure 1
0000
0000
0000
0000
,  // measure 2
0000
0000
0000
0000
,  // measure 3
0000
0000
0000
0000
,  // measure 4
0000
0000
0000
0000
,  // measure 5
1001
0000
0001
0020
0000
0031
0000
0101
,  // measure 6
0000
0000
1000
0020
0000
1030
0000
1100
,  // measure 7
0000
0000
0010
0200
0000
0310
0000
1001
,  // measure 8
0000
1000
0000
0100
0000
0001
0000
0001
,  // measure 9
2000
0100
3200
0001
,  // measure 10
0302
0100
0203
1000
,  // measure 11
2300
0000
0100
0000
3100
0000
0000
2100
,  // measure 12
0000
0010
0010
0000
0100
0000
3001
0000
,  // measure 13
1000
1000
0100
0000
0010
0010
0001
0000
,  // measure 14
0001
0010
0100
0010
0001
1000
0010
0000
,  // measure 15
0100
0001
0100
0010
0100
0010
1000
0000
,  // measure 16
0010
0100
0100
0000
0010
1000
1000
0000
,  // measure 17
0010
0001
0001
0000
0010
1000
1000
0000
,  // measure 18
0010
0100
0001
0100
0010
1000
0100
0000
,  // measure 19
1000
0010
0100
0001
0010
0001
0100
0000
,  // measure 20
0100
0010
0010
0000
0100
0001
0001
0000
,  // measure 21
0100
1000
1000
0000
0100
0001
0001
0000
,  // measure 22
1100
1000
0001
0100
0010
0100
0001
1000
,  // measure 23
1010
0010
0100
0001
1000
0100
1000
0010
,  // measure 24
0100
0001
0100
0010
0100
0001
1000
0010
,  // measure 25
1000
0010
0000
0100
0010
0000
0000
0000
0100
0000
0010
0000
1000
0000
0000
0000
,  // measure 26
1100
1000
0001
0010
0001
0010
0100
1000
,  // measure 27
1100
1000
0001
0100
0010
0100
0001
1000
,  // measure 28
0010
0100
0010
1000
0001
0100
0010
1000
,  // measure 29
0100
1000
0000
0001
0010
0000
0000
0000
1000
0000
0001
0000
0100
0000
0000
0000
,  // measure 30
0010
0100
0010
0100
0001
0001
1000
0000
,  // measure 31
1000
0100
1000
0100
0010
0010
0001
0000
,  // measure 32
0100
0010
1000
0000
0010
0100
0001
0000
,  // measure 33
1000
0100
0010
0001
0010
0100
1000
0100
,  // measure 34
0010
0001
0010
0001
1000
1000
0010
0000
,  // measure 35
0100
0010
0100
0010
1000
1000
0010
0000
,  // measure 36
0001
0100
0000
0010
0000
1010
0000
0100
,  // measure 37
0000
0001
0001
0000
0000
1000
1000
0000
,  // measure 38
0000
0010
0110
0000
0000
0100
0100
0100
,  // measure 39
0000
0000
0011
0000
1100
0000
0101
0100
,  // measure 40
0001
0100
0010
1000
0100
0000
1000
0001
,  // measure 41
0200
0000
0310
1000
0002
0000
1003
0010
,  // measure 42
0100
0010
0100
0001
0000
1000
1000
1000
,  // measure 43
0000
0000
1010
0000
0101
0000
1100
1000
,  // measure 44
0010
1000
0001
0100
0010
1000
0010
1010
,  // measure 45
0000
1000
0001
0011
0000
0001
1000
1100
,  // measure 46
0000
1000
0001
0101
0000
1000
0100
0010
,  // measure 47
0100
1000
0010
0100
0001
1000
0100
0000
,  // measure 48
1001
0000
0010
0000
1001
0000
0100
0100
,  // measure 49
0010
0000
0100
0001
0100
1000
0100
1000
,  // measure 50
0001
0100
0010
0100
0001
0000
0100
0010
,  // measure 51
2000
0000
3010
0100
0002
0000
1003
0010
,  // measure 52
0100
0010
1000
0001
0000
0100
0100
0100
,  // measure 53
0000
0000
1000
0100
0001
0100
1000
0010
,  // measure 54
0100
0001
0100
0010
0000
1000
0001
1001
,  // measure 55
0000
0100
0010
0110
0000
0100
0001
1001
,  // measure 56
0000
0001
1000
1100
0000
0001
0010
0012
,  // measure 57
0000
1000
0010
1003
,  // measure 58
1001
0000
0010
0000
1001
0000
0100
2002
,  // measure 59
0000
0000
0000
3003
,  // measure 60
1010
0000
0001
0200
0000
0301
0000
1001
,  // measure 61
0000
0000
1000
0200
0000
1300
0000
0011
,  // measure 62
0000
0000
0001
2000
0000
3100
0000
0010
,  // measure 63
0100
0010
0100
0001
1000
0001
0001
0000
,  // measure 64
0100
0000
0001
0000
1000
0000
0010
1000
0000
0001
0100
0000
0001
0010
0001
0010
,  // measure 65
0000
2002
0000
0000
,  // measure 66
0000
0000
0000
0000
,  // measure 67
3003
0000
0000
0000
;

//---------------dance-single - Trick----------------
#NOTES:
     dance-single:
     Trick:
     Medium:
     6:
     0.419,0.441,0.374,0.143,0.000:
0000
0000
0000
0000
,
0000
0000
0000
0000
,
0000
0000
0000
0000
,
0000
0000
0000
0000
,
1001
0000
0000
1000
0000
0010
0000
1010
,
0000
0000
0000
0001
0000
0100
0000
0101
,
0000
0000
0000
0100
0000
0010
0000
0110
,
0000
0010
0000
1000
0000
1010
0000
0000
,
0002
0000
0203
0000
,
0320
0000
2030
0000
,
3002
0000
0000
0000
0103
0000
0000
2002
,
0000
0000
0000
3003
,
1000
0010
1000
0000
0001
0100
0001
0000
,
1000
0100
1000
0010
,
0100
0001
1000
0000
0010
0000
0100
0000
,
0001
0010
0100
1000
,
0010
0100
0001
0000
0100
0000
0010
0000
,
1000
0100
0001
0100
,
1000
0100
1000
0000
0001
0000
0100
0010
,
0100
0000
0001
1000
0010
0000
0100
0001
,
1000
0000
0010
1000
0010
1000
0010
0000
,
1010
0000
0001
0000
0100
0001
1000
0000
,
0011
1100
0011
1000
,
0010
0100
0001
0000
0100
0010
0100
0000
,
0110
0000
1001
0000
0001
1000
0010
0000
,
0101
0000
1000
0000
0010
0100
0001
0000
,
1100
0000
0001
0000
1000
0001
0100
0000
,
0110
1001
0110
1000
,
0001
0100
0001
0100
0001
0100
0001
0000
,
0100
0000
0110
0000
0100
0010
0100
0000
,
0001
0000
1001
0000
0001
1000
0001
0000
,
1000
0000
1100
0000
1000
0100
1000
0000
,
1002
0010
0100
1003
,
0001
1000
0010
0000
1000
0000
0001
0000
,
1000
0001
0100
0000
0001
0000
1000
0100
,
1000
0100
0000
1000
0000
0010
0000
0100
,
0000
0001
0200
0000
0000
0000
0000
0000
,
0000
0310
0010
0000
0000
1000
0001
1000
,
0000
0000
1001
0000
1010
0000
1000
0100
,
1000
0001
0100
0000
0001
0000
0100
0010
,
1000
0000
0001
1000
0010
0000
0010
2000
,
0000
0000
0000
0000
3000
0001
1000
0001
,
0000
0000
0101
0000
1001
0000
0010
0100
,
0000
0110
0000
0001
0000
1000
0001
0001
,
0000
1000
0001
0001
0000
0100
0010
0010
,
0000
0100
0010
0010
0000
0100
0001
0100
,
0001
0100
0001
0100
0001
0000
0100
0000
,
0101
1001
1010
0001
,
1000
0000
1100
0000
0011
0000
0100
0001
,
0100
0001
1000
0000
1000
0000
0001
1000
,
0010
0000
0100
0001
1000
0000
0001
0200
,
0000
0000
0000
0000
0300
0010
0100
0010
,
0000
0000
1001
0000
0110
0000
1000
0010
,
0000
1010
0000
0100
0000
0001
0100
0100
,
0000
0001
0100
0100
0000
0010
1000
1000
,
0000
0010
1000
1000
0000
0001
1000
0001
,
1000
0001
1000
0001
1000
0001
1000
0000
,
0001
0000
1001
0000
1000
0000
0001
2000
,
0000
0000
0000
0000
0000
0000
0000
3000
,
0001
0000
0000
0011
0000
0001
0000
1010
,
0000
0000
0000
1100
0000
0001
0000
0101
,
0000
0000
0000
1001
0000
1000
0000
2002
,
0000
0000
0000
0000
0000
3003
0000
0000
,
1000
0001
1000
0001
0100
0010
0100
0010
,
0000
2002
0000
0000
,
0000
0000
0000
0000
,
3003
0000
0000
0000
;

//---------------dance-single - Basic----------------
#NOTES:
     dance-single:
     Basic:
     Easy:
     3:
     0.242,0.315,0.214,0.018,0.000:
0000
0000
0000
0000
,
0000
0000
0000
0000
,
0000
0000
0000
0000
,
0000
0000
0000
0000
,
0010
0000
0000
1000
0000
0001
0000
1000
,
0000
0000
0000
0001
0000
1000
0000
0001
,
0000
0000
0000
0100
0000
0001
0000
0100
,
0000
0001
0000
0100
0000
0000
0000
0000
,
0001
0000
0010
0000
,
0100
0000
1000
0000
,
0001
0000
0010
0000
,
1001
0000
0000
0000
,
1000
0010
1000
0000
,
1000
1000
0001
0000
,
0001
0001
0100
0000
,
0100
0100
0010
0000
,
0010
0010
1000
0000
,
1000
0001
1000
0000
,
0001
0010
0001
0000
,
1000
0001
1000
0001
,
0010
0001
1000
0000
,
0100
0001
0100
0001
,
1000
0010
1000
0010
,
0100
0000
0110
0000
,
1001
1001
0001
0001
,
1000
0100
0010
0001
,
1000
0100
0010
0000
,
1001
1001
1000
1000
,
0010
0100
0010
0100
,
0010
0000
0010
0000
,
1000
0100
1000
0000
,
0001
0000
0001
0000
,
1000
0010
1000
0010
,
1000
0000
1000
0000
,
0010
0100
0010
0000
,
0100
0000
0100
0000
,
0010
0000
0010
0000
,
1000
0000
0000
0000
,
0000
0110
0110
0010
,
0100
0001
0000
0000
,
1000
1000
0010
0000
,
0100
0100
0001
0000
,
0000
1001
1001
0001
,
1000
0000
0010
0000
0000
0000
0000
1000
,
0000
0000
0000
0001
0000
0000
0000
1001
,
0000
0000
0000
1001
0000
0000
0000
0000
,
1001
0000
0000
0000
,
1000
1000
0001
0001
,
1000
0110
0110
0100
,
0010
1000
0000
0000
,
0010
0010
0001
0000
,
1000
1000
0100
0000
,
0000
1001
1001
1000
,
0001
0000
0100
0000
0000
0000
0000
0010
,
0000
0000
0000
0100
0000
0000
0000
0110
,
0000
0000
0000
0110
0000
0000
0000
0000
,
0220
0000
0000
0330
,
0010
0010
0100
0100
,
0010
0000
0000
0000
,
1000
0000
0000
0001
0000
1000
0000
1001
,
0000
0000
0000
1000
0000
0001
0000
1001
,
0000
0000
0000
0100
0000
0010
0000
0110
,
0000
0000
0000
0000
,
0001
0001
1000
1000
,
0000
1001
0000
0000
;
