#TITLE:BAD DAY;
#SUBTITLE:(Boom Boom Speedy Mix);
#ARTIST:SPEED GANG feat. LAWRENCE;
#TITLETRANSLIT:;
#SUBTITLETRANSLIT:;
#ARTISTTRANSLIT:;
#CREDIT:;
#BANNER:BAD DAY (Boom Boom Speedy Mix).png;
#BACKGROUND:BAD DAY (Boom Boom Speedy Mix)-bg.png;
#LYRICSPATH:;
#CDTITLE:HAPPY SPEED.png;
#MUSIC:BAD DAY (Boom Boom Speedy Mix) - SPEED GANG feat. LAWRENCE.mp3;
#OFFSET:-6.740;
#SAMPLESTART:33.782;
#SAMPLELENGTH:12.000;
#SELECTABLE:YES;
#BPMS:0.000=170.000;
#STOPS:;
#BGCHANGES:;

//---------------dance-single - ----------------
#NOTES:
     dance-single:
     :
     Hard:
     8:
     0.529,0.516,0.187,0.012,0.140: // measure 1
1000
0000
0000
0010
0000
0000
0100
0000
0000
0001
0000
0000
1000
0000
0000
0010
,  // measure 2
0000
1000
0100
0010
0001
1000
0010
1000
,  // measure 3
0100
0000
0000
1000
0000
0000
0001
0000
0000
0010
0000
0000
0001
0000
0000
1000
,  // measure 4
0000
0010
1000
0001
0010
0100
1000
0010
,  // measure 5
0100
0000
0100
0000
0100
1000
0001
0010
,  // measure 6
0001
0000
1000
0100
1000
0000
0010
0100
,  // measure 7
0001
0000
0001
0010
0000
0010
0001
0000
,  // measure 8
0001
0100
0000
0100
0010
0000
1000
0000
,  // measure 9
1001
0000
0001
0000
0001
1000
0100
0010
,  // measure 10
0001
0000
0100
0000
0010
1000
0100
1000
,  // measure 11
0100
0000
0010
0001
0000
0001
0100
0000
,  // measure 12
0100
0010
0000
0010
1000
0000
0001
0000
,  // measure 13
0101
0000
0001
0000
0001
1000
0100
1000
,  // measure 14
0010
0000
0010
0000
1000
0001
0010
0100
,  // measure 15
1000
0000
1000
0000
0010
1000
0010
1000
,  // measure 16
0100
0000
0100
0000
1000
0001
1000
0100
,  // measure 17
0010
0000
0001
0000
0100
0001
0010
0001
,  // measure 18
0100
0000
0010
0000
1000
0000
0001
1000
,  // measure 19
0020
1000
0100
1030
,  // measure 20
1010
0000
0000
0000
,  // measure 21
1001
0000
0100
0000
0001
0100
0010
0000
,  // measure 22
1010
0000
0001
0000
0100
1000
0100
0000
,  // measure 23
1010
0000
0001
0000
1000
0100
0010
0001
,  // measure 24
0000
0000
0100
0010
0100
0000
0001
0000
1000
0000
0100
0000
1000
0000
0000
0000
,  // measure 25
0101
1000
1100
1001
,  // measure 26
1100
0010
0101
1100
,  // measure 27
1010
0000
0100
0010
0001
0100
0010
1000
,  // measure 28
0000
0000
0001
1000
0001
0000
0100
0000
0010
0000
1000
0000
0100
0000
0000
0000
,  // measure 29
1010
0000
0001
0000
1000
0100
0010
0001
,  // measure 30
0100
0000
0010
0000
0100
1000
0100
0001
,  // measure 31
1000
0000
0010
0000
1000
0001
0010
0100
,  // measure 32
1000
0000
0001
0000
1000
0100
0010
0000
,  // measure 33
0001
0001
0001
0001
,  // measure 34
1000
0000
0001
0000
,  // measure 35
0110
0000
1000
0000
,  // measure 36
0001
0001
0001
0000
,  // measure 37
0010
0000
0000
1000
0000
0100
0010
0000
0000
0100
0000
0000
1000
0000
0000
0010
,  // measure 38
0000
1000
0100
0010
0001
0100
0010
1000
,  // measure 39
0100
0000
0000
1000
0000
0001
0010
0000
0000
0001
0000
0000
0100
0000
0000
0010
,  // measure 40
0000
1000
0001
0010
0100
1000
0010
0100
,  // measure 41
0001
0000
0000
0010
0000
0100
0010
0000
0000
0001
0000
0000
0100
0000
0000
0010
,  // measure 42
0000
1000
0001
1000
0100
0010
0001
0100
,  // measure 43
0001
0000
0000
0100
0000
0010
1000
0000
0000
0100
0000
0000
1000
0000
0000
0001
,  // measure 44
0000
0010
0001
1000
0100
0010
0100
0000
,  // measure 45
1000
0001
0010
0100
1000
0010
0100
0000
,  // measure 46
0100
0000
0010
1000
0100
0100
1000
0010
,  // measure 47
1000
0000
0100
0010
0001
0000
1000
0100
,  // measure 48
1000
0010
0100
0001
0010
0100
1000
0000
,  // measure 49
0010
0100
0001
0010
0001
1000
0100
0010
,  // measure 50
0001
0100
0010
1000
0100
0100
1000
1000
,  // measure 51
0001
0000
1000
0010
1000
0000
0010
1000
,  // measure 52
0100
1000
0001
0010
0100
0000
0001
0000
,  // measure 53
0110
0000
0000
0000
;

//---------------dance-single - ----------------
#NOTES:
     dance-single:
     :
     Easy:
     4:
     0.287,0.305,0.175,0.199,0.000:
0100
0000
0100
0000
,
1000
0001
0010
0001
,
0100
0000
0100
0000
,
0010
1000
0001
1000
,
0002
0003
1000
0100
,
1000
0000
0001
0010
,
0001
0000
0001
0000
,
0001
0000
1000
1000
,
1000
0000
0100
0000
,
1000
0000
0010
0001
,
0100
0000
0100
0000
,
0100
0000
0010
0010
,
2002
3003
0000
0000
,
0220
0330
0000
0000
,
2002
3003
0000
0000
,
0202
0303
0000
0000
,
0220
0330
0001
0000
,
1000
0100
1000
0001
,
0020
0000
0000
0030
,
0001
0000
1000
0001
,
1001
0000
0100
0001
,
1100
0000
0100
0010
,
0001
0000
0001
1000
,
0100
0000
1000
0001
,
0110
0000
1000
0100
,
0011
0000
0100
1000
,
0010
0000
0100
0001
,
1001
0000
0010
0100
,
0101
0000
1000
0000
,
1100
0000
0001
0000
,
1001
0000
0100
0000
,
0110
0000
0001
1000
,
2000
3000
0001
0000
,
0100
0000
0010
0000
,
2000
3000
0002
0003
,
1000
1000
1000
0000
,
0001
1000
0001
0000
,
0001
0000
1000
0100
,
0001
0000
0001
0000
,
0100
1000
0010
0100
,
0001
0000
0001
0000
,
1000
0100
1000
1000
,
0001
0000
0100
0000
,
0001
1000
0001
1000
,
0001
0000
1000
0000
,
0100
0010
0001
0100
,
0010
0000
1000
0001
,
1000
0010
0100
0001
,
1000
0000
0100
1000
,
0100
0010
0001
0100
,
0010
0000
1000
0000
,
0001
1000
0010
0100
,
2002
3003
0000
0000
;

//---------------dance-single - Copied from----------------
#NOTES:
     dance-single:
     Copied from:
     Medium:
     5:
     0.389,0.425,0.234,0.210,0.000:
0001
0001
0100
0100
,
0010
0000
1000
0100
1000
0100
1000
0001
,
0010
0010
0001
0001
,
0100
0000
0010
0000
0100
0001
0100
0001
,
0100
0000
0010
0000
1000
0100
1000
0000
,
0001
0000
1000
0100
,
1001
0000
0000
0001
0000
0000
0100
0000
,
0000
0001
0000
0000
1000
0000
0100
0000
,
1010
0000
0000
0000
0001
0100
0001
0000
,
1000
0000
0010
1000
,
0101
0000
0000
0001
0000
0000
1000
0000
,
0000
0100
0000
0000
1000
0000
0001
0000
,
2002
3003
1000
0100
,
2200
3300
0001
0100
,
0202
0303
1000
0001
,
2002
3003
0010
0100
,
0220
0330
1000
0100
,
0001
0000
0010
0000
1000
0000
0001
0100
,
0002
0000
1000
0003
,
1001
0000
0001
0100
,
0101
1000
0100
1000
,
1001
0010
0100
0001
,
0110
1000
0100
1000
,
0011
0000
1000
1000
,
0110
0001
0010
0100
,
1001
0010
0100
0001
,
1100
0010
0100
0001
,
1001
0000
0100
0100
,
0102
0000
1003
0100
,
2000
0000
0001
0000
,
3002
0000
1003
0010
,
0200
0000
0301
1000
,
1002
0000
0100
0000
1000
0003
0010
0000
,
1000
0000
0001
0100
,
0002
0003
2000
3000
,
0001
0001
0001
0001
,
1000
0100
0001
0010
,
1000
0001
0001
0001
,
0100
1000
0010
0001
,
1000
0100
0100
0100
,
0001
0010
1000
0100
,
0001
1000
1000
1000
,
0001
0000
1000
0000
,
0001
0001
1000
0001
,
1000
0100
0010
0001
,
0100
0000
0010
1000
0100
1000
0010
0000
,
1000
0001
1000
0100
,
0010
0000
0100
1000
0010
0100
0001
1000
,
0010
0100
0001
1000
,
0100
0000
0010
0000
0001
0100
0010
0100
,
0010
0000
1000
0000
,
0001
1000
0010
0100
,
0011
0000
0000
0000
;
