#TITLE:BACK THAT THANG UP;
#SUBTITLE:;
#ARTIST:JUVENILE;
#TITLETRANSLIT:;
#SUBTITLETRANSLIT:;
#ARTISTTRANSLIT:;
#CREDIT:;
#BANNER:BACK THAT THANG UP.png;
#BACKGROUND:BACK THAT THANG UP-BG.png;
#LYRICSPATH:;
#CDTITLE:UNIVERSAL SMASH HITS.png;
#MUSIC:BACK THAT THANG UP.mp3;
#OFFSET:-0.040;
#SAMPLESTART:54.964;
#SAMPLELENGTH:12.000;
#SELECTABLE:YES;
#BPMS:0.000=95.790;
#STOPS:;
#BGCHANGES:;

//---------------dance-single - ----------------
#NOTES:
     dance-single:
     :
     Hard:
     6:
     0.263,0.343,0.239,0.000,0.000:
0000
0000
0000
0000
,
0000
0000
0000
0000
,
0000
0000
0000
0000
,
0000
0000
0000
0000
,
0000
0000
0000
0000
,
0000
0000
0000
0000
,
1000
0001
1000
0001
,
0010
0100
0010
0100
,
1000
0100
0010
0000
0001
0000
0010
0000
,
0001
0100
0010
0000
1000
0000
0010
0000
,
1000
1000
1000
1000
1000
0000
0100
0000
,
0001
0001
0001
1000
0001
0000
0100
0000
,
0010
0010
0010
0000
1000
0000
0001
0000
,
1000
0001
1000
0000
0001
0000
1000
0000
,
0100
0010
0100
0010
,
0001
1000
0001
1000
,
0010
0100
0001
0000
0010
0100
0001
0000
,
0010
0100
0001
0000
0010
0100
0001
0000
,
1000
0001
1000
0001
,
0010
0100
0010
0100
,
1000
0100
0010
0000
0100
0000
0010
0000
,
0001
0100
0010
0000
0100
0000
0010
0000
,
1000
0000
0000
0001
1100
0000
0000
0010
,
0011
0000
1001
0000
1100
0011
0101
0000
,
1100
0101
0011
0000
1001
0000
0110
0000
,
0000
0000
1000
0100
0010
0001
0001
1000
,
1000
0000
0000
0001
1010
0000
0100
0000
,
0010
0010
0001
0001
1000
0000
0010
0000
,
1000
0001
1000
0010
0001
1000
0010
0000
,
0001
1000
0001
0010
1000
0001
0010
0000
,
1001
1001
1000
0011
0101
0000
0000
0000
,
1000
0001
0000
0011
1100
0010
0001
0000
,
1001
1001
1001
0011
0101
0000
0000
0000
,
1000
0001
0000
0011
1100
0010
0001
0000
,
1000
0100
1000
0000
0010
0001
0100
0000
,
1000
0010
1000
0000
0100
0001
0010
0000
,
0010
0100
0001
0000
0010
0100
0001
0000
,
0010
0100
0001
0000
0010
0100
0001
0000
;

//---------------dance-single - ----------------
#NOTES:
     dance-single:
     :
     Medium:
     4:
     0.217,0.306,0.191,0.000,0.000:
0000
0000
0000
0000
,
0000
0000
0000
0000
,
0000
0000
0000
0000
,
0000
0000
0000
0000
,
0000
0000
0000
0000
,
0000
0000
0000
0000
,
0001
0010
0001
0000
0000
0000
0000
0000
,
1000
0010
1000
0000
0001
0010
0001
0010
,
0001
0000
0000
0000
0010
0100
0010
0000
,
0000
0000
0000
0000
0100
1000
0100
1000
,
0010
0000
1000
0001
,
1000
0000
0000
0000
0000
0000
0001
0010
,
1001
0000
0000
0000
,
0100
0000
1000
0000
0001
0100
0001
0100
,
0001
0000
0000
1000
1000
0000
0000
0000
,
0101
0000
1100
0000
0001
0100
0001
0000
,
0110
0110
0110
0110
,
0110
0110
0110
0110
,
0001
0010
0001
0000
0000
0000
0000
0000
,
1000
0010
1000
0000
0001
0010
0001
0010
,
0001
0000
0000
0000
0010
0100
0010
0000
,
0000
0000
0000
0000
0100
1000
0100
1000
,
0010
0010
0100
0100
,
0010
0000
0010
0000
0100
0100
0100
0000
,
0001
0010
0001
0000
1000
0100
1000
0000
,
0000
0000
0010
0001
0100
0001
0100
0000
,
0010
0010
0100
0100
,
0010
0000
0010
0000
0100
0100
0100
0000
,
0001
0001
0001
0001
,
0001
1000
1000
1000
,
0100
0000
0000
0010
0100
0000
0000
0000
,
0010
0001
0000
0010
0001
0010
0100
0000
,
1000
0000
0000
0010
1000
0000
0000
0000
,
0010
0100
0000
0010
1000
0010
0100
0000
,
0001
0000
1000
0000
0001
0001
0001
0000
,
1000
0010
1001
0000
0100
0100
0100
0000
,
0110
0110
0110
0110
,
0110
0110
0110
0110
;

//---------------dance-single - ----------------
#NOTES:
     dance-single:
     :
     Easy:
     2:
     0.138,0.251,0.067,0.000,0.000: // measure 1
0000
0000
0000
0000
,  // measure 2
0000
0000
0000
0000
,  // measure 3
0000
0000
0000
0000
,  // measure 4
0000
0000
0000
0000
,  // measure 5
0000
0000
0000
0000
,  // measure 6
0000
0000
0000
0000
,  // measure 7
1000
0000
0000
0000
,  // measure 8
0001
0000
0100
0010
,  // measure 9
0010
1000
0000
0000
,  // measure 10
0100
0000
0010
0001
,  // measure 11
0001
1000
0000
0000
,  // measure 12
0001
0000
0100
0010
,  // measure 13
0010
0000
1000
0000
,  // measure 14
0100
0100
0010
0000
,  // measure 15
0001
0001
0001
0001
,  // measure 16
0001
0001
0001
0001
,  // measure 17
1000
0010
0100
0010
,  // measure 18
1000
0010
0100
0000
,  // measure 19
1000
0001
0100
0000
,  // measure 20
0000
0000
0010
0010
,  // measure 21
1000
0001
0000
0000
,  // measure 22
0000
0010
0010
0010
,  // measure 23
1001
0000
0110
0000
,  // measure 24
1001
0110
1001
0110
,  // measure 25
1001
0000
0000
0000
,  // measure 26
0000
0000
0100
1000
,  // measure 27
0010
0000
0001
0000
,  // measure 28
0000
1000
0100
0001
,  // measure 29
1000
1000
1000
1000
,  // measure 30
1000
1000
1000
1000
,  // measure 31
0001
0010
0100
0000
,  // measure 32
0100
0010
0001
0100
,  // measure 33
0001
0010
0100
0000
,  // measure 34
0100
0010
0001
0100
,  // measure 35
0010
0010
0100
0100
,  // measure 36
0001
0001
0100
0000
,  // measure 37
1000
0010
0100
0010
,  // measure 38
1000
1000
0100
0000
;
