#TITLE:Ai No Corrida;
#SUBTITLE:;
#ARTIST:UNITING NATIONS feat. LAURA MORE;
#TITLETRANSLIT:;
#SUBTITLETRANSLIT:;
#ARTISTTRANSLIT:;
#CREDIT:;
#BANNER:Ai No Corrida.png;
#BACKGROUND:Ai No Corrida-bg.png;
#LYRICSPATH:;
#CDTITLE:Shibuya Rave 2.png;
#MUSIC:Ai No Corrida.mp3;
#OFFSET:-0.048;
#SAMPLESTART:31.875;
#SAMPLELENGTH:12.000;
#SELECTABLE:YES;
#BPMS:0.000=128.000;
#STOPS:;
#BGCHANGES:;

//---------------dance-single - ----------------
#NOTES:
     dance-single:
     :
     Hard:
     7:
     0.381,0.445,0.326,0.030,0.064:
0000
0000
0000
0000
,
0000
0000
0000
0000
,
0000
0000
0000
0000
,
0000
0000
0000
0000
,
0000
0000
0000
0000
,
0000
0000
0000
0000
,
0000
0000
0000
0000
,
0000
0000
0000
0000
0000
0000
0000
0010
,
1000
0100
0000
0010
0001
0100
0000
0000
,
0010
0000
0001
0000
1000
0000
0000
0010
,
0001
1000
0000
0010
0100
0001
0000
0000
,
1000
0010
0100
0000
,
1100
0000
0101
0000
0010
0001
0100
0000
,
0010
0001
0100
0001
0010
0100
1000
0010
,
1000
0000
0101
0000
1000
0001
1000
0002
,
0000
0000
0000
0000
,
0010
0013
0110
0110
,
1100
0000
0011
0000
0010
0001
1000
0000
,
0001
0010
0100
0000
,
1000
0010
0001
0000
,
1000
0000
0001
1000
0000
0001
0010
0000
0001
0000
0100
0000
0010
0000
0000
0000
,
1010
0000
0011
0000
0010
0001
1000
0000
,
0001
0100
0010
0000
,
1000
0100
0010
0000
,
0011
0000
0000
0101
0000
0000
1001
0000
0010
0000
0000
0000
0100
0000
0000
0000
,
1000
0000
0001
0100
0010
0000
1000
0000
,
0110
0000
0000
0110
0000
0000
0110
0000
1001
0000
0000
0000
0001
0000
0001
0000
,
0001
1000
0100
0000
0010
0001
0100
0000
,
0010
1000
0100
1000
0010
0100
0001
0000
,
1000
0100
0010
0000
0001
0100
0001
0000
,
1000
0100
0010
0001
0100
0001
1000
0100
,
0010
0101
1100
0000
,
0100
0001
1000
0010
1000
0100
0010
0000
,
0011
0000
1010
0011
,
2002
0000
0000
3003
,
1100
0101
0010
1000
,
0001
0010
0100
1000
0010
0100
0001
0000
,
0001
0100
1000
0100
0001
0100
0001
0000
,
0010
0000
0100
0010
0000
0001
0010
0000
0100
0000
0000
0000
0000
0000
0000
0000
,
0011
1010
0100
0001
,
1000
0100
0001
0000
0100
1000
0001
0000
,
0100
0010
1000
0010
0100
0001
0100
0000
,
0010
0000
1000
0001
0000
0100
0001
0000
0010
0000
0000
0000
0000
0000
0000
0000
,
0011
1010
0100
0001
,
1000
0100
0010
0001
0100
0010
1000
0000
,
1000
0010
0001
0010
1000
0010
1000
0000
,
0100
0000
0010
0100
0000
0001
0100
0000
0010
0000
0000
0000
0000
0000
0000
0000
,
1100
0101
0010
1000
,
0001
0010
1000
0000
0010
0001
1000
0000
,
0010
0100
0001
0100
0010
1000
0010
0000
,
0100
0000
0001
1000
0000
0010
1000
0000
0100
0000
0000
0000
0010
0000
0000
0000
,
0001
0100
0010
1000
,
0011
0000
0000
0110
0000
0000
1100
0000
0001
0000
0000
0000
0010
0000
0010
0000
,
0010
0000
0000
0000
;

//---------------dance-single - ----------------
#NOTES:
     dance-single:
     :
     Medium:
     4:
     0.244,0.314,0.049,0.020,0.000:
0000
0000
0000
0000
,
0000
0000
0000
0000
,
0000
0000
0000
0000
,
0000
0000
0000
0000
,
0000
0000
0000
0000
,
0000
0000
0000
0000
,
0000
0000
0000
0000
,
0000
0000
0000
0000
,
1000
0100
1000
0001
,
0010
0001
0100
0000
,
1000
0010
1000
0100
,
0010
0001
0100
0000
,
0010
0010
1000
0000
,
0100
0100
0010
0000
,
0001
0000
0100
0010
,
2000
0000
0000
0000
,
0000
0000
0000
0000
0010
0000
0010
3000
,
0110
0110
0001
1000
,
0100
0000
0010
0000
0010
0001
0010
0001
,
1000
1000
0010
0100
,
0001
1000
0100
0000
,
1000
0000
0010
0000
1000
0100
1000
0100
,
0010
0001
0100
0000
,
0010
1000
0001
0000
,
1000
0100
0010
0001
,
0100
0001
0010
0001
,
1000
0000
1000
0000
1000
0000
1000
1000
,
1000
0001
0010
0001
,
0100
0010
1000
0001
,
1000
0100
0010
0100
,
1000
0000
0000
0001
0100
0001
1000
0100
,
1000
0000
0100
0000
,
0010
0001
0100
0001
,
1000
0000
0000
0000
1000
0100
1000
0100
,
0020
0000
0000
0000
,
0031
0000
0100
0010
,
1000
0001
0100
0000
0001
0000
0000
0000
,
1000
0100
0010
0000
,
0001
1000
0001
1000
0001
0000
0000
0000
,
1000
0001
0100
0000
,
0010
1000
0100
0000
,
0010
0001
0100
0000
,
0010
1000
0010
0100
0001
0000
0000
0000
,
1000
0100
0010
0000
,
0001
1000
0001
0000
,
1000
0100
0010
0000
,
0001
0100
0001
0010
,
0001
1000
0010
1000
,
1000
0100
1000
0000
0001
0000
0000
0000
,
0100
0001
0100
0000
0010
0000
0000
0000
,
1000
0100
0010
0110
,
0001
0101
0100
1010
,
1000
0000
1000
0000
0100
0000
0100
0100
,
0100
0000
0000
0000
;

//---------------dance-single - ----------------
#NOTES:
     dance-single:
     :
     Easy:
     3:
     0.199,0.340,0.039,0.079,0.000: // measure 1
0000
0000
0000
0000
,  // measure 2
0000
0000
0000
0000
,  // measure 3
0000
0000
0000
0000
,  // measure 4
0000
0000
0000
0000
,  // measure 5
0000
0000
0000
0202
,  // measure 6
0000
0000
0000
0000
,  // measure 7
0000
0000
0000
0000
,  // measure 8
0000
0000
0000
0000
,  // measure 9
1000
0000
0300
0000
,  // measure 10
0010
0010
0010
0000
,  // measure 11
0003
0000
0100
0000
,  // measure 12
0010
0010
0010
0000
,  // measure 13
1000
0000
0100
0010
,  // measure 14
0100
0000
1000
0001
,  // measure 15
1000
0000
0001
0010
,  // measure 16
0001
0000
0000
0000
,  // measure 17
0000
0000
1000
1000
,  // measure 18
0100
1000
0010
0000
,  // measure 19
0100
0001
0010
0000
,  // measure 20
0010
0001
0100
0000
,  // measure 21
0020
1030
2000
3100
,  // measure 22
0010
0001
0100
0000
,  // measure 23
0010
1000
0001
0000
,  // measure 24
0010
0100
1000
0000
,  // measure 25
2000
3100
0200
0310
,  // measure 26
0020
0031
0002
0103
,  // measure 27
0010
1000
0001
1000
,  // measure 28
0001
0000
1000
0000
,  // measure 29
0100
0010
0001
0000
,  // measure 30
0100
0000
0010
0000
,  // measure 31
1000
0000
0100
1000
,  // measure 32
0100
1000
0100
0010
,  // measure 33
0001
0100
0010
1000
,  // measure 34
0001
0000
0010
0001
,  // measure 35
1000
0000
0000
0000
,  // measure 36
1000
0000
0100
0000
,  // measure 37
0010
0001
0100
0000
,  // measure 38
0001
0010
0001
0000
,  // measure 39
1000
0010
1000
0000
,  // measure 40
0001
1000
0001
0010
,  // measure 41
0100
1000
0001
0000
,  // measure 42
0100
0010
1000
0000
,  // measure 43
0001
0000
0010
0000
,  // measure 44
0100
1000
0010
0000
,  // measure 45
0100
0001
0010
0000
,  // measure 46
0001
0010
0100
0000
,  // measure 47
1000
0010
1000
0001
,  // measure 48
0010
0000
0001
0000
,  // measure 49
1000
0010
1000
0000
,  // measure 50
0100
0010
0100
0000
,  // measure 51
1000
0000
0100
0000
,  // measure 52
0010
0000
0001
0000
,  // measure 53
1000
0000
0110
0110
,  // measure 54
0110
0000
0000
0000
;
