#TITLE:ARIGATO;
#SUBTITLE:;
#ARTIST:aya;
#TITLETRANSLIT:;
#SUBTITLETRANSLIT:;
#ARTISTTRANSLIT:;
#CREDIT:;
#BANNER:ARIGATO.png;
#BACKGROUND:ARIGATO-bg.png;
#LYRICSPATH:;
#CDTITLE:MATSURI-TRANCE.png;
#MUSIC:ARIGATO.mp3;
#OFFSET:-0.025;
#SAMPLESTART:13.418;
#SAMPLELENGTH:12.000;
#SELECTABLE:YES;
#BPMS:0.000=143.000;
#STOPS:;
#BGCHANGES:;

//---------------dance-single - ----------------
#NOTES:
     dance-single:
     :
     Hard:
     8:
     0.420,0.441,0.089,0.000,0.197:
0000
0000
0000
0000
,
0000
0000
0000
0000
,
0000
0000
0000
0000
,
0000
0000
0000
0000
,
1000
1000
0001
1000
,
0001
0001
1000
0001
,
0010
0000
0100
0000
1000
0000
0001
0100
,
0000
0010
1000
0001
0000
0000
0000
0000
,
1000
0100
1000
0100
0000
0010
0000
0001
,
0000
1000
0000
0001
0000
1000
0010
0100
,
0001
0000
0000
1000
0000
0001
0000
0010
,
0000
0001
0010
0100
0000
0000
0000
0000
,
0001
0100
0001
0100
0000
0001
0000
1000
,
0000
0001
0000
1000
0000
0001
0010
0100
,
1000
0000
0000
0001
1010
0100
0000
0010
,
1001
0100
0000
0100
0010
0000
0010
0000
,
1000
1000
0001
1000
,
0001
0001
1000
0001
,
1000
0010
0100
0000
0001
0010
0100
0000
,
1000
0100
0001
0100
0000
0000
0000
0000
,
1000
0010
0100
0001
,
1000
0100
0010
0001
,
1000
0001
0010
0000
0001
1000
0010
0000
,
0100
0001
1000
0001
0000
0000
0000
0000
,
1000
0000
0000
0010
0000
0000
0100
0000
0001
0000
0000
0100
0000
0000
0010
0000
,
0000
1000
0000
0000
0010
0000
0000
0100
0000
0001
0000
0000
0100
0000
0010
0000
,
1000
0000
0000
1000
0000
0000
0100
0000
0000
0100
0000
0000
0010
0000
0010
0000
,
0000
0001
0000
0000
0100
0000
1000
0000
0000
0000
0000
0000
0000
0000
0000
0000
,
0100
0000
0000
0010
0000
0000
0100
0000
0010
0000
0000
0100
0000
0000
0010
0000
,
0000
1000
0000
0000
0100
0000
0000
1000
0000
0100
0000
0000
1000
0000
0100
0000
,
0010
0000
0000
0010
0000
0000
0001
0000
0000
0001
0000
0000
1000
0000
1000
0000
,
0000
0001
0000
0000
0010
0000
1000
0000
0000
0000
0000
0000
0000
0000
0000
0000
,
0001
0100
0001
0100
0000
0010
1000
0010
,
1000
0100
0010
0100
0000
0010
0001
0010
,
0001
0100
0001
0100
0000
0010
1000
0010
,
0000
0100
0001
0010
0000
0000
1001
0000
,
0010
0001
0100
0001
0000
1000
0000
0001
,
0000
1000
0000
0001
0000
1000
0010
0100
,
0001
0000
0000
1000
0000
0100
0000
0010
,
0000
0001
0100
0001
0000
0000
0000
0000
,
1000
0010
1000
0100
0000
0010
0000
0001
,
0000
1000
0000
0010
0000
0100
0001
1000
,
0010
0000
0000
1000
0000
0001
0000
0010
,
0000
0010
0100
1000
0000
1001
1001
0000
,
0001
0100
0010
0000
1000
0000
0001
0000
,
0001
0100
0010
0000
1000
0000
0001
0000
,
0001
0100
0010
0000
1000
0000
0001
0000
,
0001
0100
0010
0000
1000
0000
0001
0000
,
0001
0100
0010
0000
0001
0100
0010
0000
,
0001
0100
0010
0000
0001
0100
0010
0000
,
1001
1010
1001
0011
,
0000
0010
0100
0010
0100
0100
0100
0000
,
0001
0010
0000
0100
0000
0000
1000
0000
0100
0010
0000
0001
0000
0000
1000
0000
,
0000
0001
0000
0000
1000
0000
0000
0001
0000
1000
0000
0000
0001
0000
0100
0000
,
0010
1000
0000
0001
0000
0000
0100
0001
0000
1000
0000
0000
0100
0000
0010
0000
,
0000
0001
0000
0000
0100
0000
0001
0000
0000
0000
0000
0000
0000
0000
0000
0000
,
1000
0100
0000
0010
0000
0000
0001
0000
0010
0100
0000
1000
0000
0000
0001
0000
,
0000
1000
0000
0000
0001
0000
0000
1000
0000
0001
0000
0000
1000
0000
0010
0000
,
0100
0001
0000
1000
0000
0000
0010
1000
0000
0001
0000
0000
0010
0000
0100
0000
,
0000
1000
0000
0000
0010
0000
1000
0000
0000
0000
0001
0000
0001
0000
0000
0000
;

//---------------dance-single - ----------------
#NOTES:
     dance-single:
     :
     Medium:
     5:
     0.318,0.382,0.108,0.000,0.000:
0000
0000
0000
0000
,
0000
0000
0000
0000
,
0000
0000
0000
0000
,
0000
0000
0000
0000
,
0000
1000
0000
1000
0000
0001
0000
1000
,
0000
0001
0000
0001
0000
1000
0000
0001
,
0000
0001
0000
0100
0000
0100
0000
0010
,
0000
0010
0000
1000
0000
0000
0000
0000
,
1000
0100
0010
0001
,
1000
0001
1000
0001
,
0100
0010
1000
0001
,
1000
0001
1000
0000
,
1000
0001
1000
0001
,
1000
0100
0010
0001
,
0100
0010
0100
0010
,
1000
1000
1000
0000
,
1000
0100
1000
0100
,
0010
0001
0010
0000
0001
0100
0001
0000
,
0100
0010
1000
0001
,
0010
0000
0001
0010
0000
0000
0000
0000
,
0001
0100
0010
1000
,
0100
1000
0100
0000
0010
0001
0010
0000
,
0001
0100
0010
1000
,
0001
1000
1001
0000
,
1000
0100
0010
0001
,
1000
0010
1000
0000
0001
0100
0001
0100
,
0010
1000
0100
0010
,
0001
1000
0001
0000
,
1000
0010
0100
0001
,
1000
0100
1000
0000
0001
0010
0001
1000
,
0010
1100
0001
1100
,
1000
0100
0010
0000
,
0000
1000
0000
1000
0000
0001
0000
1000
,
0000
0001
0000
0001
0000
1000
0000
0001
,
0000
0000
0000
0010
0000
0000
0000
1000
,
0000
0000
0000
0100
0000
0000
0000
0000
,
1000
0000
0100
1000
0000
0001
0000
0100
,
0000
0001
0000
1000
0000
1000
0100
0010
,
0001
0000
0000
1000
0000
0001
0000
0100
,
0000
0001
0000
1000
0000
0000
0000
0000
,
0001
1000
0001
1000
0000
0100
0000
1000
,
0000
0100
0000
0010
0000
0000
0001
1000
,
0001
0000
0000
1000
0000
0001
0000
1000
,
0000
0000
0000
0010
0000
0000
0000
0000
,
1100
0010
0001
0010
,
1100
0010
0001
0010
,
1100
0010
0001
0010
,
1100
0010
0001
0010
,
1100
0010
1100
0010
,
1100
0010
1100
0010
,
0001
0000
0000
0100
0000
0010
0000
1000
,
0000
0001
0100
0010
0000
0000
0000
0000
,
0000
1000
0000
1000
0000
0001
0000
1000
,
0000
0001
0000
0001
0000
1000
0000
0001
,
0000
1000
0000
1000
0000
0100
0000
0100
,
0000
0010
0000
0010
0000
0000
0000
0000
,
0000
0001
0000
0001
0000
1000
0000
0001
,
0000
1000
0000
1000
0000
0001
0000
1000
,
0000
0000
0000
0001
0000
0000
0000
1000
,
0000
0000
0001
0100
0000
1000
1000
0000
;

//---------------dance-single - ----------------
#NOTES:
     dance-single:
     :
     Easy:
     3:
     0.231,0.265,0.020,0.000,0.000: // measure 1
0000
0000
0000
0000
,  // measure 2
0000
0000
0000
0000
,  // measure 3
0000
0000
0000
0000
,  // measure 4
0000
0000
0000
0000
,  // measure 5
1000
0000
0001
1000
,  // measure 6
0001
0000
1000
0001
,  // measure 7
1000
0000
0100
0000
,  // measure 8
0010
0000
0001
0000
,  // measure 9
1000
1000
0001
1000
,  // measure 10
0001
0001
1000
0001
,  // measure 11
0100
0000
0010
0000
,  // measure 12
1000
0000
0100
0000
,  // measure 13
0010
0010
0100
0010
,  // measure 14
0100
0100
0010
0100
,  // measure 15
0010
0000
0001
0000
,  // measure 16
1000
0001
1000
1000
,  // measure 17
0001
0000
0010
0000
,  // measure 18
0001
0000
1000
0000
,  // measure 19
0010
0100
0001
1000
,  // measure 20
0010
0100
0001
0000
,  // measure 21
1000
0000
0001
0000
,  // measure 22
0010
0000
0100
0000
,  // measure 23
1000
0000
0010
0000
,  // measure 24
1000
0001
1000
0000
,  // measure 25
0001
0100
0010
1000
,  // measure 26
0001
0010
0001
1000
,  // measure 27
0100
0010
0001
1000
,  // measure 28
0010
0100
0001
0000
,  // measure 29
1000
0100
0010
0001
,  // measure 30
0100
0010
1000
0001
,  // measure 31
0010
0000
0010
0000
,  // measure 32
0010
0010
0010
0000
,  // measure 33
0001
0000
0001
0001
,  // measure 34
0001
0000
1000
1000
,  // measure 35
1000
0000
0010
0000
,  // measure 36
0100
0000
0001
0000
,  // measure 37
1000
0000
0000
0000
,  // measure 38
0001
0000
0000
0000
,  // measure 39
0010
0000
0000
0000
,  // measure 40
0100
0000
1001
0000
,  // measure 41
1000
0000
0000
0000
,  // measure 42
0001
0000
0000
0000
,  // measure 43
0100
0000
0000
0000
,  // measure 44
0010
0000
1000
0000
,  // measure 45
0001
0100
0010
1000
,  // measure 46
0001
0100
0010
1000
,  // measure 47
0001
0100
0010
1000
,  // measure 48
0001
0100
0010
1000
,  // measure 49
0001
0100
0001
0100
,  // measure 50
0001
0100
0001
0100
,  // measure 51
0001
0000
0010
0000
,  // measure 52
0100
0100
0100
0100
,  // measure 53
1000
0010
1000
0010
,  // measure 54
1000
0001
1000
0001
,  // measure 55
0010
0001
0010
0100
,  // measure 56
0010
0100
1000
0000
,  // measure 57
1000
1000
0001
1000
,  // measure 58
0001
0001
1000
0001
,  // measure 59
1000
0000
0001
0000
,  // measure 60
0100
0000
0010
1001
;
