#TITLE:AN HONEST MISTAKE;
#SUBTITLE:;
#ARTIST:THE BRAVERY;
#TITLETRANSLIT:;
#SUBTITLETRANSLIT:;
#ARTISTTRANSLIT:;
#CREDIT:;
#BANNER:AN HONEST MISTAKE.png;
#BACKGROUND:AN HONEST MISTAKE-bg.png;
#LYRICSPATH:;
#CDTITLE:the bravery.png;
#MUSIC:AN HONEST MISTAKE.mp3;
#OFFSET:-5.232;
#SAMPLESTART:61.743;
#SAMPLELENGTH:12.000;
#SELECTABLE:YES;
#BPMS:0.000=140.057;
#STOPS:;
#BGCHANGES:;

//---------------dance-single - Basic----------------
#NOTES:
     dance-single:
     Basic:
     Easy:
     3:
     0.221,0.286,0.135,0.021,0.000:
0010
0010
0010
0000
,
1000
0000
0000
0001
0000
0010
0000
0001
,
0000
0000
0000
0001
,
1000
0000
0000
0010
0000
0100
0000
0010
,
0000
0000
0000
0100
,
0001
0000
0000
0100
0000
0000
0000
0000
,
0001
0000
0000
0010
0000
0000
0000
0000
,
0001
0000
0000
1000
0000
0000
0000
0000
,
1000
0100
1000
0001
,
0100
0100
0000
0000
,
0001
0000
0001
0000
,
0010
0010
0000
0000
,
0100
0000
0100
0000
,
1000
1000
0000
0000
,
0010
0000
0010
0000
,
0100
0010
0100
0000
,
0010
0100
0010
0000
,
1000
1000
0000
0000
,
0010
0000
0010
0000
,
0100
0100
0000
0000
,
0001
0000
0001
0000
,
0010
0010
0000
0000
,
0100
0000
0100
0000
,
1000
0001
1000
0000
,
0001
0000
0100
0000
,
1001
1001
0001
0000
,
1001
1001
1000
0000
,
0010
1000
0010
0000
,
0100
0001
0100
0000
,
1001
1001
0001
0000
,
1001
1001
1000
0000
,
0001
1000
0001
1000
,
0001
0001
1000
1000
,
0001
0000
1000
1000
,
0010
0000
0100
0100
,
0001
0000
0001
0000
,
0100
0000
0010
0010
,
0010
0000
0100
0100
,
0010
0000
1000
1000
,
0001
0000
0100
0000
,
0010
0000
1000
1000
,
1000
0000
0001
0001
,
0010
0000
0100
0000
,
1000
1000
1000
0001
,
0100
0100
0100
0000
,
0010
0010
0010
1000
,
0100
0100
0100
0000
,
1001
0010
1001
0010
,
1001
0100
1001
0100
,
2002
0000
0000
0000
,
3003
0000
0000
0000;

//---------------dance-single - Trick----------------
#NOTES:
     dance-single:
     Trick:
     Medium:
     5:
     0.353,0.416,0.281,0.094,0.000:
1000
0000
0001
0000
0010
0001
0010
0001
,
0010
0000
0000
0001
0000
0010
0000
1000
,
0000
0010
0000
0010
0000
0100
0000
0100
,
0001
0000
0000
1000
0000
0100
0000
0001
,
0000
0100
0000
0100
0000
0010
0000
0010
,
1000
0000
0000
0100
0000
0010
0000
1000
,
0000
0001
0000
0001
0000
0100
0000
0100
,
0000
1000
0000
1000
0000
0001
0000
0001
,
1000
0010
1000
0010
1000
0001
1000
0001
,
2000
0001
3100
0000
,
0001
0001
0100
0000
,
0020
1000
0031
0000
,
0100
0100
0001
0000
,
0200
0010
1300
0000
,
0100
0100
1000
0000
,
0001
1000
0010
0000
1000
0001
0010
0000
,
0001
1000
0100
0000
1000
0001
0100
0000
,
2010
0001
3010
0000
,
0001
0100
1000
0000
,
0021
0100
0031
0000
,
1000
0010
0001
0000
,
0102
1000
0103
0000
,
0100
0010
1000
0000
,
1200
0010
1300
0000
,
0001
0000
0100
0000
,
1000
0000
0011
0000
0101
0000
1000
1000
,
1000
0000
1100
0000
1010
0000
0001
0001
,
0001
1000
0100
0001
,
0100
0000
1000
0000
0001
0000
0001
0001
,
0001
0000
0101
0000
0110
0000
0100
0100
,
0100
0110
1010
0000
,
0011
0101
1010
1100
,
0001
0010
0001
0010
0100
1000
0100
1000
,
0001
0100
1000
0100
,
0001
0010
1000
0010
,
0001
0000
0100
0100
,
1001
0000
0000
0000
0010
0010
0010
0000
,
0100
0001
0100
1000
,
0010
0001
0010
1000
,
0100
0000
0010
0010
,
1001
0000
0010
0100
,
0001
0100
1000
0010
,
0001
0100
1000
0010
,
0001
0010
0001
0000
0001
0000
1000
0000
,
0010
0100
0010
0000
0010
0000
1000
0000
,
0100
1000
0100
0000
1000
0100
1000
0000
,
0001
0100
0001
0000
0100
0001
0100
0000
,
0011
0101
1001
0110
,
1100
1010
1001
0110
,
2002
0000
0000
0000
,
3003
0000
0000
0000
;

//---------------dance-single - Maniac----------------
#NOTES:
     dance-single:
     Maniac:
     Hard:
     8:
     0.499,0.520,0.197,0.281,0.182: // measure 1
1000
0010
0000
0000
0010
1000
0000
0000
0001
0010
0001
0010
0001
0010
0001
0010
,  // measure 2
0002
0000
0000
1000
0000
0010
0000
0103
,  // measure 3
0000
0000
0001
0010
0000
0000
0010
0001
0000
0000
1000
0100
0000
0000
1000
0000
,  // measure 4
2000
0000
0000
0010
0000
0100
0000
3001
,  // measure 5
0000
0000
0100
0010
0000
0000
0010
1000
0000
0000
1000
0001
0000
0000
0010
0000
,  // measure 6
0020
0000
0000
0000
0000
0000
0031
0000
0000
0000
0001
1000
0000
0000
1000
0001
,  // measure 7
0000
0000
0001
1000
0000
0000
1000
0010
0000
0000
0010
1000
0000
0000
1000
0001
,  // measure 8
0000
0000
0001
0010
0000
0000
0010
0001
0000
0000
0001
1000
0000
0000
1000
0000
,  // measure 9
0100
0010
0100
1000
0001
0100
0010
1000
,  // measure 10
0100
1000
0100
0001
,  // measure 11
0011
0000
1000
0000
0100
1000
0010
0000
,  // measure 12
0100
0001
1000
0000
0001
0000
0010
0000
,  // measure 13
0101
0000
1000
0000
0010
0100
0001
0000
,  // measure 14
1000
0100
0010
0000
0001
0000
0100
0000
,  // measure 15
1010
0001
1000
0010
,  // measure 16
1000
0100
1000
0100
0010
0001
1000
0000
,  // measure 17
0001
0010
0001
0010
0100
1000
0001
0000
,  // measure 18
0100
0001
0100
1000
,  // measure 19
1100
0000
1010
0000
0100
0001
1000
0000
,  // measure 20
0001
1000
0010
0000
0100
0000
0001
0000
,  // measure 21
0101
0000
0011
0000
1000
0010
0100
0000
,  // measure 22
0010
0100
0001
0000
1000
0000
0010
0000
,  // measure 23
1001
0110
1000
0001
,  // measure 24
0010
0100
1000
0001
,  // measure 25
2000
3100
0002
0103
,  // measure 26
1000
0000
0000
0000
1001
0000
0000
0000
0101
0000
0000
0000
0001
0010
0001
0010
,  // measure 27
0001
0000
0000
0000
1100
0000
0000
0000
1010
0000
0000
0000
1000
0001
1000
0001
,  // measure 28
1000
0110
0101
1001
,  // measure 29
1000
0000
0000
0000
0010
0000
0100
0000
0001
0000
0100
0000
0010
1000
0010
1000
,  // measure 30
0010
0000
0000
0000
0100
0000
0000
0000
0001
0000
1000
0000
0001
0100
0001
0100
,  // measure 31
0001
0000
0000
0000
0010
0000
0000
0000
1000
0000
0001
0000
0100
0010
0100
0010
,  // measure 32
0100
1100
0001
0101
,  // measure 33
1000
0000
1000
0000
0010
0000
0010
0000
0100
0010
0100
0010
0100
0010
0100
0010
,  // measure 34
0100
0002
0203
2300
,  // measure 35
3020
2030
3200
0302
,  // measure 36
1000
0000
0100
0100
0103
0000
0010
0000
,  // measure 37
1000
0000
0001
0000
1000
0100
0010
0001
,  // measure 38
1000
0002
0023
0230
,  // measure 39
2300
3020
0230
0302
,  // measure 40
0010
0000
1000
1000
1003
0000
0001
0000
,  // measure 41
0010
0000
0100
0000
1000
0100
0010
0001
,  // measure 42
0010
0200
2300
3020
,  // measure 43
0032
0203
0320
0130
,  // measure 44
0010
0100
0010
1000
0100
1000
1000
0000
,  // measure 45
1000
0100
1000
0001
0010
0001
0001
0000
,  // measure 46
1000
1000
0001
0010
0001
0100
0100
0000
,  // measure 47
0010
0010
1000
0100
1000
0001
0001
0000
,  // measure 48
1000
0100
0001
0100
1000
0010
0001
0010
,  // measure 49
1000
0100
0001
0100
1000
0010
0001
0000
,  // measure 50
2002
0000
0000
0000
,  // measure 51
3003
0000
0000
0000
;
