#TITLE:A Little Less Sixteen Candles;
#SUBTITLE:A Little More "Touch Me";
#ARTIST:FALL OUT BOY;
#TITLETRANSLIT:;
#SUBTITLETRANSLIT:;
#ARTISTTRANSLIT:;
#CREDIT:;
#BANNER:A Little Less Sixteen Candles A Little More Touch Me.png;
#BACKGROUND:A Little Less Sixteen Candles A Little More Touch Me-bg.png;
#LYRICSPATH:;
#CDTITLE:From Under the Cork Tree.png;
#MUSIC:A Little Less Sixteen Candles A Little More Touch Me.mp3;
#OFFSET:-7.759;
#SAMPLESTART:43.860;
#SAMPLELENGTH:12.000;
#SELECTABLE:YES;
#BPMS:0.000=133.018;
#STOPS:;
#BGCHANGES:0.000=A Little Less Sixteen Candles A Little More Touch Me-1.avi=1.000=1=0=0,
107.500=A Little Less Sixteen Candles A Little More Touch Me-2.avi=1.000=1=0=0,
223.000=A Little Less Sixteen Candles A Little More ''Touch Me''-bg.png=1.000=1=0=0,
99999=-nosongbg-=1.000=0=0=0 // don't automatically add -songbackground-
;

//---------------dance-single - Beginner----------------
#NOTES:
     dance-single:
     Beginner:
     Beginner:
     1:
     0.140,0.173,0.071,0.000,0.000:
0001
0000
0000
0000
,
0001
0000
0000
0000
,
1000
0000
0000
0000
,
1000
0000
1000
0000
,
1001
0000
0000
0000
,
0010
0000
0000
0000
,
0100
0000
0000
0000
,
0010
0000
0000
0000
,
1001
0000
0000
0000
,
1000
0000
0000
0000
,
0001
0000
0000
0000
,
1000
0000
0001
0000
,
1001
0000
0000
0000
,
0010
0000
0100
0000
,
0010
0000
0000
0000
,
0001
0000
1000
0000
,
0001
0000
0000
0000
,
0010
0000
1000
0000
,
0001
0000
1000
0000
,
0001
0000
0000
0000
,
1001
0000
1000
0000
,
1001
0000
0001
0000
,
1000
0000
0010
0000
,
0100
0100
0100
0000
,
1001
0000
0001
0000
,
1001
0000
1000
0000
,
0010
0010
0010
0000
,
1000
1000
1000
0000
,
0001
0000
0000
0000
,
1000
0000
0000
0000
,
0001
1000
0001
0000
,
0001
1000
0001
0000
,
1000
0000
0001
0000
,
1000
0000
0001
0000
,
1000
0001
1000
0000
,
0001
1000
0001
0000
,
0010
0000
0100
0000
,
0010
0000
0100
0000
,
0010
0000
0000
0000
,
1000
0000
0000
0000
,
0001
0000
1000
0000
,
0001
0000
1000
0000
,
0010
0000
0100
0000
,
1001
0000
0100
0000
,
0001
0000
1000
0000
,
0001
0000
0010
0000
,
0100
0000
1000
0000
,
0001
0000
0000
0000
,
1000
0000
1000
0000
,
0001
0000
0001
0000
,
0010
0000
0010
0000
,
0100
0100
0100
0000
,
1000
0000
0001
0000
,
1000
0000
0001
0000
,
0010
0000
0100
0000
,
1000
1000
1000
0000
,
0001
0000
0000
0000
;

//---------------dance-single - Basic----------------
#NOTES:
     dance-single:
     Basic:
     Easy:
     3:
     0.229,0.248,0.080,0.133,0.000:
1000
0100
1000
0000
,
0001
0010
0001
0000
,
1000
0100
1000
0000
,
1001
1001
1001
0000
,
0001
0000
1000
0000
,
0001
0000
0010
0000
,
0100
1000
0002
0000
,
0000
0000
0000
0000
,
1003
0000
0100
0000
,
0010
0000
0100
0000
,
1000
0001
0200
0000
,
0000
0000
0000
0000
,
0310
1000
0100
0000
,
0010
0001
0100
0000
,
0001
1000
0100
0000
,
1000
0001
0100
1001
,
0100
0000
0100
0100
,
1001
0000
0010
0010
,
0001
0000
1000
0000
,
0001
0001
0001
0001
,
1000
0000
0001
0000
,
0010
0000
0100
0000
,
1000
0000
0001
0000
,
1001
1001
1001
0000
,
0010
0000
1000
0000
,
0100
0100
0100
0000
,
0001
0000
1000
0000
,
0001
0000
0010
0000
,
0200
0000
2300
0000
,
3002
0000
0023
0000
,
0130
1000
0001
1000
,
0001
1000
0001
1000
,
0020
0000
2030
0000
,
3200
0000
0320
0000
,
0031
1000
0100
0010
,
0100
0010
0100
0010
,
2000
0000
3002
0000
,
0203
0000
0302
0000
,
0023
0000
0000
0000
,
0130
1000
0001
1000
,
1001
0000
0001
0001
,
1000
0000
0010
1000
,
0100
0000
1000
0000
,
0001
0001
0001
0000
,
0010
0100
1000
0010
,
1000
0000
0001
0000
,
0001
0010
0100
1000
,
0010
1000
0100
1000
,
0001
0001
0001
0001
,
1000
1000
1000
1000
,
0010
0010
0010
0010
,
0100
0100
0100
0100
,
0001
0001
0001
0001
,
0010
0010
0010
0010
,
0100
1000
0001
0100
,
0001
0000
0000
0000
,
1000
0000
0000
0000
;

//---------------dance-single - Trick----------------
#NOTES:
     dance-single:
     Trick:
     Medium:
     4:
     0.336,0.322,0.115,0.142,0.000:
0001
1000
0001
0000
0010
0000
0000
0000
,
0100
1000
0100
0000
0010
0000
0000
0000
,
0001
0100
0001
0000
0010
0000
0000
0000
,
1001
1100
1001
0101
,
0001
1000
0001
0000
0010
0000
0100
0000
,
1000
0100
1000
0000
0001
0100
0001
0000
,
0010
0000
0100
2000
0000
0000
0000
0000
,
3001
0010
0100
1000
,
1001
0100
0000
1000
0001
0000
0100
0000
,
0001
0000
1000
0000
0100
0000
0010
0100
,
1000
0001
0200
0000
,
0310
1000
0100
1000
,
0001
1000
0001
1000
0000
0100
1000
0100
,
0000
1000
0001
1000
0000
0001
0001
0000
,
0010
0100
1000
0100
0000
1000
0001
0100
,
0000
0001
0010
0100
0000
1000
0001
0000
,
1000
0100
0010
0001
,
1000
0001
0100
0001
,
1000
1000
1000
1000
,
0001
1000
0001
1000
0001
1000
0001
0000
,
0010
0100
1000
0100
1000
0000
0000
0000
,
0001
0000
0100
0001
0100
0000
0000
0000
,
1001
0100
1000
0001
,
1010
0101
1010
0000
,
0001
0000
0010
0100
1000
0000
0001
0000
,
0100
0000
0001
0000
,
0010
0000
0100
0000
1000
0001
1000
0000
,
0100
0010
0100
1000
,
2000
0000
3200
0000
,
0320
0000
0032
0000
,
0103
1000
0100
1000
,
0100
1000
0100
1000
,
0002
0000
0203
0000
,
0320
0000
2030
0000
,
3100
0010
0001
0010
,
0001
0010
0001
0010
,
0002
0000
2003
0000
,
3200
0000
0320
0000
,
0230
0000
0000
0000
,
2000
0000
3300
1001
,
0100
0000
0010
0000
0100
1000
0001
0000
,
0100
0000
0001
0000
0010
0100
1000
0000
,
0010
1000
0001
0100
,
1001
0110
1001
0000
,
0001
0000
0010
0100
1000
0000
0001
0000
,
0100
0000
0001
0000
,
0010
0100
1000
0000
0001
0000
1000
0000
,
0100
1000
0010
1000
,
0100
1000
0100
0000
0010
0001
0010
0000
,
0100
1000
0100
0000
0010
0001
0010
0000
,
0001
0100
0001
0000
0010
1000
0010
0000
,
0100
0001
0100
0000
0010
1000
0010
0000
,
1000
0100
0001
0000
0001
0100
1000
0000
,
1000
0100
0001
0000
0001
0100
1000
0000
,
0010
1000
0100
0000
0010
0001
0100
0000
,
0001
1000
0100
0010
,
0001
0000
0000
0000
;

//---------------dance-single - Maniac----------------
#NOTES:
     dance-single:
     Maniac:
     Hard:
     7:
     0.448,0.445,0.106,0.150,0.022: // measure 1
0100
1000
0100
0010
0100
0000
0000
0000
,  // measure 2
0001
0100
0001
0010
0100
0000
0000
0000
,  // measure 3
1000
0010
0100
0010
1000
0000
0000
0000
,  // measure 4
2000
3200
0320
0230
,  // measure 5
1300
0000
0000
0001
1000
0000
0100
0000
,  // measure 6
0010
0100
1000
0001
0100
0001
0010
0100
,  // measure 7
1000
0000
0001
1000
0000
0010
0100
0000
,  // measure 8
1000
0000
0001
0000
0100
0001
0100
0000
0001
0000
0010
0000
0100
1000
0100
0000
,  // measure 9
1000
0100
0000
1000
0001
0000
0010
0000
,  // measure 10
0100
1000
0000
0001
0000
0100
0001
0010
,  // measure 11
0100
1000
0100
0010
0100
1000
0001
0100
,  // measure 12
0001
1000
0100
0010
0100
1000
0001
0100
,  // measure 13
0101
1000
0100
0010
0000
0100
1000
0001
,  // measure 14
0000
0100
0001
0010
0000
0100
0100
0000
,  // measure 15
1000
0001
0100
0010
0000
0010
1000
0100
,  // measure 16
0000
0010
0100
1000
0001
1000
1100
0000
,  // measure 17
0010
0001
0100
0001
1000
0100
0010
0100
,  // measure 18
0000
1000
0001
0000
0100
0001
0010
0100
,  // measure 19
1000
0000
1000
0100
0000
0100
1000
0000
,  // measure 20
1000
0000
0001
0000
0100
0000
0001
0000
0010
0000
0100
1000
0100
1000
0100
1000
,  // measure 21
0100
0010
0100
1000
0001
0000
0000
0000
,  // measure 22
0001
0000
0010
0100
1000
0010
0100
0000
,  // measure 23
0001
1000
0100
0010
0000
0010
0100
1000
,  // measure 24
1001
0110
1001
0000
,  // measure 25
0001
0010
0100
1000
0010
0100
0010
0000
,  // measure 26
1000
0010
0000
0010
1000
0100
0010
0000
,  // measure 27
0001
0100
0001
0000
1000
0100
1000
0100
,  // measure 28
0010
0000
0100
1000
0000
0001
0100
0001
,  // measure 29
0020
0000
0230
0000
,  // measure 30
2300
0000
3020
0000
,  // measure 31
0130
0100
1000
0000
0100
0010
0100
0000
,  // measure 32
0010
0001
0010
0000
0001
0100
0001
0000
,  // measure 33
2000
0000
3200
0000
,  // measure 34
0320
0000
0230
0000
,  // measure 35
0310
0010
0001
0000
0001
0010
0001
0000
,  // measure 36
0010
0100
0010
0000
0100
1000
0100
0000
,  // measure 37
2000
0000
3002
0000
,  // measure 38
0023
0000
0032
0000
,  // measure 39
0023
0000
0000
0000
,  // measure 40
0130
0000
1000
0000
0001
0000
1000
0100
,  // measure 41
0010
0100
1000
0010
0100
0000
0000
0000
,  // measure 42
0001
1000
0100
0010
0100
1000
0001
0000
,  // measure 43
0100
0010
0100
0010
1000
0010
0100
0001
,  // measure 44
0101
0000
0110
0000
1100
0000
0001
1000
,  // measure 45
0100
0010
0100
1000
0010
0100
0001
0000
,  // measure 46
0100
0001
0000
0001
0100
0001
0010
0100
,  // measure 47
1000
0001
1000
0000
0001
0100
0001
0010
,  // measure 48
0100
0000
1000
0010
0000
1000
0100
0000
,  // measure 49
1000
0001
1000
0001
1000
0001
1000
0100
,  // measure 50
0010
0100
0010
0100
0010
0100
0010
0001
,  // measure 51
0010
0001
0010
0001
0010
0001
0100
0001
,  // measure 52
0101
1100
0110
0110
,  // measure 53
0001
1000
0010
1000
0100
0010
0100
1000
,  // measure 54
0010
0100
0010
1000
0100
0010
0100
0010
,  // measure 55
0001
0100
0001
1000
0100
0010
0100
1000
,  // measure 56
0001
0000
1000
0001
0000
0100
0000
0001
;
