#TITLE:21st century digital girl;
#SUBTITLE:(Josh Harris Vocal Club Mix);
#ARTIST:GROOVE COVERAGE;
#TITLETRANSLIT:;
#SUBTITLETRANSLIT:;
#ARTISTTRANSLIT:;
#CREDIT:;
#BANNER:21st CENTURY DIGITAL GIRL (Josh Harris Vocal Club Mix).png;
#BACKGROUND:21st CENTURY DIGITAL GIRL (Josh Harris Vocal Club Mix)-bg.png;
#LYRICSPATH:;
#CDTITLE:Shibuya Rave 2.png;
#MUSIC:21st CENTURY DIGITAL GIRL (Josh Harris Vocal Club Mix).ogg;
#OFFSET:0.000;
#SAMPLESTART:44.691;
#SAMPLELENGTH:16.020;
#SELECTABLE:YES;
#BPMS:0.000=132.010;
#STOPS:;
#BGCHANGES:;

//---------------dance-single - ----------------
#NOTES:
     dance-single:
     :
     Hard:
     6:
     0.373,0.464,0.381,0.133,0.009:
0000
0000
0000
0000
,
0000
0000
0000
0000
,
0000
0000
0000
0000
,
0000
0000
0000
0000
,
0101
0101
2010
3001
,
0011
0000
0011
0000
2100
0001
3001
0000
,
1100
1100
0012
1003
,
1010
0000
1010
0000
0102
1000
0003
0000
,
0010
0000
0000
0000
1000
0000
0000
1000
0000
0000
0001
0000
0001
0000
0000
0000
,
0010
0100
1000
0100
0010
0100
1000
0000
,
0001
0000
0000
0000
1000
0000
0000
1000
0000
0000
0010
0000
0010
0000
0000
0000
,
0100
0001
0010
0001
0100
0000
0000
0000
,
0010
0000
1000
0000
0001
0100
1000
0000
,
0010
0001
1000
0000
,
0100
0000
0001
0000
1000
0100
0001
0000
,
1000
0000
0010
0100
0001
0000
0000
0000
,
1100
0011
0000
1000
,
0010
0001
0100
0000
,
1100
0011
0000
0010
,
0001
0100
1000
0000
,
1100
0000
0011
0000
0010
0001
0100
0000
,
0010
1000
0001
0000
,
0101
0000
1010
0000
1000
0001
0100
0000
,
0001
0010
0000
0200
0000
0000
0000
0000
,
0300
0000
0000
0000
,
1000
0001
0100
0000
0010
1000
0001
0000
,
0010
0100
1000
0000
1001
0000
0000
0000
,
1000
0010
0100
0001
1000
0000
0001
0000
,
1000
0100
0010
0000
1001
0000
0000
0000
,
0001
1000
0100
0000
0010
0001
0100
0000
,
0001
0010
0100
0000
,
1000
0010
0100
0000
0001
0010
1000
0000
,
0021
0130
0210
1300
,
2010
0010
0010
0000
0100
0100
3100
0000
,
0011
0011
1100
1100
,
1000
0010
0010
1000
0010
0010
0100
0001
,
0001
0100
0001
0001
1000
0100
0100
1000
,
0010
1000
0010
0100
,
0001
0010
0001
0000
1000
0001
0000
0000
,
1000
0010
0100
0000
0001
0010
0001
0000
,
1000
0100
0010
0000
0001
0100
0001
0000
,
1000
0010
1000
0001
0010
0100
1000
0000
,
0001
0010
0100
0000
1000
0000
0001
0000
,
1000
0010
0100
0001
,
1000
0100
0010
0001
,
1000
0010
0100
0001
,
2002
0000
0000
3003
,
1010
1010
0102
1003
,
0001
1000
0010
0000
1000
0100
0010
0000
,
0011
0011
2100
3001
,
0001
1000
0100
0000
2001
0100
3100
0000
,
0101
0101
2001
3100
,
0010
0001
0100
0000
0010
1000
0001
0000
,
0101
0101
2001
3100
,
0010
0001
1000
0000
0001
0100
0010
0000
,
1000
0000
0000
0000
;

//---------------dance-single - ----------------
#NOTES:
     dance-single:
     :
     Medium:
     4:
     0.269,0.390,0.240,0.027,0.000:
0000
0000
0000
0000
,
0000
0000
0000
0000
,
0000
0000
0000
0000
,
0000
0000
0000
0000
,
1000
0100
1000
0000
,
0001
0100
0001
0000
,
0010
0100
1000
0000
,
0001
0000
0100
0000
0000
0010
0000
0000
,
1000
0000
0000
0001
0000
0010
0001
0000
,
0100
0001
0010
0000
,
1000
0000
0000
0010
0000
1000
0100
0000
,
0010
0001
0100
0000
,
0010
0000
0000
0100
0000
0001
0010
0000
,
0001
0000
0000
0010
0000
0001
0010
0000
,
0001
1000
0100
0100
,
1000
0010
0100
0000
,
0011
0001
0000
1000
,
0010
0100
0001
0000
,
1010
1000
0000
0001
,
0010
0100
1000
0000
,
0001
1000
0001
0001
,
0010
0010
0100
0000
,
1000
0010
0100
0100
,
0001
1000
0000
0020
0000
0000
0000
0000
,
0030
0000
0000
0000
,
1100
1010
1100
1010
,
0101
0011
0101
0000
,
0110
1001
0110
1001
,
1100
0110
0011
0000
,
0011
0101
0110
1100
,
0110
1001
1100
0000
,
1010
1001
0101
0011
,
1000
0000
1000
0000
0100
0000
0100
0010
,
0001
0000
0001
0000
0001
0000
0001
0100
,
0010
1000
0001
0100
,
1000
0000
0010
1000
0000
0001
0100
0000
,
0001
0010
0000
0100
1000
0000
0001
0000
,
1000
0100
0010
0001
,
1000
0010
1000
0000
0001
0100
0001
0000
,
0100
0000
0010
1000
0000
1000
0100
0000
,
0010
0000
0001
0100
0000
0100
0001
0000
,
1000
0100
1000
0100
,
0010
0001
0010
0001
,
0200
0010
0001
0010
,
0001
0010
1000
0001
,
0010
0001
1000
0001
,
0002
0000
0000
0303
,
1000
0100
1000
0000
,
0001
0100
0001
0000
,
0010
0100
1000
0000
,
0001
0010
0001
0000
,
1000
0010
1000
0000
,
0100
0010
0001
0000
,
0010
1000
0010
0000
,
0100
1000
0100
0000
,
0010
0000
0000
0000
;

//---------------dance-single - ----------------
#NOTES:
     dance-single:
     :
     Easy:
     2:
     0.157,0.195,0.000,0.009,0.000: // measure 1
0000
0000
0000
0000
,  // measure 2
0000
0000
0000
0000
,  // measure 3
0000
0000
0000
0000
,  // measure 4
0000
0000
0000
0000
,  // measure 5
1000
0000
0100
0000
,  // measure 6
0010
0010
0010
0000
,  // measure 7
0001
0000
0100
0000
,  // measure 8
0010
0010
0010
0000
,  // measure 9
1000
0000
0100
0000
,  // measure 10
1000
0100
0010
0000
,  // measure 11
0001
0000
0100
0000
,  // measure 12
0001
0100
0010
0000
,  // measure 13
1000
1000
0100
0100
,  // measure 14
0010
0010
0001
0000
,  // measure 15
1000
1000
0010
0010
,  // measure 16
0100
0100
0001
0000
,  // measure 17
1000
1000
0000
0000
,  // measure 18
0001
0000
0001
0000
,  // measure 19
0010
0010
0000
0000
,  // measure 20
0100
0000
0100
0000
,  // measure 21
1000
0010
1000
0010
,  // measure 22
0100
0001
0100
0000
,  // measure 23
0001
1000
0010
0100
,  // measure 24
0001
0001
0001
0000
,  // measure 25
1000
0000
0000
0000
,  // measure 26
1000
0000
1000
0000
,  // measure 27
0100
0100
0100
0000
,  // measure 28
0010
0000
0010
0000
,  // measure 29
0001
0001
0001
0000
,  // measure 30
0100
0000
0100
0100
,  // measure 31
0010
0010
0010
0000
,  // measure 32
1000
0000
0001
0001
,  // measure 33
1000
0000
0001
0001
,  // measure 34
1000
0000
0000
0000
,  // measure 35
1000
0100
1000
0001
,  // measure 36
0010
0000
0010
0000
,  // measure 37
0010
0000
0010
0000
,  // measure 38
0010
0001
0100
0000
,  // measure 39
0010
1000
0100
0000
,  // measure 40
0000
1000
0000
1000
,  // measure 41
0000
1000
0000
0100
,  // measure 42
0000
0100
0000
0100
,  // measure 43
0000
0010
0001
0001
,  // measure 44
0200
0000
0000
0000
,  // measure 45
0000
0000
0000
0000
,  // measure 46
0000
0000
0000
0000
,  // measure 47
0000
0000
0000
0300
,  // measure 48
0010
0000
0010
0000
,  // measure 49
1000
0000
1000
0000
,  // measure 50
0001
0000
0001
0000
,  // measure 51
0010
0000
0010
0000
,  // measure 52
0100
0000
0100
0000
,  // measure 53
1000
1000
1000
0000
,  // measure 54
0001
0000
0001
0000
,  // measure 55
0100
0100
0100
0000
,  // measure 56
0010
0000
0000
0000
;

//---------------dance-single - ----------------
#NOTES:
     dance-single:
     :
     Beginner:
     1:
     0.087,0.122,0.009,0.027,0.000:
0000
0000
0000
0000
,
0000
0000
0000
0000
,
0000
0000
0000
0000
,
0000
0000
0000
0000
,
1000
0000
0001
0000
,
1000
0000
0100
0000
,
1000
0000
0001
0000
,
1000
0000
0100
0000
,
1000
0000
0000
0000
,
0001
0000
1000
0000
,
0001
0000
0000
0000
,
1000
0000
0010
0000
,
0100
0000
0000
0000
,
0001
0000
0010
0000
,
0001
0000
0000
0000
,
1000
0000
0100
0000
,
1000
0000
0000
0000
,
1000
0000
0010
0000
,
0100
0000
0000
0000
,
0001
0000
0010
0000
,
0100
0000
0000
0000
,
1000
0000
0000
0000
,
0010
0000
0100
0000
,
0001
0000
0000
0000
,
2000
0000
0000
3000
,
0001
0000
0000
0000
,
0010
0000
0000
0000
,
0100
0000
0000
0000
,
1000
0000
0000
0000
,
0010
0000
0000
0000
,
0100
0000
0000
0000
,
0001
0000
0000
0000
,
1000
0000
0000
0000
,
0002
0000
0000
0000
,
2003
0000
0000
0000
,
3001
0000
0000
0000
,
1000
0000
0000
0000
,
0001
0000
0000
0000
,
1000
0000
0000
0000
,
0010
0000
0000
0000
,
0100
0000
0000
0000
,
0010
0000
0000
0000
,
0100
0000
0000
0000
,
0010
0000
0000
0000
,
0000
0000
0000
0000
,
0000
0000
0000
0000
,
0000
0000
0000
0000
,
1000
0000
0100
0000
,
1000
0000
0001
0000
,
0000
0000
1000
0000
,
0001
0000
0100
0000
,
0000
0000
0010
0000
,
1000
0000
0100
0000
,
0000
0000
0010
0000
,
0001
0000
0100
0000
,
1001
0000
0000
0000
;

//---------------dance-double - ----------------
#NOTES:
     dance-double:
     :
     Hard:
     7:
     0.385,0.415,0.142,0.169,0.004:
00000000
00000000
00000000
00000000
,
00000000
00000000
00000000
00000000
,
00000000
00000000
00000000
00000000
,
00000000
00000000
00000000
00000000
,
10010000
00000000
01000000
00010000
00200000
00000000
00300000
00000000
,
00002000
00000000
00013000
00000010
00000200
00000000
00000300
00000000
,
00010100
00000000
00000010
00001000
00000002
00000000
00000003
00000000
,
00000020
00000000
00000130
00010000
00002000
01000000
00003000
00000000
,
00010000
00000000
10000000
00000000
00010000
01000000
00001000
00000000
,
00010000
00000100
00001000
00000010
00000100
00000001
00001000
00000000
,
00001000
00000000
00000001
00000000
00000010
00000100
00001000
00000000
,
00000100
00010000
01000000
00100000
00001000
00000000
00000000
00000000
,
11000000
00000000
00110000
00000000
10000000
01000000
00010000
00000000
,
01000000
00100000
00001000
00000000
00010000
00000000
00000100
00001000
,
00000001
00000000
00000100
00000000
00001000
00000000
00000001
00001000
,
00000100
00000000
00000010
00010000
00001000
00000000
00010000
00000000
,
00011000
00101000
00001000
00100000
,
00001000
00000100
00001000
00000000
,
01010000
10010000
10000000
01000000
,
00010000
00000000
01000000
00000000
10000000
00000000
00010000
01000000
,
00001000
00000000
00010000
00000000
00000100
00001000
00000010
00000000
,
00001000
00000001
00001000
00001000
00000000
00000001
00000001
00001000
,
00000001
00000100
00000010
00010000
00000010
00001000
00000010
00000100
,
00000001
00001000
00000100
00010000
00001000
00100000
01000000
10000000
,
00010000
00000000
00000000
00000000
,
00001000
00100000
00001000
00000100
00001000
00010000
00001000
00100000
,
00001000
00010000
00000100
00010000
00001000
00000000
00000000
00000000
,
00001000
00000100
00000010
00000001
00000100
00000010
00001000
00100000
,
00001000
00000100
00001000
00000000
00011000
00000000
00000000
00000000
,
00001000
00100000
00010000
00000000
00000010
00000001
00001000
00000000
,
00000001
00001000
00000000
00000000
,
00000001
00000100
00000010
00000000
00001000
00000000
00000000
00100000
,
00010000
00010000
10000000
10000000
,
02000000
00010000
00100000
03010000
,
10010000
11000000
10010000
01010000
,
00100000
10000000
10000000
00010000
01000000
01000000
00001000
00010000
,
00010000
00000000
00000010
00001000
00001000
00000001
00000010
00000100
,
00001000
00000000
00000001
00000000
00001000
00000100
00000010
00000001
,
00000100
00000010
00000100
00000000
00000001
00000000
00001000
00000000
00000100
00000000
00020000
00000000
00000000
00000000
00000000
00000000
,
00031000
01000000
00100000
00000000
20000000
00000000
30010000
00000000
,
20000000
00000000
31000000
00000000
00200000
00010000
00000000
00301000
,
00010000
00001000
00100000
00001000
00010000
00000100
00010000
00001000
,
00100000
00001000
00010000
00000100
00010000
00001000
00100000
00001000
,
00010000
00001000
00100000
00001000
,
01000000
00010000
10000000
01000000
,
10000000
00010000
01000000
00010000
,
02020000
00000000
00000000
03030000
,
10010000
00000000
01000000
00010000
00200000
00000000
00301000
00000000
,
00002000
00000000
00013000
00000010
00000200
00010000
00010300
00000000
,
00010100
00000000
00000010
00001000
00000002
00000000
00001003
00000000
,
00000020
00000000
00000130
00010000
00002000
01000000
01003000
00000000
,
00010000
00000000
10000000
00000000
00010000
01000000
00001000
00000000
,
00010000
00000100
00001000
00000010
00000100
00000001
00001000
00000000
,
00001000
00000000
00000001
00000000
00000010
00000100
00001000
00000000
,
00000100
00010000
01000000
00100000
00001000
01000000
00010000
00000000
,
10000000
00000000
00000000
00000000
;
