#TITLE:traveling;
#SUBTITLE:;
#ARTIST:宇多田ヒカル;
#TITLETRANSLIT:;
#SUBTITLETRANSLIT:;
#ARTISTTRANSLIT:Utada Hikaru;
#GENRE:J-POP;
#CREDIT:;
#MENUCOLOR:;
#NEWMETERSYSTEM:NO;
#BANNER:traveling.png;
#BACKGROUND:traveling-bg.png;
#LYRICSPATH:traveling.lrc;
#CDTITLE:;
#MUSIC:traveling.ogg;
#OFFSET:0.000;
#SAMPLESTART:57.420;
#SAMPLELENGTH:16.500;
#SELECTABLE:YES;
#LISTSORT:;
#BPMS:0.000=117.000;
#STOPS:;
#BGCHANGES:15.063=traveling.avi=1.000=1=0=0,
240.000=traveling-bg.png=1.000=1=0=1,
99999=-nosongbg-=1.000=0=0=0 // don't automatically add -songbackground-
;
#ATTACKS:;

//---------------dance-single - DDRDAIKENKAI----------------
#NOTES:
     dance-single:
     DDRDAIKENKAI:
     Hard:
     9:
     0.632,0.674,0.160,0.381,0.427: // measure 1
0000
0000
0000
0000
,  // measure 2
0000
0000
0000
0000
,  // measure 3
0000
0000
0000
0000
,  // measure 4
0000
0000
0000
0000
,  // measure 5
1000
0001
1000
0000
0010
1000
0010
1000
0001
0000
1000
0001
0000
1000
0001
0010
,  // measure 6
0001
0100
0001
0000
0100
0010
0100
0010
1000
0000
0010
1000
0000
0010
1000
0001
,  // measure 7
1000
0100
1000
0000
0001
0010
0001
0010
0001
0000
0100
0001
0000
0100
0001
1000
,  // measure 8
0010
0100
0010
0000
1000
0001
1000
0001
0100
0010
0200
0000
0302
0000
0023
0000
,  // measure 9
0130
0010
0001
0000
1000
0100
1000
0100
0010
0000
0010
0001
0000
0001
0010
0001
,  // measure 10
0100
0010
1000
0000
0010
1000
0010
1000
0001
0000
0001
0010
0000
0010
0001
0010
,  // measure 11
0100
1000
0001
0000
1000
0001
1000
0001
0100
0000
0100
0010
0000
0010
1000
0001
,  // measure 12
0100
0010
0100
0000
0110
0000
0100
0001
1000
0010
1000
0010
0100
0010
0100
0000
,  // measure 13
0110
0010
1000
1000
0100
0010
0001
0001
,  // measure 14
1000
0000
0010
0000
0100
0000
0001
0000
0010
0000
0100
0000
1100
0000
0000
0100
,  // measure 15
1000
0000
0001
0000
1000
0100
0000
0100
1000
0000
0001
0000
0200
0000
0000
0310
,  // measure 16
1000
0000
0100
0000
0010
0001
0000
0001
0100
0000
0010
0000
2010
0000
0000
0000
,  // measure 17
3001
0010
0001
0001
1000
0100
1000
1000
,  // measure 18
0010
0001
0010
0200
0001
0001
0301
0001
,  // measure 19
1000
0000
0100
0000
0001
0100
0000
0100
1000
0000
0001
0000
0100
0000
0000
0010
,  // measure 20
0200
0000
0001
0000
0302
0000
0013
0001
0200
0000
0310
0000
0110
0000
0100
0001
,  // measure 21
2000
0001
3001
0100
0020
1000
1030
0100
,  // measure 22
2000
0010
3010
0100
2000
0100
3100
0001
,  // measure 23
0020
0001
0031
0100
0020
1000
1030
0100
,  // measure 24
0002
0100
0103
0020
0001
0032
0023
0230
,  // measure 25
2300
0100
3100
0001
0200
1000
1300
0010
,  // measure 26
0200
0001
0301
0100
0020
1000
1030
0100
,  // measure 27
2000
0010
3010
0100
0002
0010
0013
0100
,  // measure 28
1100
0000
1000
0100
1000
0000
1000
0010
1000
0000
0002
0000
0203
0000
2300
0000
,  // measure 29
0100
0000
0100
0000
3100
0000
0001
1000
0000
0000
0100
0000
0010
0000
0100
0000
,  // measure 30
0020
0000
0100
0000
0130
0000
1000
0001
0000
0000
0100
0000
0010
0000
1000
0000
,  // measure 31
0002
0000
0100
0000
0103
0000
0010
2000
0000
0000
3010
0000
0100
0000
0001
0000
,  // measure 32
1002
0000
1000
0000
1003
0000
0001
1000
0200
0000
1000
0000
1300
0000
0000
0000
,  // measure 33
0020
0000
1000
0000
1030
0000
0100
1000
0000
0000
0001
0000
0010
0000
0001
0000
,  // measure 34
0200
0000
0001
0000
0301
0000
0010
0100
0000
0000
0010
0000
0001
0000
1000
0000
,  // measure 35
0002
0000
1000
0000
1003
0000
0010
2000
0000
0000
3100
0000
0010
0000
0100
0000
,  // measure 36
2000
0000
0010
0000
3010
0000
0100
0010
0100
0000
0001
0000
0101
0000
0000
0000
,  // measure 37
0010
0000
0001
0000
1000
0000
0100
2000
0000
0000
0001
0000
3001
0000
0100
0000
,  // measure 38
0001
0000
0000
0000
0100
0000
0010
0000
0100
0000
0001
1000
0000
0000
0100
0000
,  // measure 39
0010
0000
0001
0000
1001
0000
0000
0001
1000
0100
1000
0000
0010
0000
0100
0000
,  // measure 40
0110
0000
1100
0010
0001
1000
0100
0001
,  // measure 41
0100
0000
1000
0000
0001
0000
0100
0020
0000
0000
0130
0000
0001
0000
1000
0000
,  // measure 42
0100
0000
0000
0000
0010
0000
0001
0000
0010
0000
0100
2000
0000
0000
3010
0000
,  // measure 43
0001
0000
0010
0000
1010
0000
0000
0010
1000
0100
1000
0000
0010
0000
1000
0000
,  // measure 44
1001
0000
0101
0010
1000
0001
0100
0010
,  // measure 45
1000
0000
0100
0000
0010
0000
0001
0200
0000
0000
0010
0000
0010
0000
0310
0000
,  // measure 46
1000
0000
0001
0000
1000
0000
0010
0200
0000
0000
0001
0000
0001
0000
0301
0000
,  // measure 47
0010
0000
1000
0000
0010
0000
0001
2000
0000
0000
3100
0000
1000
0000
0001
0000
,  // measure 48
0200
0000
0010
0000
0310
0000
1000
0001
1000
0000
0100
0000
1100
0000
0000
0000
,  // measure 49
0001
0000
0100
0000
0010
0000
1000
0020
0000
0000
0100
0000
0100
0000
0130
0000
,  // measure 50
0001
0000
0100
0000
0010
0000
1000
0002
0000
0000
1000
0000
1000
0000
1003
0000
,  // measure 51
0001
0000
0010
0000
1000
0000
0010
0001
0000
0000
1000
0000
0100
0000
0001
0000
,  // measure 52
0100
0000
1000
0000
0001
0000
0100
0010
0100
0000
0010
0000
0110
0000
0000
0000
,  // measure 53
0010
0000
1000
0000
0001
0100
0000
0000
0101
0000
0000
0001
1000
0000
0100
0000
,  // measure 54
0010
0000
0001
0000
1000
0010
0000
0000
0110
0000
0000
0010
1000
0000
0000
0000
,  // measure 55
0001
0000
0100
0000
0010
1000
0000
0000
1001
0000
0000
0001
1000
0000
0100
0000
,  // measure 56
0001
0000
0100
0000
1000
0001
0000
0000
1001
0000
0000
0001
0100
0000
0001
0100
,  // measure 57
0001
1000
0001
0000
0100
0001
0100
0001
1000
0000
0001
1000
0000
0001
1000
0100
,  // measure 58
1000
0010
1000
0000
0010
0100
0010
0100
0001
0000
0100
0001
0000
0100
0001
1000
,  // measure 59
0001
0010
0001
0000
1000
0100
1000
0100
1000
0000
0010
1000
0000
0010
1000
0001
,  // measure 60
0100
0000
0001
0100
0010
0000
0010
1000
0100
0000
0100
0010
0001
0000
1000
0000
,  // measure 61
2002
0000
0000
0000
,  // measure 62
3003
0000
0000
0000
;

//---------------dance-single - DDRDAIKENKAI----------------
#NOTES:
     dance-single:
     DDRDAIKENKAI:
     Easy:
     3:
     0.216,0.232,0.030,0.213,0.000:
0000
0000
0000
0000
,
0000
0000
0000
0000
,
0000
0000
0000
0000
,
0000
0000
0000
0000
,
0000
1000
0000
1000
,
0000
0001
0000
0001
,
0000
0100
0000
0100
,
0000
0010
0000
0010
,
1000
0001
0000
1000
,
0000
0001
0000
0010
,
0000
0001
0000
0100
,
0010
0010
0010
1001
,
0100
1000
0001
0100
,
0001
0010
0100
0000
,
1000
0010
0100
0001
,
1000
0100
0010
0001
,
1000
0001
0100
0010
,
0100
0001
0100
0000
,
0010
0010
1000
1000
,
0200
0000
0000
1300
,
0001
0100
0000
0001
,
0000
0000
1000
0000
0000
0100
0100
0000
,
0000
1000
0000
0010
,
0000
0000
1000
0000
0000
0001
0001
0000
,
0000
0010
0000
0001
,
0000
0000
0100
0000
0000
0010
0010
0000
,
0000
0100
0000
0010
,
1000
0000
1000
0000
1000
1000
1000
0000
,
2001
0000
0001
3001
,
0002
0000
1000
1003
,
0002
0003
0100
0100
,
0002
0000
0020
0033
,
0002
0000
1000
1003
,
0200
0000
0010
0310
,
0002
0003
1000
1000
,
0001
0010
0100
0000
,
2000
0000
0000
0000
0000
0000
0000
3000
0000
0000
0000
0000
0020
0000
0000
0000
,
0230
0310
0100
0001
,
0020
0000
0100
0130
,
2000
0000
0001
3001
,
0200
0000
0000
0000
0000
0000
0000
0300
0000
0000
0000
0000
0020
0000
0000
0000
,
0230
0310
1000
0001
,
2000
0000
0000
0010
,
3010
0010
0010
1001
,
0002
0000
1000
1003
,
2000
0000
0001
3001
,
0200
0000
0310
1000
,
0200
0000
2000
3300
,
0020
0000
0100
0130
,
0002
0000
0010
0013
,
0200
0000
1300
0001
,
0100
0010
1000
0000
,
0001
0001
1000
0000
,
0100
0100
0010
0000
,
0100
0100
1000
0000
,
0001
0100
0010
0000
,
1000
0100
0001
0000
,
0100
0001
0010
0000
,
0001
0010
1000
0000
,
0010
1000
0100
1000
,
2002
0000
0000
0000
,
3003
0000
0000
0000
;

//---------------dance-single - DDRDAIKENKAI----------------
#NOTES:
     dance-single:
     DDRDAIKENKAI:
     Medium:
     5:
     0.384,0.372,0.053,0.396,0.038:
0000
0000
0000
0000
,
0000
0000
0000
0000
,
0000
0000
0000
0000
,
0000
0000
0000
0000
,
0000
1000
0001
1000
0000
1000
0001
0100
,
0000
0100
0001
0100
0000
0100
0001
0010
,
0000
0010
0001
0010
0000
0010
0100
1000
,
0000
1000
0001
1000
0000
0001
1000
0100
,
0000
0100
1000
0100
0000
0100
1000
0010
,
0000
0010
1000
0010
0000
0010
0100
0001
,
0000
0001
0010
0001
0000
0001
0010
1000
,
0000
1000
0010
0001
0000
0001
1000
1000
,
0002
0000
1003
2000
0000
0010
3010
0000
,
1000
0001
0100
0000
0010
1000
0100
0000
,
2000
0000
3002
0000
0013
0100
1000
0000
,
0002
0023
0230
1300
,
0002
0000
0100
0203
0000
0010
0310
0000
,
0100
0001
0010
0000
1000
0010
0001
0000
,
2000
0000
3020
0000
0130
0001
0010
0000
,
0200
0000
2300
0000
3001
0100
0110
0000
,
0000
0010
1000
0010
0000
1000
0100
1000
,
0000
0010
0100
0010
0000
0100
0001
0100
,
0000
0001
0010
0001
0000
0100
0010
0100
,
0000
0001
0010
0001
0000
1000
0001
1000
,
0000
0001
0010
0001
0000
1000
0010
1000
,
0000
0001
0100
0001
0000
1000
0100
1000
,
0000
0010
1000
0100
0000
1000
0100
0001
,
0000
0100
0001
0010
0000
0001
0010
1000
,
0020
0000
0000
0030
0001
0100
1000
0000
,
0020
0000
0000
0030
1000
0100
0001
0001
,
2000
0000
3000
0001
0010
0001
0100
0010
,
0200
0000
0000
0010
0020
0000
0330
0000
,
2000
0000
0000
3000
0001
0100
0010
0000
,
0200
0000
0000
0300
0010
1000
0001
0000
,
2000
0000
3010
0010
0100
0001
1000
0000
,
0200
0000
0000
1000
2000
0000
3300
0000
,
2000
0000
0001
0000
3001
0100
0001
0100
,
0002
0000
1003
0010
1000
0010
1000
1000
,
0020
2030
3002
2003
,
3200
0000
0300
0010
0001
1000
0001
0001
,
0200
0000
0010
0000
0310
1000
0010
1000
,
0100
0000
0010
0001
0010
0001
0100
0100
,
0002
2003
3200
2300
,
3010
0000
0010
1000
0010
1000
0001
1000
,
0200
0000
0000
0300
1000
0001
1000
0000
,
0020
0000
0000
0030
1000
0001
1000
1000
,
0002
0000
0003
0010
0100
1000
0100
0010
,
0002
0000
0000
0100
0200
0000
0303
0000
,
0020
0000
0000
0030
1000
0100
0001
0000
,
0020
0000
0000
0030
0001
0100
1000
1000
,
0002
0000
0203
0000
0310
1000
0010
0100
,
0020
0000
0000
0100
0200
0000
0330
0000
,
1000
0000
0001
0000
0000
0100
0000
0000
0002
0000
0000
0000
1003
0000
0000
0000
,
0000
0000
0010
0000
0000
0100
0000
0000
0110
0000
0000
0101
0000
0000
0000
0000
,
0000
0000
0010
0000
0000
1000
0000
0000
0200
0000
0000
0000
0310
0000
0000
0000
,
0000
0000
0010
0000
0000
0100
0000
0000
0110
0000
0000
1100
0000
0000
0000
0000
,
0100
0000
1000
0000
0000
0001
0000
0000
2000
0000
0000
0000
3100
0000
0000
0000
,
0000
0000
1000
0000
0000
0001
0000
0000
1001
0000
0000
0101
0000
0000
0000
0000
,
0000
0000
0010
0000
0000
0001
0000
0000
0200
0000
0000
0000
0310
0000
0000
0000
,
1000
0010
1000
0010
1000
0100
2000
0001
,
0002
0000
0000
0000
,
3003
0000
0000
0000
;
