#TITLE:You Make Me Want To Be a Man;
#SUBTITLE:;
#ARTIST:Utada;
#TITLETRANSLIT:;
#SUBTITLETRANSLIT:;
#ARTISTTRANSLIT:Utada Hikaru;
#GENRE:Pop;
#CREDIT:;
#MENUCOLOR:;
#NEWMETERSYSTEM:NO;
#BANNER:You Make Me Want To Be a Man.png;
#BACKGROUND:You Make Me Want To Be a Man-bg.png;
#LYRICSPATH:You Make Me Want To Be a Man.lrc;
#CDTITLE:CDTitle.png;
#MUSIC:You Make Me Want To Be a Man.ogg;
#OFFSET:0.000;
#SAMPLESTART:67.960;
#SAMPLELENGTH:17.700;
#SELECTABLE:YES;
#LISTSORT:;
#BPMS:0.000=113.000;
#STOPS:;
#BGCHANGES:0.000=You Make Me Want to Be a Man.avi=1.000=1=0=0,
99999=-nosongbg-=1.000=0=0=0 // don't automatically add -songbackground-
;
#ATTACKS:;

//---------------dance-single - DDRDAIKENKAI----------------
#NOTES:
     dance-single:
     DDRDAIKENKAI:
     Hard:
     9:
     0.617,0.688,0.254,0.336,0.787: // measure 1
0000
0000
0000
0000
,  // measure 2
0000
0000
0000
0000
,  // measure 3
0000
0000
0000
0000
,  // measure 4
0000
0000
0000
0000
,  // measure 5
1000
0000
0001
0000
0100
0010
0100
0010
1000
0000
0000
0000
1000
0000
0000
0000
,  // measure 6
0001
0000
1000
0000
0010
0100
0010
0100
0001
0000
0000
0000
0001
0000
0000
0000
,  // measure 7
1000
0000
0100
0000
0010
0001
0010
0001
0100
0000
0000
0000
0100
0000
0000
0000
,  // measure 8
0010
0000
1000
0000
0001
0100
0001
0100
0010
0000
0000
1000
0001
0000
0000
0000
,  // measure 9
1000
0000
0100
1000
0000
0000
0001
0000
0100
0010
0000
0000
0110
0000
0010
0000
,  // measure 10
1000
0000
0100
1000
0000
0010
0000
0100
0000
0001
0000
0020
0000
0000
0130
0000
,  // measure 11
1000
0000
0001
0100
0000
0000
0010
0000
1000
0100
0000
0000
1100
0000
0000
0000
,  // measure 12
0010
0001
0000
0010
0000
0100
0000
1000
0000
0001
0000
0000
1001
0000
0000
0000
,  // measure 13
0001
0000
1000
0010
0000
0000
1000
0000
0001
0100
0000
0000
0110
0000
0010
0000
,  // measure 14
1000
0000
0010
0100
0000
0001
0000
0010
0000
0100
0000
0010
0000
0000
0001
0000
,  // measure 15
2000
0000
0000
3020
0000
0000
0230
0000
0000
0301
0000
0000
0101
0000
0100
0000
,  // measure 16
0010
0000
0100
0001
0000
0010
0000
0001
0000
0100
0000
0000
0220
0000
0330
0000
,  // measure 17
1000
0000
1001
0000
0001
1000
0001
1000
0100
0000
0000
0100
1000
0000
0000
1000
,  // measure 18
0010
0000
0110
0000
0010
1000
0010
1000
0010
0000
0000
0010
1000
0000
0000
1000
,  // measure 19
0010
0000
0110
0000
0010
0100
0010
0100
0001
0010
0000
0001
0010
0100
0010
0100
,  // measure 20
1000
0000
1100
0000
0100
0010
0100
0010
0002
0000
2003
0000
3100
0010
0100
0010
,  // measure 21
0100
0000
1100
0000
0001
0100
0001
0100
0010
0000
0000
0010
1000
0000
0000
1000
,  // measure 22
0001
0000
0101
0000
0010
1000
0010
1000
0001
0000
0000
0001
1000
0000
0000
1000
,  // measure 23
0100
0000
0110
0000
0100
1000
0100
1000
0010
0000
0000
0010
0100
0000
0000
0100
,  // measure 24
0001
0000
0011
0000
0001
0100
0001
0100
0010
0000
0000
0010
1000
0000
0000
1000
,  // measure 25
0001
0000
4000
0000
3001
0100
0001
0100
0002
0000
0000
0023
0000
0000
0130
0000
,  // measure 26
1000
0000
0040
0000
1030
0100
1000
0100
0020
0000
0000
0032
0000
0000
0103
0000
,  // measure 27
0010
0000
4000
0000
3001
0100
0001
0100
0020
0000
0000
2030
0000
0000
3001
0000
,  // measure 28
0020
0000
0000
2030
0000
0000
3010
0000
0002
0000
0000
0000
0203
0000
0000
0000
,  // measure 29
0310
0000
4000
0000
3100
0010
0100
0010
0200
0000
0000
2300
0000
0000
3001
0000
,  // measure 30
0100
0000
0040
0000
1030
0001
1000
0001
0200
0000
0000
0302
0000
0000
0013
0000
,  // measure 31
0011
0000
0000
1100
0000
0000
0000
0000
1010
0000
0000
0101
0000
0000
0000
0000
,  // measure 32
0110
0000
1001
0000
0001
1000
0001
1000
0010
0000
1000
0000
1002
0000
0000
0000
,  // measure 33
1003
0000
0001
0100
0000
0000
0010
0000
1000
0100
0000
0000
1100
0000
0100
0000
,  // measure 34
0010
0000
0001
0010
0000
0100
0000
1000
0000
0001
0000
0200
0000
0000
0310
0000
,  // measure 35
1000
0000
0010
0100
0000
0000
0001
0000
0100
0010
0000
0000
0110
0000
0000
0000
,  // measure 36
0010
1000
0000
0010
0000
1000
0000
0001
0000
0020
0000
0000
0031
0000
0000
0000
,  // measure 37
1000
0000
0100
1000
0000
0000
0001
0000
0100
0001
0000
0000
0101
0000
0001
0000
,  // measure 38
0010
0000
0100
1000
0000
0001
0000
0100
0000
0010
0000
2000
0000
0000
3100
0000
,  // measure 39
0020
0000
0000
0032
0000
0000
0203
0000
0000
0310
0000
0000
0110
0000
0010
0000
,  // measure 40
0100
0000
0001
1000
0000
0100
0000
1000
0000
0001
0000
0000
1001
0000
0000
0000
,  // measure 41
0001
0000
0100
0010
0000
0000
1000
0000
0010
0100
0000
0000
0110
0000
0010
0000
,  // measure 42
1000
0000
0100
0001
0000
0100
0000
1000
0000
0010
0000
0200
0000
0000
0301
0000
,  // measure 43
0010
0000
0100
1000
0000
0000
0100
0000
0010
0001
0000
0000
1001
0000
0001
0000
,  // measure 44
0010
1000
0000
0010
0000
0001
0000
0100
0000
0020
0000
0000
1030
0000
0000
0000
,  // measure 45
0010
0000
0100
0001
0000
0000
0010
0000
0100
1000
0000
0000
1001
0000
0001
0000
,  // measure 46
1000
0000
0100
0001
0000
0100
0000
1000
0000
0010
0000
0200
0000
0000
0301
0000
,  // measure 47
0020
0000
0000
0230
0000
0000
2300
0000
0000
3001
0000
0000
0101
0000
0001
0000
,  // measure 48
1000
0000
0100
0010
0000
0001
0000
1000
0000
0001
0000
0000
1002
0000
0000
0000
,  // measure 49
1003
0000
1000
0000
0001
0100
0001
0100
0010
0100
0000
0100
0010
1000
0000
1000
,  // measure 50
0001
0000
1000
0000
0100
0010
0100
0010
0001
0010
0000
0010
0100
1000
0000
1000
,  // measure 51
0100
0000
1000
0000
0001
0100
0001
0100
0010
0100
0000
0100
0010
1000
0000
1000
,  // measure 52
0001
0000
1000
0000
0100
0010
0100
0010
0100
1000
0000
1000
0100
1000
0000
1000
,  // measure 53
0010
0000
0100
0000
0001
1000
0100
1000
0001
0100
0000
0100
0010
1000
0000
1000
,  // measure 54
0010
0000
1000
0000
0100
0010
0001
0010
0100
1000
0000
1000
0001
0010
0000
0010
,  // measure 55
0001
0000
0100
0000
0010
1000
0010
1000
0001
0100
0000
0100
0010
1000
0000
1000
,  // measure 56
0010
0000
0100
0000
0001
0010
0100
1000
0001
1000
0000
1000
0001
1000
0000
0001
;

//---------------dance-single - DDRDAIKENKAI----------------
#NOTES:
     dance-single:
     DDRDAIKENKAI:
     Medium:
     6:
     0.344,0.365,0.074,0.090,0.156: // measure 1
0000
0000
0000
0000
,  // measure 2
0000
0000
0000
0000
,  // measure 3
0000
0000
0000
0000
,  // measure 4
0000
0000
0000
0000
,  // measure 5
1000
0001
1000
0001
0100
0000
0100
0000
,  // measure 6
0010
1000
0010
1000
0100
0000
0100
0000
,  // measure 7
1000
0001
1000
0000
0001
1000
0001
0000
,  // measure 8
0100
0010
0100
0001
1000
0001
0001
0000
,  // measure 9
1000
0000
0000
0100
0000
0000
1000
0000
0000
0010
0000
0000
0100
0000
0000
0000
,  // measure 10
0001
0000
0000
0010
0000
0000
0001
0000
0000
0100
0000
0000
0010
0000
0000
0000
,  // measure 11
1000
0000
0000
0100
0000
0000
0010
0000
0000
0001
0000
0000
0100
0000
0000
0000
,  // measure 12
0001
0000
0000
0010
0000
0000
0100
0000
0000
1000
0000
0000
0100
0000
0000
0000
,  // measure 13
1000
0000
0000
0010
0000
0000
0100
0000
0000
0010
0000
0000
1000
0000
0000
0000
,  // measure 14
0001
0000
0000
0100
0000
0000
0010
0000
0000
0100
0000
0000
0001
0000
0000
0000
,  // measure 15
0010
0000
0000
1000
0000
0000
0010
0000
0000
0001
0000
0000
0100
0000
0000
0000
,  // measure 16
0010
0000
0000
0001
0000
0000
0010
0000
0000
1000
0000
0000
0100
0000
0000
0000
,  // measure 17
1000
0001
1000
0000
0100
0000
0100
0000
,  // measure 18
1000
0001
1000
0000
0010
0000
0010
0000
,  // measure 19
0100
0001
0100
0000
0001
0000
0001
0000
,  // measure 20
0010
0100
0010
0000
0001
0000
0001
0000
,  // measure 21
1000
0001
0100
0000
1010
0000
0101
0000
,  // measure 22
0100
0001
1000
0000
1100
0000
0011
0000
,  // measure 23
0010
0001
0010
0000
0110
0000
1100
0000
,  // measure 24
1000
0010
1000
0000
1001
0000
0101
0000
,  // measure 25
0000
0001
0100
0010
2000
0000
3020
0000
,  // measure 26
0030
1000
0100
0010
0002
0000
2003
0000
,  // measure 27
3000
0000
0001
0000
0010
0000
0001
0000
0020
0000
0000
0130
0000
0000
1000
0000
,  // measure 28
0001
0000
0000
0100
0000
0000
0010
0000
0200
0000
0000
0000
0302
0000
0000
0000
,  // measure 29
0003
1000
0100
1000
0200
0000
2300
0000
,  // measure 30
3000
0000
0001
0000
0100
0000
0001
0000
0200
0000
0000
0320
0000
0000
1030
0000
,  // measure 31
0100
0000
0000
0100
0000
0000
0000
0000
0100
0000
0000
0100
0000
0000
0000
0000
,  // measure 32
0010
0000
0000
0010
0000
0000
0000
0000
0001
0000
0000
0000
1001
0000
0000
0000
,  // measure 33
1000
0001
0100
0000
0010
0100
0010
0000
,  // measure 34
1000
0100
0010
0001
,  // measure 35
1000
0010
0100
0000
0010
1000
0010
0000
,  // measure 36
0100
0001
0010
0100
,  // measure 37
1000
0001
1000
0000
0001
1000
0100
0000
,  // measure 38
1000
0001
0100
0010
,  // measure 39
0100
0010
0100
0000
0010
1000
0010
0000
,  // measure 40
0100
0001
0100
0010
1000
0001
0001
0000
,  // measure 41
0100
0000
0000
0001
0000
0000
0010
0000
0000
0100
0000
0000
0010
0000
0000
0000
,  // measure 42
0001
1000
0100
0000
1000
0001
0100
0000
,  // measure 43
0100
0000
0000
0010
0000
0000
1000
0000
0000
0010
0000
0000
1000
0000
0000
0000
,  // measure 44
0100
0010
0001
0000
0010
0001
0100
0000
,  // measure 45
0010
0000
0000
0100
0000
0000
0001
0000
0000
0100
0000
0000
0010
0000
0000
0000
,  // measure 46
1000
0100
1000
0000
0001
0010
0100
0000
,  // measure 47
0010
0000
0000
0001
0000
0000
0100
0000
0000
0010
0000
0000
1000
0000
0100
0000
,  // measure 48
1000
0001
1000
0001
1000
0001
0001
0000
,  // measure 49
0001
0100
0100
0000
0001
0000
0001
0000
,  // measure 50
1000
0100
0100
0000
1000
0000
1000
0000
,  // measure 51
0001
0010
0010
0000
0001
0000
0001
0000
,  // measure 52
1000
0010
0010
0000
1000
0000
1000
0000
,  // measure 53
0010
0000
0000
1000
0000
0000
0100
0000
0000
0001
0000
0000
0010
0000
0000
0000
,  // measure 54
0010
0000
0000
0001
0000
0000
0100
0000
0000
1000
0000
0000
0010
0000
0000
0000
,  // measure 55
0010
0000
0000
1000
0000
0000
0100
0000
0000
0010
0000
0000
0100
0000
0000
0000
,  // measure 56
0010
0000
0000
0001
0000
0000
0100
0000
0000
0010
0000
0000
0100
0000
0000
0000
;

//---------------dance-single - DDRDAIKENKAI----------------
#NOTES:
     dance-single:
     DDRDAIKENKAI:
     Easy:
     3:
     0.253,0.228,0.000,0.131,0.000: // measure 1
0000
0000
0000
0000
,  // measure 2
0000
0000
0000
0000
,  // measure 3
0000
0000
0000
0000
,  // measure 4
0000
0000
0000
0000
,  // measure 5
1000
1000
2000
3000
,  // measure 6
0001
0001
0002
0003
,  // measure 7
0100
0100
0200
0300
,  // measure 8
0010
0010
0020
0030
,  // measure 9
1000
0100
1000
0010
,  // measure 10
0100
0001
0010
0001
,  // measure 11
0100
0010
0100
0001
,  // measure 12
0010
0100
0010
0001
,  // measure 13
1000
0100
1000
0010
,  // measure 14
0100
0001
0010
0001
,  // measure 15
1000
0100
0010
0100
,  // measure 16
1000
0010
0100
0001
,  // measure 17
0000
1000
1000
0000
1000
0000
2000
0000
,  // measure 18
3000
0001
0001
0000
0001
0000
0002
0000
,  // measure 19
0003
0100
0100
0000
0100
0000
0200
0000
,  // measure 20
0300
0010
0010
0000
0010
0000
0020
0000
,  // measure 21
0030
0100
0100
0000
0100
0000
0200
0000
,  // measure 22
0300
0001
0001
0000
0001
0000
0002
0000
,  // measure 23
0003
1000
1000
0000
1000
0000
2000
0000
,  // measure 24
3000
0010
0010
0000
0010
0000
0020
0000
,  // measure 25
0030
1000
1000
0000
0000
0001
0001
0000
,  // measure 26
0000
0100
0100
0000
0010
0000
1000
0000
,  // measure 27
0000
0010
0010
0000
0000
0100
0100
0000
,  // measure 28
0000
0001
0001
0000
0010
0000
0001
0000
,  // measure 29
0000
0100
0100
0000
0000
0010
0010
0000
,  // measure 30
0000
0100
0100
0000
0001
0000
1000
0000
,  // measure 31
0200
0000
0000
0300
0000
0000
0000
0000
2000
0000
0000
3000
0000
0000
0000
0000
,  // measure 32
0002
0000
0000
0003
0000
0000
0000
0000
0200
0000
0000
0000
0300
0000
0000
0000
,  // measure 33
0010
1000
0100
1000
,  // measure 34
0010
0100
0001
1000
,  // measure 35
0001
1000
0010
1000
,  // measure 36
0100
0010
0001
1000
,  // measure 37
0001
1000
0100
1000
,  // measure 38
0010
0100
0001
1000
,  // measure 39
0001
0010
0100
1000
,  // measure 40
0001
0001
0001
0001
,  // measure 41
1000
0100
0010
0001
,  // measure 42
0100
0010
1000
0001
,  // measure 43
1000
0010
0100
0001
,  // measure 44
0010
0100
1000
0001
,  // measure 45
1000
0010
1000
0100
,  // measure 46
0010
0100
1000
0001
,  // measure 47
0100
0010
1000
0100
,  // measure 48
1000
1000
1000
1000
,  // measure 49
0000
0001
0001
0000
0001
0000
0100
0000
,  // measure 50
0000
0010
0010
0000
0010
0000
0100
0000
,  // measure 51
0000
0001
0001
0000
0001
0000
1000
0000
,  // measure 52
0000
0100
0100
0000
0100
0000
1000
0000
,  // measure 53
0000
1000
1000
0000
1000
0000
0001
0000
,  // measure 54
0000
0100
0100
0000
0100
0000
0010
0000
,  // measure 55
0000
1000
1000
0000
0001
0000
1000
0000
,  // measure 56
0000
0010
0010
0000
0100
0000
0010
0000
;
