#TITLE:Wait & See;
#SUBTITLE:~リスク~;
#ARTIST:宇多田ヒカル;
#TITLETRANSLIT:;
#SUBTITLETRANSLIT:~Risk~;
#ARTISTTRANSLIT:Utada Hikaru;
#GENRE:R&B;
#CREDIT:;
#MENUCOLOR:;
#NEWMETERSYSTEM:NO;
#BANNER:Wait & See ~Risk~.png;
#BACKGROUND:Wait & See ~Risk~-bg.png ;
#LYRICSPATH:Wait & See ~Risk~.lrc;
#CDTITLE:CDTitle.png;
#MUSIC:Wait & See ~Risk~.ogg;
#OFFSET:0.000;
#SAMPLESTART:51.330;
#SAMPLELENGTH:17.120;
#SELECTABLE:YES;
#LISTSORT:;
#BPMS:0.000=112.015;
#STOPS:;
#BGCHANGES:;
#ATTACKS:;

//---------------dance-single - DDRDAIKENKAI----------------
#NOTES:
     dance-single:
     DDRDAIKENKAI:
     Hard:
     9:
     0.636,0.755,0.262,0.352,0.528: // measure 1
0000
0000
0000
0000
,  // measure 2
0000
0000
0000
0000
,  // measure 3
0000
0000
0000
0000
,  // measure 4
0200
0000
0000
0320
0000
0000
0030
0000
,  // measure 5
1000
0000
0001
0100
0010
0110
1010
0000
,  // measure 6
1000
0000
0001
1000
0100
0110
0011
0000
,  // measure 7
0001
0000
1000
0001
0100
0110
0101
0000
,  // measure 8
0100
0000
0001
1000
0010
1010
1001
0000
,  // measure 9
2000
0000
0000
0000
3001
0000
0000
0000
1000
0100
1000
0100
1000
0000
0010
0000
,  // measure 10
0200
0000
0000
0000
0310
0000
0000
0000
0100
0001
0100
0001
0010
0000
0001
0000
,  // measure 11
0001
0000
0000
0010
0001
0100
0010
2000
,  // measure 12
0000
3100
1000
0020
0000
0130
0100
0000
,  // measure 13
1010
0000
0000
0000
0101
0000
0000
0000
1000
0001
1000
0001
1000
0000
0010
0000
,  // measure 14
0110
0000
0000
0000
0101
0000
0000
0000
0001
0010
0001
0010
0100
0000
1000
0000
,  // measure 15
1010
0000
0100
0010
1000
0100
0001
0001
,  // measure 16
0100
0000
0010
0000
0001
0000
0100
0000
1000
0000
0100
0001
0000
1000
0000
0001
,  // measure 17
1000
0000
0100
0000
0010
0000
0100
0000
1000
0000
0100
0010
0000
0100
0000
1000
,  // measure 18
0000
0010
0000
0100
0000
0001
0000
0010
0000
0100
0000
2000
0000
0000
0000
3001
,  // measure 19
0100
0010
0110
0000
0010
1000
1001
0001
,  // measure 20
1000
0000
0100
0010
0100
0000
0010
0000
0001
0000
0010
0000
0100
0000
1000
0000
,  // measure 21
0010
1000
0100
0001
0100
0010
0000
0002
,  // measure 22
0000
0000
0103
0000
0010
0000
1000
0000
0200
0000
0000
1300
0000
0000
0010
0000
,  // measure 23
1000
0100
1000
0100
0001
0100
0001
0100
,  // measure 24
1000
0100
0010
0001
0010
0100
1000
0001
,  // measure 25
1002
0000
1003
0100
1000
0100
2000
0000
3001
0010
0001
0010
0002
0000
0000
0000
,  // measure 26
0103
0000
0010
1000
0010
1000
0020
0000
0130
0010
0100
0010
0200
0000
0301
0000
,  // measure 27
1000
0001
0100
1000
0100
0010
1000
0100
,  // measure 28
0001
0000
1000
0000
0010
0000
0001
0000
1000
0000
0100
0000
0010
0001
0010
0002
,  // measure 29
0000
0000
1003
0100
0000
0100
0010
0200
0000
0000
0310
0000
0010
0001
0100
0010
,  // measure 30
1000
0000
0010
0100
0000
0001
0000
2000
0000
0000
3001
0100
0001
0000
0100
0000
,  // measure 31
0110
0000
1010
0010
0001
0010
1000
0001
,  // measure 32
1000
0000
0100
0000
0010
0000
0100
0000
1000
0000
0001
1000
0000
0001
0000
1000
,  // measure 33
0002
0000
0103
0010
1000
0010
0200
0000
0310
1000
0001
1000
0020
0000
0000
0000
,  // measure 34
1030
0000
0100
0010
0001
0010
0200
0000
0310
0001
1000
0001
0020
0000
0000
0000
,  // measure 35
0031
0100
0010
0001
0010
1000
0100
0010
,  // measure 36
1000
0000
0010
0000
0001
0000
1000
0000
1010
0000
0000
0000
0001
0100
0001
1000
,  // measure 37
0000
0100
0000
0010
0000
0100
0000
2000
0000
0000
3010
0000
0100
0000
0001
0000
,  // measure 38
0100
0000
0010
1000
0000
0001
0000
2000
0000
0000
3100
0010
0100
0000
0010
0000
,  // measure 39
0001
0100
0101
0000
0001
1000
1100
0100
,  // measure 40
0010
0100
1000
0010
0001
0010
0110
0010
,  // measure 41
1002
0000
1003
0010
0100
0010
0100
0001
1000
0100
1000
0100
0010
0001
0010
0100
,  // measure 42
0010
0000
0010
0001
0010
0001
0100
0010
1000
0100
1000
0100
0010
0001
1000
0001
,  // measure 43
1000
0000
0001
1000
0010
1000
0001
0100
0001
0010
0001
0010
0100
1000
0010
1000
,  // measure 44
0010
0000
0010
0100
0010
0100
0001
0010
0001
0100
0001
0100
0010
1000
0100
1000
,  // measure 45
0002
0000
1003
0100
1000
0000
1000
0100
1000
0000
1000
0100
0000
0010
0001
0000
,  // measure 46
1001
0000
0001
0100
0000
0010
1000
0000
0001
0000
1000
0010
0100
0000
0001
0000
,  // measure 47
1001
0000
1000
0010
1000
0100
2000
0000
3010
0100
0010
1000
0020
0000
0130
0001
,  // measure 48
0200
0000
0301
0010
0001
0100
0002
0000
0103
0010
0100
0001
0200
0000
0301
1000
,  // measure 49
0002
0000
1003
0100
1000
0000
0010
0000
0100
0000
0110
0000
0101
0000
0100
0000
,  // measure 50
0002
0000
0013
0100
0010
0000
0010
0001
0020
0000
0032
0000
2003
0000
3000
0000
,  // measure 51
1001
0000
0001
0100
0001
0010
0002
0000
0103
0010
0100
0001
0200
0000
0310
1000
,  // measure 52
0020
0000
1030
0100
1000
0010
2000
0000
3010
0100
0010
1000
0020
0000
1030
0001
,  // measure 53
1000
0000
0001
1000
0001
0000
0100
0000
0010
0000
0110
0000
1010
0000
1000
0000
,  // measure 54
0010
0000
1000
0100
0010
0000
0001
0000
0100
0000
0110
0000
0010
1000
0001
0000
,  // measure 55
2002
0000
0000
0000
,  // measure 56
3003
0000
0000
0000
0000
0000
0000
0000
0000
0000
0000
0000
0000
0000
0000
0000
0000
0000
0000
0000
0000
0000
0000
0000
0000
0000
0000
0000
0000
0000
0000
0000
0000
0000
0000
0000
0000
1000
0000
0000
0000
0100
0000
0000
0000
1000
0000
0000
0000
0100
0000
0000
0000
0000
1000
0000
0000
0000
0000
0000
0000
0000
0000
0000
;

//---------------dance-single - DDRDAIKENKAI----------------
#NOTES:
     dance-single:
     DDRDAIKENKAI:
     Medium:
     5:
     0.373,0.383,0.066,0.352,0.000: // measure 1
0000
0000
0000
0000
,  // measure 2
0000
0000
0000
0000
,  // measure 3
0000
0000
0000
0000
,  // measure 4
0000
0000
0000
0000
,  // measure 5
2001
0000
0010
0000
0100
0100
3100
0000
,  // measure 6
0002
0000
0010
0000
0100
0100
0103
0000
,  // measure 7
0020
0000
1000
0000
0100
0100
0130
0000
,  // measure 8
0002
0000
0100
0000
0010
0010
0013
0000
,  // measure 9
0001
0000
1000
0000
0100
0100
0100
1000
,  // measure 10
0001
0000
1000
0000
0010
0010
0010
1000
,  // measure 11
0002
0000
0003
1000
0100
0000
0100
1000
,  // measure 12
0000
1000
0000
0001
0000
0100
0010
0000
,  // measure 13
0110
0000
1000
0000
0100
0010
0001
0001
,  // measure 14
0100
0000
0010
0000
1000
0100
0010
0010
,  // measure 15
0100
0000
0000
1000
0010
0010
0100
0000
,  // measure 16
0001
0001
1000
1000
0100
0010
0001
0000
,  // measure 17
2002
0000
3003
0000
0010
0100
0010
0000
,  // measure 18
0010
1000
0010
0000
0010
0100
0001
0000
,  // measure 19
2000
3001
0002
1003
,  // measure 20
0020
0000
2030
0000
3100
0010
0100
0100
,  // measure 21
2000
0000
3001
0000
0100
0010
0000
2000
,  // measure 22
0000
0001
3002
0000
0203
0000
0310
0000
,  // measure 23
2000
0000
3001
0000
0001
1000
0001
0000
,  // measure 24
0001
1000
0001
1000
0010
0100
0010
0010
,  // measure 25
0200
0000
0301
0000
0001
1000
0100
0000
,  // measure 26
0010
0010
0001
1000
0000
1001
0000
0000
,  // measure 27
1000
0100
1000
0000
0010
0100
0010
0000
,  // measure 28
0100
0001
0100
0100
0001
0000
0001
1000
,  // measure 29
0020
0000
2030
0000
3001
1000
0100
0010
,  // measure 30
0002
0000
2003
0000
3010
0100
0010
0100
,  // measure 31
0001
0000
0001
0000
0001
1000
0100
0000
,  // measure 32
0010
0001
0010
0001
0200
0000
0300
0000
,  // measure 33
0110
0000
1000
0000
0010
0100
0010
0000
,  // measure 34
2000
0000
0100
0200
0000
0000
3300
0000
,  // measure 35
1000
0100
1000
0000
0010
0100
0010
0000
,  // measure 36
1000
0001
1000
0001
0100
0000
0100
0001
,  // measure 37
0200
0000
0302
0000
1003
0100
0010
0000
,  // measure 38
0200
0000
2300
0000
3010
0100
0001
0000
,  // measure 39
0010
0001
0010
0000
0001
0100
0010
0000
,  // measure 40
1000
0100
1000
1000
0010
0000
0010
1000
,  // measure 41
2000
0000
3001
0000
1000
0100
1000
1000
,  // measure 42
0002
0000
1003
0000
0001
0100
0001
0000
,  // measure 43
0200
0000
0310
0000
1000
0100
0010
0000
,  // measure 44
0001
0000
0100
0000
0010
1000
0200
0000
,  // measure 45
2000
0000
0000
3300
,  // measure 46
0020
0000
0200
0330
,  // measure 47
0120
0000
0130
0200
0000
0010
0320
0000
,  // measure 48
1030
0100
1000
0000
0001
0010
0001
0000
,  // measure 49
0200
0000
0310
0000
1000
0100
1000
0000
,  // measure 50
0010
0100
0010
0010
1000
0001
1000
0000
,  // measure 51
1002
0000
1003
0000
0001
0010
0100
0000
,  // measure 52
1000
0010
1000
0010
0000
0100
0100
0002
,  // measure 53
0000
0010
0013
0000
0001
0100
0001
0000
,  // measure 54
1000
1000
0001
0100
0010
1000
0001
0000
,  // measure 55
2002
0000
0000
0000
,  // measure 56
3003
0000
0000
0000
;

//---------------dance-single - DDRDAIKENKAI----------------
#NOTES:
     dance-single:
     DDRDAIKENKAI:
     Easy:
     3:
     0.242,0.338,0.066,0.246,0.000: // measure 1
0000
0000
0000
0000
,  // measure 2
0000
0000
0000
0000
,  // measure 3
0000
0000
0000
0000
,  // measure 4
0000
0000
0000
0000
,  // measure 5
1000
1000
0001
0001
,  // measure 6
0000
1000
0100
1000
,  // measure 7
0001
0001
1000
1000
,  // measure 8
0000
0001
0100
0001
,  // measure 9
0100
0100
0010
0010
,  // measure 10
1000
1000
0001
0001
,  // measure 11
1000
0000
0001
0000
,  // measure 12
0100
0000
0010
0010
,  // measure 13
0100
0100
0010
0010
,  // measure 14
1000
1000
0001
0001
,  // measure 15
1000
0000
0001
0001
,  // measure 16
0010
0001
0100
0010
,  // measure 17
1000
0000
0100
0000
,  // measure 18
0010
0000
0001
0001
,  // measure 19
2000
3000
0002
0003
,  // measure 20
0200
0300
0010
0010
,  // measure 21
0200
0302
2003
3100
,  // measure 22
0020
0032
2003
3010
,  // measure 23
0200
0010
0010
0310
,  // measure 24
0010
1000
0001
1001
,  // measure 25
2002
3003
0001
1000
,  // measure 26
0100
0010
0002
0003
,  // measure 27
1000
1000
0001
0001
,  // measure 28
0100
0010
1000
0001
,  // measure 29
0001
1000
0100
0010
,  // measure 30
0100
1000
0010
0100
,  // measure 31
0010
0000
0010
1000
,  // measure 32
0001
0010
0001
1000
,  // measure 33
2002
3003
0001
1000
,  // measure 34
0010
0010
0020
0030
,  // measure 35
0100
0001
0010
0100
,  // measure 36
1000
0001
0100
0100
,  // measure 37
0010
0100
0010
1000
,  // measure 38
0001
1000
0100
0010
,  // measure 39
0002
0003
1000
1000
,  // measure 40
0001
0100
0010
0110
,  // measure 41
0220
0330
1000
1000
,  // measure 42
0000
0001
1000
1000
,  // measure 43
2002
3003
0010
0010
,  // measure 44
0000
0001
1000
1000
,  // measure 45
2002
0000
0000
3000
,  // measure 46
0200
0000
0000
0303
,  // measure 47
0010
0100
0010
0100
,  // measure 48
0001
1000
0001
1000
,  // measure 49
0200
0300
0020
0030
,  // measure 50
0001
1000
0100
0010
,  // measure 51
0001
1000
0001
1000
,  // measure 52
0010
0100
0010
0100
,  // measure 53
0020
0030
2000
3000
,  // measure 54
0001
0010
0100
1000
,  // measure 55
2002
0000
0000
0000
,  // measure 56
3003
0000
0000
0000
;
