#TITLE:Tokyo NIGHTS;
#SUBTITLE:;
#ARTIST:宇多田ヒカル;
#TITLETRANSLIT:;
#SUBTITLETRANSLIT:;
#ARTISTTRANSLIT:Utada Hikaru;
#GENRE:J-POP;
#CREDIT:;
#MENUCOLOR:;
#NEWMETERSYSTEM:NO;
#BANNER:Tokyo NIGHTS.png;
#BACKGROUND:Tokyo NIGHTS-bg.png;
#LYRICSPATH:Tokyo NIGHTS.lrc;
#CDTITLE:;
#MUSIC:Tokyo NIGHTS.ogg;
#OFFSET:0.000;
#SAMPLESTART:41.740;
#SAMPLELENGTH:16.740;
#SELECTABLE:YES;
#LISTSORT:;
#BPMS:0.000=115.000;
#STOPS:;
#BGCHANGES:;
#ATTACKS:;

//---------------dance-single - DDRDAIKENKAI----------------
#NOTES:
     dance-single:
     DDRDAIKENKAI:
     Challenge:
     10:
     0.718,0.681,0.240,0.092,0.922: // measure 1
0000
0000
0000
0000
,  // measure 2
0000
0000
0000
0000
,  // measure 3
0000
0000
0000
0000
,  // measure 4
0000
0000
0000
0000
0000
0000
0000
0000
0000
0000
0000
0000
0000
0000
0000
0000
0000
0000
0000
0000
0000
0000
0000
0000
0000
0000
0000
0000
0000
0000
0000
0000
0000
0000
0000
0000
0000
0000
0000
0000
0000
0000
0000
0000
0000
0000
0000
1000
0002
0000
0000
0000
0000
0000
0000
0000
0003
0000
0000
0000
0000
0000
0000
0000
,  // measure 5
1000
0000
0000
0000
0000
0000
0000
0000
0001
0000
0000
0000
0000
0000
0000
0000
0101
0000
0000
0000
0000
0000
0000
0000
0100
0000
0000
0000
0000
0000
0000
0000
0110
0000
0000
0000
0000
0000
0000
0000
0000
0000
0000
0000
0000
0000
0000
0010
1000
0000
0000
0000
0000
0000
0000
0000
0100
0000
0000
0000
0000
0000
0000
0000
,  // measure 6
0001
0000
0000
0000
0000
0000
0000
0000
0100
0000
0000
0000
0000
0000
0000
0000
1100
0000
0000
0000
0000
0000
0000
0000
1000
0000
0000
0000
0000
0000
0000
0000
1010
0000
0000
0000
0000
0000
0000
0000
0000
0000
0000
0000
0000
0000
0000
0010
0100
0000
0000
0000
0000
0000
0000
0000
0001
0000
0000
0000
0000
0000
0000
0000
,  // measure 7
1000
0000
0000
0000
0000
0000
0000
0000
0100
0000
0000
0000
0000
0000
0000
0100
0010
0000
0000
0000
0000
0000
0000
0000
0010
0000
0000
0000
0000
0000
0000
0000
0011
0000
0000
0000
0000
0000
0000
0000
0000
0000
0000
0000
0000
0000
0000
0001
0100
0000
0000
0000
0000
0000
0000
0000
0010
0000
0000
0000
0000
0000
0000
1000
,  // measure 8
0020
0000
1000
0000
1030
0000
0001
0000
0101
0000
0000
0110
0000
0000
1010
0000
,  // measure 9
0100
0000
0000
0000
0000
0000
0000
0000
0001
0000
0000
0000
0000
0000
0000
0000
1001
0000
0000
0000
0000
0000
0000
0000
0100
0000
0000
0000
0000
0000
0000
0000
1100
0000
0000
0000
0000
0000
0000
0000
0000
0000
0000
0000
0000
0000
0000
1000
0001
0000
0000
0000
0000
0000
0000
0000
0100
0000
0000
0000
0000
0000
0000
0000
,  // measure 10
0010
0000
0000
0000
0000
0000
0000
0000
0100
0000
0000
0000
0000
0000
0000
0000
0101
0000
0000
0000
0000
0000
0000
0000
0001
0000
0000
0000
0000
0000
0000
0000
1001
0000
0000
0000
0000
0000
0000
0000
0000
0000
0000
0000
0000
0000
0000
0001
1000
0000
0000
0000
0000
0000
0000
0000
0100
0000
0000
0000
0000
0000
0000
0000
,  // measure 11
0110
0000
0000
0000
0000
0000
0000
0000
0000
0000
0000
0000
0000
0000
0000
0010
0001
0000
0000
0000
0000
0000
0000
0000
0001
0000
0000
0000
0000
0000
0000
0000
0101
0000
0000
0000
0000
0000
0000
0000
0000
0000
0000
0000
0000
0000
0000
0001
0100
0000
0000
0000
0000
0000
0000
0000
0010
0000
0000
0000
0000
0000
0000
0000
,  // measure 12
2000
0000
0000
3020
0000
0000
0130
0000
0001
0000
1000
0000
0001
0000
0001
0000
,  // measure 13
1000
0000
0000
0000
0000
0000
0000
0000
0000
0000
0000
0000
0000
0000
0000
0000
0000
0000
0000
0000
0000
0000
0000
0000
0100
0000
0000
0000
0000
0000
0000
0000
0000
0000
0000
0000
0000
0000
0000
0000
0000
0000
0000
0000
0000
0000
0000
0000
0001
0000
0000
0000
0000
0000
0000
0000
0000
0000
0000
0000
0000
0000
0000
0000
0000
0000
0000
0000
0000
0000
0000
0000
0100
0000
0000
0000
0000
0000
0000
0000
0000
0000
0000
0000
0000
0000
0000
0000
0000
0000
0000
0000
0000
0000
0000
0000
1000
0000
0000
0000
0000
0000
0000
0000
0000
0000
0000
0000
0000
0000
0000
0000
0000
0000
0000
0000
0000
0000
0000
0000
0100
0000
0000
0000
0000
0000
0000
0000
0000
0000
0000
0000
0000
0000
0000
0000
0000
0000
0000
0000
0000
0000
0000
0000
0010
0000
0000
0000
0000
0000
0001
0000
0000
0000
0000
0000
0010
0000
0000
0000
0000
0000
0001
0000
0000
0000
0000
0000
0010
0000
0000
0000
0000
0000
0000
0000
0001
0000
0000
0000
0000
0000
0000
0000
0010
0000
0000
0000
0000
0000
0000
0000
,  // measure 14
0001
1000
0010
0100
0100
0001
0010
0100
,  // measure 15
1000
0000
0000
0000
0000
0000
0000
0000
0000
0000
0000
0000
0000
0000
0000
0000
0000
0000
0000
0000
0000
0000
0000
0000
0010
0000
0000
0000
0000
0000
0000
0000
0000
0000
0000
0000
0000
0000
0000
0000
0000
0000
0000
0000
0000
0000
0000
0000
0001
0000
0000
0000
0000
0000
0000
0000
0000
0000
0000
0000
0000
0000
0000
0000
0000
0000
0000
0000
0000
0000
0000
0000
0010
0000
0000
0000
0000
0000
0000
0000
0000
0000
0000
0000
0000
0000
0000
0000
0000
0000
0000
0000
0000
0000
0000
0000
1000
0000
0000
0000
0000
0000
0000
0000
0000
0000
0000
0000
0000
0000
0000
0000
0000
0000
0000
0000
0000
0000
0000
0000
0100
0000
0000
0000
0000
0000
0000
0000
0000
0000
0000
0000
0000
0000
0000
0000
0000
0000
0000
0000
0000
0000
0000
0000
0010
0000
0000
0000
0000
0000
0100
0000
0000
0000
0000
0000
0010
0000
0000
0000
0000
0000
0100
0000
0000
0000
0000
0000
0010
0000
0000
0000
0000
0000
0000
0000
0100
0000
0000
0000
0000
0000
0000
0000
0010
0000
0000
0000
0000
0000
0000
0000
,  // measure 16
0001
0100
0010
1000
1100
1001
0101
1001
,  // measure 17
1000
0000
0000
0000
0000
0000
0000
0000
0000
0000
0000
0000
0000
0000
0000
0000
0000
0000
0000
0000
0000
0000
0000
0000
0010
0000
0000
0000
0000
0000
0000
0000
0000
0000
0000
0000
0000
0000
0000
0000
0000
0000
0000
0000
0000
0000
0000
0000
0100
0000
0000
0000
0000
0000
0000
0000
0000
0000
0000
0000
0000
0000
0000
0000
0000
0000
0000
0000
0000
0000
0000
0000
0001
0000
0000
0000
0000
0000
0000
0000
0000
0000
0000
0000
0000
0000
0000
0000
0000
0000
0000
0000
0000
0000
0000
0000
0010
0000
0000
0000
0000
0000
0000
0000
0000
0000
0000
0000
0000
0000
0000
0000
0000
0000
0000
0000
0000
0000
0000
0000
0100
0000
0000
0000
0000
0000
0000
0000
0000
0000
0000
0000
0000
0000
0000
0000
0000
0000
0000
0000
0000
0000
0000
0000
1000
0000
0000
0000
0000
0000
0001
0000
0000
0000
0000
0000
1000
0000
0000
0000
0000
0000
0001
0000
0000
0000
0000
0000
1000
0000
0000
0000
0000
0000
0000
0000
0001
0000
0000
0000
0000
0000
0000
0000
1000
0000
0000
0000
0000
0000
0000
0000
,  // measure 18
0001
1000
0100
0010
0001
0010
0001
0100
,  // measure 19
0010
1000
0100
0010
0001
0010
0100
1000
,  // measure 20
1001
0000
0000
0000
0000
0000
0000
0000
0001
0000
0000
0000
0000
0000
0000
0000
0100
0000
0000
0000
0000
0000
0000
0000
0110
0000
0000
0000
0000
0000
0000
0000
0010
0000
0000
0000
0000
1000
0000
0000
0100
0000
0000
0000
0000
1000
0000
0000
0010
0000
0000
0000
0000
1000
0000
0000
0001
0000
0000
0000
0000
0000
0000
0000
,  // measure 21
1000
0100
1000
0010
1000
0100
1000
0010
0100
0001
0010
0001
2000
0000
0000
0000
,  // measure 22
3001
0010
0100
1000
0010
0100
0001
0010
0001
0100
0001
0100
0020
0000
1000
0000
,  // measure 23
1030
0100
1000
0010
0100
0010
1000
0100
1000
0001
0010
0001
2000
0000
0000
0000
,  // measure 24
3001
0010
0001
0010
0100
1000
0100
0010
0100
1000
0100
1000
0002
0000
1003
0000
,  // measure 25
0010
0100
0010
0100
0010
1000
0010
1000
0100
1000
0010
0100
0001
0000
0010
0000
,  // measure 26
1000
0010
0001
0010
0100
0010
0001
0010
0100
1000
0010
0100
0001
0000
0101
0000
,  // measure 27
0001
1000
0100
1000
0010
0100
0001
0010
0100
1000
0010
0100
0001
0000
1001
0000
,  // measure 28
0001
0000
0000
0000
1000
0000
0000
0000
0100
0000
0000
0000
1000
0000
0000
0000
0010
0000
0000
0000
0100
0000
0000
0000
0001
0000
0000
0000
0010
0000
0000
0000
0001
0000
0000
0000
0000
0000
0000
0000
1000
0000
0000
0000
0000
0001
0000
0000
0100
0000
0000
0000
0000
0000
0000
0000
0110
0000
0000
0000
0000
0000
0000
0000
,  // measure 29
0001
1000
0001
1000
0010
1000
0100
0010
0001
1000
0001
1000
0010
1000
0100
0010
,  // measure 30
0001
0100
0010
0100
0001
0100
0010
0100
0001
1000
0010
1000
0001
1000
0010
1000
,  // measure 31
0010
0100
0010
0100
0010
1000
0001
1000
0010
0100
0010
0100
0010
1000
0001
1000
,  // measure 32
0010
1000
0100
1000
0010
1000
0100
1000
0010
0001
0010
1000
0010
0001
0010
1000
,  // measure 33
0100
0010
0100
0010
0100
1000
0010
0100
0001
0010
0001
0010
0001
0100
0010
1000
,  // measure 34
0100
0010
0100
1000
0100
0010
0100
1000
0001
0010
0100
0010
0001
0010
0100
0010
,  // measure 35
0001
0100
0001
0100
0010
1000
0100
1000
0010
0100
0010
0100
0010
1000
0100
1000
,  // measure 36
0010
0100
0010
0100
0010
0100
0010
0100
0001
1000
0001
1000
0001
1000
0001
1000
,  // measure 37
0001
0010
0100
0010
0001
0010
0100
0010
0001
1000
0100
1000
0010
1000
0100
1000
,  // measure 38
0010
0100
0001
0100
0010
0100
0001
0100
0010
1000
0100
1000
0010
1000
0100
1000
,  // measure 39
0010
1000
0001
1000
0010
1000
0001
1000
0100
0010
0100
1000
0100
0010
0100
1000
,  // measure 40
0001
0100
0010
0100
0001
0100
0010
0100
0010
1000
0010
0001
0010
1000
0010
0001
,  // measure 41
0010
1000
0100
1000
0010
1000
0100
1000
0100
0010
0100
1000
0100
0010
0100
1000
,  // measure 42
0100
0001
0100
0010
0100
0001
0100
0010
0001
0010
0100
0010
0001
0010
0100
0010
,  // measure 43
0001
1000
0001
0100
0001
1000
0001
0100
0010
1000
0010
0100
0010
1000
0010
0100
,  // measure 44
0110
0000
0000
0000
0000
0000
0000
0000
0100
0000
0000
0000
0000
0000
0000
0000
0001
0000
0000
0000
0000
0000
0000
0000
1001
0000
0000
0000
0000
0000
0000
0000
1000
0000
0000
0000
0000
0001
0000
0000
0010
0000
0000
0000
0000
0100
0000
0000
0010
0000
0000
0000
0000
0001
0000
0000
1000
0000
0000
0000
0000
0000
0000
0000
,  // measure 45
2002
0000
0000
3003
;

//---------------dance-single - DDRDAIKENKAI----------------
#NOTES:
     dance-single:
     DDRDAIKENKAI:
     Medium:
     5:
     0.362,0.351,0.120,0.332,0.041:
0000
0000
0000
0000
,
0000
0000
0000
0000
,
0000
0000
0000
0000
,
0000
0000
0000
0000
,
0000
0000
0000
0000
0001
0000
1000
0000
0100
0000
0000
0010
0000
0000
0100
0000
,
1000
0000
0000
0000
0001
0000
0100
0000
0010
0000
0000
1000
0000
0000
0001
0000
,
0100
0000
0000
0000
0001
0000
0010
0000
0001
0000
0000
0100
0000
0000
0010
0000
,
1000
0000
0000
1000
0000
0000
1000
0000
0001
0000
0000
0001
0000
0000
0001
0000
,
1000
0000
0000
0000
0001
0000
1000
0000
0100
0000
0000
0010
0000
0000
0100
0000
,
1000
0000
0000
0000
0001
0000
0100
0000
0010
0000
0000
1000
0000
0000
0010
0000
,
0100
0000
0000
0000
0001
0000
0000
0000
0010
0000
0000
0010
0000
0000
0010
0000
,
0100
0000
0000
0100
0000
0000
0100
0000
0110
0000
0000
0000
1001
0000
0000
0000
,
0001
0100
0010
0000
0010
1000
0100
0000
,
0020
0000
0031
2000
0000
3001
0200
0000
,
0310
1000
0010
0000
0010
0100
0001
0000
,
2000
3002
0023
0031
,
1000
0001
0100
0000
0010
1000
0010
0000
,
0100
0000
0100
0001
0000
0001
0010
0100
,
1000
0000
1000
0010
0000
0010
0100
0000
,
0110
0000
1001
0000
1000
0001
0100
0010
,
0200
0000
0010
0320
0000
1000
2030
0000
,
3002
0000
2003
0000
3100
0010
0001
0001
,
0200
0000
0010
0320
0000
1000
2030
0000
,
3002
0000
2003
0000
3010
0100
0001
0001
,
2000
0000
0000
0000
0100
0000
3200
0000
0000
0000
0320
0000
0000
0030
0001
0000
,
2000
0000
0001
3001
0000
0100
0000
0020
,
0000
1030
0100
2000
0000
3010
0000
0100
,
0110
0000
1001
0000
0001
1000
0100
0010
,
0001
0001
0001
0100
0010
0000
0010
0000
,
1000
1000
1000
0010
0100
0000
0100
0000
,
0001
0001
0001
1000
0001
0000
0001
0000
,
1000
1000
1000
0001
1000
0000
0001
0000
,
1001
0000
0101
0000
0001
0010
0100
0000
,
0010
0100
2000
0000
3001
0000
0100
0010
,
1000
1100
0110
0011
,
1002
0000
0103
0000
0001
1000
0100
1000
,
0020
0000
0130
0001
0010
0100
2000
0000
,
3002
0000
1003
0100
0010
0001
0200
0000
,
0310
1000
0010
0000
0010
0100
0001
0000
,
0001
0010
0001
0000
0001
1000
0100
0010
,
0200
0000
1000
2300
0000
0010
3020
0000
,
0100
0230
0000
0301
0001
1000
0100
0000
,
0020
0000
0000
0000
0001
0000
0032
0000
0000
0003
1000
0000
0001
0000
0000
0000
,
0100
0010
1000
0100
0010
0001
1000
0000
,
2002
0000
0000
3003
;

//---------------dance-single - DDRDAIKENKAI----------------
#NOTES:
     dance-single:
     DDRDAIKENKAI:
     Easy:
     3:
     0.257,0.309,0.166,0.240,0.000:
0000
0000
0000
0000
,
0000
0000
0000
0000
,
0000
0000
0000
0000
,
0000
0000
0000
0000
,
0000
0000
0001
0000
1000
0000
0100
0100
,
0100
0000
0010
0000
0001
0000
0100
0100
,
0100
0001
1000
0010
,
0220
0330
1001
1001
,
1001
0000
1000
0001
1000
0000
0001
0000
,
0100
0000
0010
0010
0010
0000
0100
0000
,
0002
0013
0020
0130
,
0220
0330
2002
3003
,
0001
1000
0010
0100
,
0001
0000
1000
1000
0000
0100
0100
0000
,
0010
0001
1000
0010
,
0100
0100
0010
0010
,
1000
0001
0100
0010
,
1000
0000
0001
0001
0000
0100
0100
0000
,
0010
0000
1000
1000
0000
0100
0100
0000
,
0110
1001
0001
0001
,
1000
0010
0100
0001
,
2002
0000
3003
0001
,
0001
1000
0010
0100
,
0220
0000
0330
0100
,
0100
0001
0010
0100
,
1000
0010
0100
0001
,
1000
0100
0010
0001
,
0100
0100
0010
0010
,
0220
0330
0010
1000
,
2002
3003
0001
1000
,
2002
3003
0001
0100
,
0220
0330
0010
1000
,
0100
0100
1000
1000
,
0001
0100
0010
1000
,
0001
1001
1000
1001
,
0220
0000
0000
0330
,
0010
0100
0001
1000
,
0100
0010
0100
1000
,
0010
0010
0100
0100
,
0001
0001
1000
1000
,
0200
0000
1300
1000
,
0020
0000
0130
0100
,
0001
0001
0010
0010
,
0100
1000
0001
0100
,
0220
0000
0000
0330
;

//---------------dance-single - DDRDAIKENKAI----------------
#NOTES:
     dance-single:
     DDRDAIKENKAI:
     Hard:
     7:
     0.478,0.474,0.267,0.387,0.120:
0000
0000
0000
0000
,
0000
0000
0000
0000
,
0000
0000
0000
0000
,
0000
0000
0000
0000
,
1000
0000
0000
0000
0001
0000
0100
0000
0010
0000
0000
1000
0100
0000
0010
0000
,
0001
0000
0000
0000
1000
0000
0010
0000
0100
0000
0001
0020
0000
0000
0130
0000
,
1000
0000
0000
0000
0001
0000
0100
0000
0020
0000
0000
2030
0000
0000
3001
0000
,
0102
0000
0000
0023
0000
0000
0130
0000
1100
0000
0000
1100
0000
0000
1100
0000
,
1010
0000
0000
0000
0010
0000
0100
0000
0002
0000
0000
1003
0100
0000
0010
0000
,
0001
0000
0000
0000
1000
0000
0001
0000
0100
0000
0010
0200
0000
0000
0301
0000
,
1001
0000
0000
0000
2100
0000
0000
0000
3100
0000
0010
0001
0000
0000
1000
0000
,
0020
0000
0000
0230
0000
0000
0301
0000
0010
0000
1000
0000
0010
0000
1000
0000
,
0010
0001
0100
0010
1000
0100
1000
0010
,
0100
0001
0002
0100
0000
1000
1003
0000
,
1000
0001
0010
0001
0100
0010
1000
0100
,
0020
0001
0032
0000
0203
0010
0320
0000
,
1030
0100
1000
0010
0100
0001
0010
0100
,
1000
0010
0020
1000
0030
1000
0001
0010
,
0001
0100
0200
0001
0300
0001
0010
0100
,
0110
0000
0100
0000
1000
0000
0001
0000
0100
0010
0100
0010
1000
0000
1000
0000
,
2001
0001
3001
0100
0010
1000
1002
0000
,
2003
0001
3001
0010
0001
0100
0210
0010
,
0320
0000
1030
0100
1000
0010
0120
0000
,
0230
0000
0301
0010
0100
1000
2010
0010
,
3020
0000
1030
0001
0100
0010
0100
0001
,
1000
0100
0001
0100
1000
0001
0000
1002
,
1000
1003
0001
0100
0010
2000
0000
3001
,
0010
0000
0100
0000
0010
0000
0100
0000
1000
0000
0001
1000
0001
0000
1001
0000
,
0001
0000
1000
0000
0001
0000
0100
0000
0010
0000
1000
0020
0000
0000
1030
0000
,
0100
0000
0010
0200
0000
0000
1000
0000
1300
0000
0001
0000
0100
0000
0000
0000
,
0010
0000
1000
0000
0001
0000
0100
0000
0010
0000
1000
0020
0000
0000
0130
0002
,
0000
0000
1003
0200
0000
0000
1300
0000
1010
0000
0000
1010
0000
0000
1010
0000
,
1001
0000
0000
0000
0101
0000
0001
0000
0010
0000
0100
2000
0000
0000
3010
0000
,
0100
0000
0001
0200
0000
0000
0310
0000
0010
0000
1000
0000
0100
0000
0010
0000
,
0001
1000
1100
0000
1000
0001
0101
0000
,
0110
0000
0010
0000
1000
0000
0001
0000
0100
0001
0100
0001
0100
0000
0001
0000
,
0201
0000
0000
0301
1000
0000
0100
0000
1000
0000
0010
0000
0100
0000
0010
0000
,
1010
0000
0000
1001
0000
0000
0101
0000
0000
0000
0001
0000
0010
0000
1000
0000
,
0010
0100
0010
0001
0100
0010
0100
0001
,
0010
1000
0010
0001
0010
0100
0010
0001
,
2000
0010
3010
2000
0000
3001
0002
0100
,
0103
0001
0000
0001
0010
0100
1000
0000
,
0010
1000
0100
0020
0000
0001
0031
0000
,
1001
0000
0001
0000
1000
0000
0001
0000
0100
0010
0100
0010
0100
0000
0001
0000
,
2002
0000
0000
3003
;

//---------------dance-single - DDRDAIKENKAI----------------
#NOTES:
     dance-single:
     DDRDAIKENKAI:
     Beginner:
     1:
     0.157,0.203,0.157,0.120,0.000:
0000
0000
0000
0000
,
0000
0000
0000
0000
,
0000
0000
0000
0000
,
0000
0000
0000
0000
,
0100
0100
0100
0000
,
0010
0010
0010
0000
,
1000
0000
0001
0000
,
0200
0000
0300
0000
,
0010
0010
0000
1001
,
0000
0100
0000
1001
,
0000
0010
0000
0110
,
0220
0000
0330
0000
,
1000
1000
0000
0001
,
0000
0100
0000
0010
,
0010
0010
0000
0100
,
0000
0001
0001
0001
,
0000
1000
0000
0100
,
0000
0010
0000
0001
,
0001
0001
0000
1001
,
1001
0000
0110
0000
,
1001
0000
0100
0000
,
1001
0000
0000
0000
,
0110
0000
0001
0000
,
0110
0000
0000
0000
,
1000
1000
1000
0000
,
0001
0001
0001
0000
,
0100
0100
0100
0000
,
0010
0010
0010
0000
,
0220
0000
0330
0000
,
2002
0000
3003
0000
,
0220
0000
0330
0000
,
2002
0000
3003
0000
,
1000
0000
0001
0000
,
0100
0100
0100
0000
,
0010
0010
0010
0000
,
2002
0000
3003
0000
,
1000
0000
0001
0000
,
0100
0000
0010
0000
,
1000
0000
0100
0000
,
0010
0000
0001
0000
,
1000
1000
1000
0000
,
0001
0001
0001
0000
,
0100
0100
0100
0000
,
0010
0010
0010
0000
,
1001
0000
0000
0000
;
