#TITLE:タイム•リミト;
#SUBTITLE:;
#ARTIST:宇多田ヒカル;
#TITLETRANSLIT:Time Limit;
#SUBTITLETRANSLIT:;
#ARTISTTRANSLIT:Utada Hikaru;
#GENRE:R&B;
#CREDIT:;
#MENUCOLOR:;
#NEWMETERSYSTEM:NO;
#BANNER:Time Limit.png;
#BACKGROUND:Time Limit-bg.png;
#LYRICSPATH:Time Limit.lrc;
#CDTITLE:CDTitle.png;
#MUSIC:Time Limit.ogg;
#OFFSET:0.000;
#SAMPLESTART:18.160;
#SAMPLELENGTH:15.600;
#SELECTABLE:YES;
#LISTSORT:;
#BPMS:0.000=105.005;
#STOPS:96.000=1.429
,96.500=0.286
;
#BGCHANGES:-0.190=Time Limit.avi=1.000=0=0=0,
99999=-nosongbg-=1.000=0=0=0 // don't automatically add -songbackground-
;
#ATTACKS:;

//---------------dance-single - DDRDAIKENKAI----------------
#NOTES:
     dance-single:
     DDRDAIKENKAI:
     Hard:
     8:
     0.480,0.518,0.099,0.372,0.504:
0000
0000
0000
0000
,
0000
0000
0000
0000
,
0000
0000
0000
0000
,
0000
0000
0000
0000
,
0010
0000
0000
0000
0000
0000
0000
0000
0000
0000
0000
0000
0000
0000
0000
0000
0000
0000
0000
0000
0000
0000
0000
0000
1000
0000
0000
0000
0000
0000
0000
0000
0000
0000
0000
0000
0000
0000
0000
0000
0100
0000
0000
0000
0000
0000
0000
0000
1000
0000
0000
0000
0000
0000
0000
0000
0000
0000
0000
0000
0000
0000
0000
0000
0000
0000
0000
0000
0000
0000
0000
0000
0001
0000
0000
0000
0000
0000
0000
0000
0000
0000
0000
0000
0000
0000
0000
0000
0010
0000
0000
0000
0000
0000
0000
0000
0001
0000
0000
0000
0000
0000
0000
0000
0000
0000
0000
0000
0000
0000
0000
0000
0000
0000
0000
0000
0000
0000
0000
0000
0100
0000
0000
0000
0000
0000
0000
0000
0000
0000
0000
0000
0000
0000
0000
0000
0000
0000
0000
0000
0000
0000
0000
0000
0100
0000
0000
0000
0000
0000
0000
0000
0000
0000
0000
0000
0000
0000
0000
0010
0000
0000
0000
0000
0000
0000
0000
0000
0000
0000
0000
0000
0000
0000
0000
0000
0000
0000
0000
0000
0000
0000
0000
0000
0000
0000
0000
0000
0000
0000
0000
0000
,
1000
0000
0000
0000
0000
0000
0000
0000
0000
0000
0000
0000
0000
0000
0000
0000
0000
0000
0000
0000
0000
0000
0000
0000
0001
0000
0000
0000
0000
0000
0000
0000
0000
0000
0000
0000
0000
0000
0000
0000
0100
0000
0000
0000
0000
0000
0000
0000
0001
0000
0000
0000
0000
0000
0000
0000
0000
0000
0000
0000
0000
0000
0000
0000
0000
0000
0000
0000
0000
0000
0000
0000
1000
0000
0000
0000
0000
0000
0000
0000
0000
0000
0000
0000
0000
0000
0000
0000
0010
0000
0000
0000
0000
0000
0000
0000
1000
0000
0000
0000
0000
0000
0000
0000
0000
0000
0000
0000
0000
0000
0000
0000
0000
0000
0000
0000
0000
0000
0000
0000
0010
0000
0000
0000
0000
0000
0000
0000
0000
0000
0000
0000
0000
0000
0000
0000
0000
0000
0000
0000
0000
0000
0000
0000
0010
0000
0000
0000
0000
0000
0000
0000
0000
0000
0000
0000
0000
0000
0000
0100
0000
0000
0000
0000
0000
0000
0000
0000
0000
0000
0000
0000
0000
0000
0000
0000
0000
0000
0000
0000
0000
0000
0000
0000
0000
0000
0000
0000
0000
0000
0000
0000
,
0001
0000
0000
0000
0000
0000
0000
0000
0000
0000
0000
0000
0000
0000
0000
0000
0000
0000
0000
0000
0000
0000
0000
0000
0010
0000
0000
0000
0000
0000
0000
0000
0000
0000
0000
0000
0000
0000
0000
0000
0100
0000
0000
0000
0000
0000
0000
0000
1000
0000
0000
0000
0000
0000
0000
0000
0000
0000
0000
0000
0000
0000
0000
0000
0000
0000
0000
0000
0000
0000
0000
0000
0100
0000
0000
0000
0000
0000
0000
0000
0000
0000
0000
0000
0000
0000
0000
0000
1000
0000
0000
0000
0000
0000
0000
0000
0001
0000
0000
0000
0000
0000
0000
0000
0000
0000
0000
0000
0000
0000
0000
0000
0000
0000
0000
0000
0000
0000
0000
0000
0010
0000
0000
0000
0000
0000
0000
0000
0000
0000
0000
0000
0000
0000
0000
0000
0000
0000
0000
0000
0000
0000
0000
0000
0001
0000
0000
0000
0000
0000
0000
0000
0000
0000
0000
0000
0000
0000
0000
1000
0000
0000
0000
0000
0000
0000
0000
0000
0000
0000
0000
0000
0000
0000
0000
0000
0000
0000
0000
0000
0000
0000
0000
0000
0000
0000
0000
0000
0000
0000
0000
0000
,
0010
0000
0000
0000
0000
0000
0000
0000
0000
0000
0000
0000
0000
0000
0000
0000
0000
0000
0000
0000
0000
0000
0000
0000
1000
0000
0000
0000
0000
0000
0000
0000
0000
0000
0000
0000
0000
0000
0000
0000
0100
0000
0000
0000
0000
0000
0000
0000
0010
0000
0000
0000
0000
0000
0000
0000
0000
0000
0000
0000
0000
0000
0000
0000
0000
0000
0000
0000
0000
0000
0000
0000
0001
0000
0000
0000
0000
0000
0000
0000
0000
0000
0000
0000
0000
0000
0000
0000
0100
0000
0000
0000
0000
0000
0000
0000
0010
0000
0000
0000
0000
0000
0000
0000
0000
0000
0000
0000
0000
0000
0000
0000
0000
0000
0000
0000
0000
0000
0000
0000
1000
0000
0000
0000
0000
0000
0000
0000
0000
0000
0000
0000
0000
0000
0000
0000
0000
0000
0000
0000
0000
0000
0000
0000
0001
0000
0000
0000
0000
0000
0000
0000
0000
0000
0000
0000
0000
0000
0000
0100
0000
0000
0000
0000
0000
0000
0000
0000
0000
0000
0000
0000
0000
0000
0000
0000
0000
0000
0000
0000
0000
0000
0000
0000
0000
0000
0000
0000
0000
0000
0000
0000
,
0010
0000
0000
0000
0000
0000
1000
0000
0000
0000
0100
0000
0000
0000
0000
0000
1000
0000
0000
0000
0000
0000
0010
0000
0000
0000
0000
0000
0100
0000
0000
0000
0000
0000
0002
0000
0000
0000
0000
0000
0000
0000
0013
0000
0000
0100
0000
0000
,
0010
0000
0000
0000
0000
0000
0100
0000
0000
0000
1000
0000
0000
0000
0000
0000
0010
0000
0000
0000
0000
0000
1000
0000
0000
0000
0000
0000
0100
0000
0000
0000
0000
0000
2000
0000
0000
0000
0000
0000
0000
0000
3100
0000
0000
1000
0000
0000
,
0200
0000
2300
0000
3001
0010
0001
0100
,
2000
0000
3200
0000
0301
0010
0110
0000
,
0010
0000
0000
0001
0000
0100
0000
0000
0010
0000
0000
0100
0000
0000
0001
0000
0000
2000
0000
0000
0000
3100
0000
0000
,
1000
0000
0000
0010
0000
0100
0000
0000
0010
0000
0000
1000
0000
0000
0100
0000
0000
2000
0000
0000
0000
3010
0000
0000
,
0110
0000
0000
0000
0000
0000
0000
0000
0000
0000
0000
0000
0000
0000
0000
0000
0000
0000
0000
0000
0000
0000
0000
0000
0000
0000
0000
0000
0000
0000
0000
0000
0000
0000
0000
0000
0000
0000
0000
0000
0010
0000
0000
0000
0000
0000
0000
0000
1000
0000
0000
0000
0000
0000
0000
0000
0000
0000
0000
0000
0000
0000
0000
0000
0000
0000
0000
0000
0000
0000
0000
0000
0000
0000
0000
0000
0000
0000
0000
0000
0000
0000
0000
0000
0000
0000
0000
0000
0001
0000
0000
0000
0000
0000
0000
0000
0100
0000
0000
0000
0000
0000
0000
0000
0000
0000
0000
0000
0000
0000
0000
0000
0000
0000
0000
0000
0000
0000
0000
0000
0100
0000
0000
0000
0000
0000
0000
0000
0000
0000
0000
0000
0000
0000
0000
0000
0000
0000
0000
0000
0000
0000
0000
0000
0001
0000
0000
0000
0000
0000
0000
0000
0000
0000
0000
0000
0000
0000
0000
0100
0000
0000
0000
0000
0000
0000
0000
0000
0000
0000
0000
0000
0000
0000
0000
0000
0000
0000
0000
0000
0000
0000
0000
0000
0000
0000
0000
0000
0000
0000
0000
0000
,
0020
0000
2030
0000
3001
2000
0100
0000
,
0002
0000
0000
3003
,
2001
0000
0000
0000
0000
3001
0100
0000
0000
0010
0000
0000
1000
0000
0000
0010
0000
0000
0100
0000
0000
0001
0000
0000
,
0200
0000
0000
0000
0000
0301
0010
0000
0000
0100
0000
0000
1000
0000
0000
0100
0000
0000
0010
0000
0000
0001
0000
0000
,
0002
0000
0023
0000
1030
0010
0001
0100
,
2000
0000
3200
0000
0310
1000
0100
1000
,
1010
0010
0100
1000
0100
0002
0003
0010
,
0100
0000
1000
0000
0100
0000
1000
0000
1000
0000
0002
0000
0000
0000
1003
0010
,
1000
0001
0101
0000
0001
1000
1010
0000
,
1001
0000
0000
1100
0000
0000
1001
0000
0000
0000
0000
1000
0001
0000
0100
0001
0000
1000
0000
0000
0000
0010
0000
0000
,
1000
0000
0100
1000
0000
0100
1000
0000
0000
0000
0000
0100
0010
0000
0001
0010
0000
0100
0000
0000
0000
1000
0000
0000
,
0010
0000
0100
0010
0000
0100
0010
0000
0000
0000
0000
1000
0010
0000
0100
0010
0000
1000
0000
0000
0000
0001
0000
0000
,
1000
0000
0100
1000
0000
0100
1000
0000
0000
1000
0000
0000
0010
0000
0000
0010
0000
0000
0100
0000
0001
0100
0000
0001
,
1000
0000
0001
1000
0000
0000
1001
0000
0000
0000
0000
0001
0100
0000
0010
1000
0000
0001
0000
0000
0000
2000
0000
0000
,
3001
0000
0010
0001
0000
0010
0001
0000
0000
0000
0000
0100
0010
0000
1000
0100
0000
1000
0000
0000
0001
0020
0000
0031
,
0000
0000
1000
0001
0000
1000
0001
0000
0000
0000
0000
0001
0010
0000
0100
1000
0000
0001
0000
0000
0000
2000
0000
0000
,
3010
0000
0100
0010
0000
0100
0010
0000
0000
0010
0000
0000
1000
0000
0000
1000
0000
0000
0001
0000
0100
0001
0000
0100
,
0010
0000
1000
0200
0000
0000
1300
0000
0000
0100
0000
1000
0000
0000
0010
0000
0000
0100
0000
0000
0001
0000
0000
0200
,
0000
0000
0000
0000
0000
0000
0301
0000
0000
0010
0000
0000
0001
0000
0000
0000
0000
0000
0010
0000
0000
0000
0100
0000
0000
0000
0000
0000
1000
0000
0000
0000
0000
0000
0010
0000
0000
0000
0000
0000
1000
0000
0000
0000
0000
0000
0200
0000
,
0000
1300
0001
0000
0002
0003
0100
0010
,
0100
0001
0200
0000
0302
0000
1003
0001
,
0012
0000
0000
0000
0000
0000
1003
0000
0000
0001
0000
0100
0000
0000
0010
0000
0000
0100
0000
0000
0001
0000
0000
2000
,
0000
0000
0000
3010
0000
0000
0100
0000
0000
0001
0000
1000
0000
0000
0010
0000
0000
0100
0000
0000
0010
0000
0000
2000
,
0000
3001
0200
0000
0310
0000
0000
0100
,
0010
0100
0002
0000
0023
0000
0031
0100
,
0110
0000
0000
0000
0000
0000
0010
0000
0000
1000
0000
0100
0000
0000
1000
0000
0000
0100
0000
0000
1000
0000
0000
0002
,
0000
0000
0000
0000
0000
0000
0013
0000
0000
0001
0000
0000
0010
0000
0000
0000
0000
0000
0001
0000
0000
0000
0100
0000
0000
0000
0000
0000
0001
0000
0000
0000
0000
0000
0100
0000
0000
0000
0000
0000
0001
0000
0000
0000
0000
0000
2000
0000
,
0000
0000
3010
1000
0020
0000
0000
0000
1030
0000
0000
0000
0001
0000
0100
0000
,
0010
0100
0002
0000
2003
0000
3001
1000
,
0100
0000
0000
0000
0000
0000
1000
0000
0000
0001
0000
0010
0000
0000
0001
0000
0000
0100
0000
0000
0010
0000
0000
2000
,
0000
0000
0000
3100
0000
0000
1000
0000
0000
0010
0000
0100
0000
0000
0001
0000
0000
0010
0000
0000
0100
0000
0000
0020
,
0000
0031
0200
0000
0310
0000
0000
0000
,
0010
1000
0200
0000
2300
0000
3001
0100
,
1000
0000
0100
0001
0000
0000
1000
0000
0000
0000
0000
0000
0000
0000
0000
0000
0000
0000
0000
0000
0000
0000
0000
0000
;

//---------------dance-single - DDRDAIKENKAI----------------
#NOTES:
     dance-single:
     DDRDAIKENKAI:
     Medium:
     5:
     0.311,0.339,0.066,0.264,0.000:
0000
0000
0000
0000
,
0000
0000
0000
0000
,
0000
0000
0000
0000
,
0000
0000
0000
0000
,
0010
0000
0000
0000
1000
0100
1000
0000
,
0001
0000
0000
0000
0100
0010
0100
0000
,
0002
1003
2000
3001
,
0002
0023
0230
1300
,
0001
0000
1000
0000
0010
0100
0010
0000
,
1000
0000
0001
0000
0100
0010
0100
0000
,
0002
0000
0003
0000
1000
0000
0001
0010
,
0002
0000
2003
0000
3001
1000
0100
0000
,
1000
0010
1000
0000
0010
0000
0100
0001
,
0100
0001
0100
0000
0001
0000
0010
0100
,
0020
0000
0031
0000
1000
0100
1000
0000
,
0020
0000
0230
0000
0301
1000
0010
0000
,
0200
0000
0000
0300
,
0001
0000
1000
0100
0000
1000
0000
0001
,
0010
0000
0001
0100
0000
0001
0000
1000
,
0020
0000
1000
1000
,
2030
0000
0000
3100
,
1000
0000
0001
0100
0000
0001
0000
0010
,
0100
0000
1000
0010
0000
1000
0000
0100
,
0020
0001
0032
1003
,
1001
0100
1001
0000
0010
1000
0100
1000
,
0100
0000
1001
0000
0010
0001
0100
0001
,
0100
0000
1001
0000
0010
1000
0100
1000
,
0100
0000
1000
0000
0001
0000
0100
0010
,
0100
0000
0110
0000
0100
0001
1000
0001
,
1000
0000
0110
0000
0010
1000
0001
1000
,
0001
0000
0110
0000
0100
0001
1000
0001
,
1000
0000
0001
0001
0001
0000
0100
0010
,
0100
0010
0200
0000
0310
1000
0010
1000
,
0001
0000
2000
0000
3100
1000
0001
1000
,
0001
0200
0301
0000
,
0001
0010
0002
0000
0023
0000
0130
1000
,
0100
0000
2000
0000
3001
0100
0001
0100
,
0010
0000
2000
0000
3010
0100
0010
0100
,
0001
0000
2000
0000
3100
0000
0010
0001
,
0100
0000
0020
0000
2030
0000
3001
0001
,
1000
0000
0001
0000
0010
0100
1000
0100
,
1000
0000
0001
0000
0100
0010
1000
0010
,
1000
0002
0013
0100
,
1000
0001
0200
0000
0320
0000
1030
0100
,
1000
0000
0010
1000
0010
0000
1000
0001
,
1000
0000
0001
0010
0001
0000
1000
0001
,
1000
0002
0013
0000
,
0100
1000
0200
0000
2300
0000
3001
0100
,
0010
1001
0000
0000
;

//---------------dance-single - DDRDAIKENKAI----------------
#NOTES:
     dance-single:
     DDRDAIKENKAI:
     Easy:
     2:
     0.186,0.199,0.033,0.124,0.000: // measure 1
0000
0000
0000
0000
,  // measure 2
0000
0000
0000
0000
,  // measure 3
0000
0000
0000
0000
,  // measure 4
0000
0000
0000
0000
,  // measure 5
2000
0000
3001
0001
,  // measure 6
0002
0000
1003
1000
,  // measure 7
0020
0000
0230
0000
,  // measure 8
0301
0010
0100
1000
,  // measure 9
0010
1000
0100
0000
,  // measure 10
1000
0001
0100
0000
,  // measure 11
0010
0000
0010
0000
,  // measure 12
1000
0001
1000
0000
,  // measure 13
0001
0001
1000
0100
,  // measure 14
1000
1000
0001
0100
,  // measure 15
0010
0000
0010
0000
,  // measure 16
1000
0100
1000
0002
,  // measure 17
2000
0000
0000
3003
,  // measure 18
0002
0003
1000
0100
,  // measure 19
2000
3000
0001
0100
,  // measure 20
0020
0000
0000
0000
,  // measure 21
0030
0000
0000
1000
,  // measure 22
1001
0001
0100
0010
,  // measure 23
1000
0100
0010
0001
,  // measure 24
0020
0000
0000
0000
,  // measure 25
0031
1001
1000
0010
,  // measure 26
0010
1000
0001
1000
,  // measure 27
1000
0100
0010
0001
,  // measure 28
0001
1000
1000
0001
,  // measure 29
0001
1001
1000
0001
,  // measure 30
1000
0010
0100
0010
,  // measure 31
0100
0001
0010
0001
,  // measure 32
0100
0010
1000
1000
,  // measure 33
0001
1001
1000
0001
,  // measure 34
0000
0100
0010
0100
,  // measure 35
0000
0002
0003
1000
,  // measure 36
0000
0200
0300
2000
,  // measure 37
3000
0001
0100
0001
,  // measure 38
0001
1000
0010
1000
,  // measure 39
1000
0002
0003
0000
,  // measure 40
1000
0100
1000
0010
,  // measure 41
0000
0010
0100
0001
,  // measure 42
0001
0100
0010
1000
,  // measure 43
1000
0100
0000
0100
,  // measure 44
0000
1000
0001
1000
,  // measure 45
0000
0001
0010
0010
,  // measure 46
0001
0100
0010
0010
,  // measure 47
1000
0002
0003
0000
,  // measure 48
1000
0001
0010
0100
,  // measure 49
1000
0001
0000
0000
;
