#TITLE:サングラス;
#SUBTITLE:;
#ARTIST:宇多田ヒカル;
#TITLETRANSLIT:Sunglasses;
#SUBTITLETRANSLIT:;
#ARTISTTRANSLIT:Utada Hikaru;
#GENRE:R&B;
#CREDIT:;
#MENUCOLOR:;
#NEWMETERSYSTEM:NO;
#BANNER:Sunglasses.png;
#BACKGROUND:Sunglasses-bg.png;
#LYRICSPATH:Sunglasses.lrc;
#CDTITLE:CDTitle.png;
#MUSIC:Sunglasses.ogg;
#OFFSET:0.000;
#SAMPLESTART:51.600;
#SAMPLELENGTH:16.600;
#SELECTABLE:YES;
#LISTSORT:;
#BPMS:0.000=93.000;
#STOPS:;
#BGCHANGES:;
#ATTACKS:;

//---------------dance-single - DDRDAIKENKAI----------------
#NOTES:
     dance-single:
     DDRDAIKENKAI:
     Hard:
     6:
     0.365,0.322,0.105,0.234,0.057: // measure 1
0000
0000
0000
0000
,  // measure 2
0000
0000
0000
0000
,  // measure 3
0000
0000
0000
0000
,  // measure 4
1000
0001
0000
0000
1000
0001
0000
0000
1000
0001
0000
0000
1000
0001
0000
0000
,  // measure 5
1002
0000
1003
0100
0010
0001
0010
0001
,  // measure 6
0100
0000
0010
1000
0100
1000
0100
1000
,  // measure 7
0010
0100
0001
0000
0001
0010
0100
0000
,  // measure 8
1000
0000
1000
0100
0010
0100
1000
0100
,  // measure 9
1000
0001
1000
0000
0001
0010
0001
0100
,  // measure 10
0020
0000
1030
0000
0100
1000
0100
1000
,  // measure 11
0001
0001
1000
1000
0001
0100
0010
1000
,  // measure 12
0010
0010
0100
0100
0001
0010
0100
1000
,  // measure 13
0001
0100
0001
0100
0010
1000
0100
1000
,  // measure 14
1010
0000
0110
0000
0100
0001
0001
0010
,  // measure 15
0100
1000
0100
1000
0001
0100
0001
0100
,  // measure 16
0010
0000
1100
0000
0101
0000
0010
1000
,  // measure 17
0100
0000
0000
0020
0000
0000
0032
0000
0000
0000
1003
0000
0100
0000
0000
0000
,  // measure 18
1000
0010
1000
0001
0010
0000
0001
0100
,  // measure 19
0001
0000
0000
0200
0000
0000
0320
0000
0000
0000
1000
0000
1030
0000
0000
0000
,  // measure 20
1100
0000
0011
0001
0100
0010
0100
0010
,  // measure 21
1000
1000
0001
2000
0000
3100
1000
0000
,  // measure 22
0001
0001
0100
0002
0000
0013
0001
0000
,  // measure 23
0100
0010
1000
0020
0000
0130
0001
0000
,  // measure 24
0010
0100
0010
0100
1000
0001
0100
0000
,  // measure 25
0010
1000
0100
2000
0000
3001
1000
0000
,  // measure 26
0001
0010
0100
0010
0001
0010
0001
1000
,  // measure 27
0200
0000
2300
0000
3001
0100
0020
0000
,  // measure 28
1030
0100
1000
0100
1000
0100
0010
0001
,  // measure 29
2000
0000
3001
0020
0000
0000
0031
2000
,  // measure 30
0000
0100
3200
0000
0310
0001
1000
0100
,  // measure 31
0020
0000
0032
0000
1003
0100
1000
0001
,  // measure 32
0020
0000
0000
0000
0230
0000
0000
0000
0310
0000
0001
0000
0100
0000
0010
1000
,  // measure 33
0000
0000
0100
1000
0000
0001
0000
0000
0100
0000
0001
0000
0100
0000
0001
0000
,  // measure 34
0010
0000
0100
0010
0000
0001
0000
0000
1000
0000
0100
0000
1000
0000
0000
1000
,  // measure 35
0010
0100
0010
0100
0001
0010
2000
0000
,  // measure 36
3020
0000
0032
0000
0103
0001
0010
0100
,  // measure 37
1000
0010
1000
0100
1000
0010
0100
0001
,  // measure 38
0101
0000
0011
0000
0001
1000
0010
0100
,  // measure 39
0010
1000
0100
1000
0010
0100
0010
0100
,  // measure 40
0110
0000
0101
0000
0001
0010
0001
0100
,  // measure 41
0020
0000
0000
2030
0000
0000
3100
0000
0010
0000
0001
0000
1000
0000
0000
0000
,  // measure 42
1000
0001
0100
0010
1000
0000
0001
1000
,  // measure 43
0002
0000
0000
0203
0000
0000
0310
0000
0100
0000
0100
0000
0001
0000
0000
0000
,  // measure 44
0101
0000
1010
0010
1000
0100
0010
0001
,  // measure 45
2000
3000
0000
0000
;

//---------------dance-single - DDRDAIKENKAI----------------
#NOTES:
     dance-single:
     DDRDAIKENKAI:
     Challenge:
     9:
     0.520,0.536,0.250,0.283,0.638: // measure 1
0000
0000
0000
0000
,  // measure 2
0000
0000
0000
0000
,  // measure 3
0000
0000
0000
0000
,  // measure 4
0001
0100
0000
0000
0001
0100
0000
0000
0001
0100
0010
1000
0010
1000
0010
1000
,  // measure 5
0200
0000
0000
0000
1300
0001
0000
0010
0000
0001
0000
0010
0000
0100
0000
0010
,  // measure 6
0000
0000
0000
0000
0010
0001
0000
0100
0000
1000
0000
0100
0000
0001
0000
0010
,  // measure 7
0000
0001
0000
0200
0000
0000
0000
0310
1000
0000
0100
0000
1000
0000
0000
1000
,  // measure 8
0001
0000
0000
0001
0100
0010
0000
0010
1000
0000
0010
0100
0010
0100
0010
0200
,  // measure 9
0000
0301
0000
0001
0010
0000
0000
0010
1000
0000
0010
0000
0001
0100
0000
0010
,  // measure 10
2000
0000
3001
0000
1001
0000
0000
0001
0100
0000
0010
0000
0100
0000
0010
1000
,  // measure 11
0000
0100
0000
1000
0000
0010
0000
0100
0000
0001
0000
0010
0100
0000
1000
0000
,  // measure 12
1010
0000
0010
0000
0110
0000
0100
0001
0010
0001
0010
0001
0100
0001
0100
0010
,  // measure 13
1000
0000
0010
0001
0000
0010
0000
0100
0001
0000
0010
0100
0000
0100
1000
0000
,  // measure 14
1010
0000
0010
0000
0110
0000
0000
0000
0100
0000
0001
0010
0001
0000
0100
0000
,  // measure 15
0010
0000
1000
0100
0000
0010
0000
0100
1000
0000
1000
0001
0000
0001
0100
0000
,  // measure 16
0101
0000
0000
0000
1010
0000
0000
0000
1100
0000
1000
0100
1000
0010
1000
0010
,  // measure 17
0001
0000
0010
1000
0000
0100
0000
0010
0001
0000
0100
0000
0101
0000
0001
0000
,  // measure 18
1000
0000
0010
0000
0100
0000
0001
1000
0100
0000
0000
0000
1000
0010
1000
0010
,  // measure 19
1000
0001
1000
0100
0000
0001
0000
0100
0000
0010
0000
0001
0000
0010
0100
0000
,  // measure 20
1100
0000
0000
0000
1010
0010
1000
0010
0100
0001
0100
0010
1000
0100
1000
0001
,  // measure 21
0100
0001
0011
0020
0000
0031
0101
0200
,  // measure 22
0000
0310
1010
2000
3001
0101
0000
1001
,  // measure 23
0000
1000
1100
0200
0000
0310
0011
0002
,  // measure 24
0003
0000
1000
0000
0010
0000
0100
0000
0101
0000
0000
0001
1000
0000
0001
0200
,  // measure 25
0001
0301
2000
3020
0000
1030
1010
0010
,  // measure 26
0000
0000
0100
0000
0001
0000
1000
0000
0100
1000
0001
0100
0001
0000
0100
0000
,  // measure 27
0020
0000
0000
0000
1030
0000
0001
0000
0100
0000
0010
0000
0110
0000
0000
0010
,  // measure 28
1000
0000
0000
0000
0001
1000
0010
0100
0001
0010
0100
1000
0100
0010
0100
0010
,  // measure 29
0002
0000
0000
0000
0000
0000
1003
0010
1000
0000
0000
0000
0002
0000
0000
0000
0000
0000
0000
0000
0000
0000
0000
0000
1003
0000
0000
0000
0200
0000
0000
0000
,  // measure 30
0000
0300
0200
0000
0000
0000
0000
0000
2300
0000
0000
0000
0000
0000
0000
0000
3020
0000
0000
0000
0000
0000
0000
0000
0130
0000
0001
0000
0100
0000
0010
0000
,  // measure 31
2000
0000
0000
0000
0001
0000
0001
0000
0010
0000
0010
0000
3001
0000
1000
0001
,  // measure 32
0200
0000
0000
0000
0000
0000
0310
0100
0020
0000
0000
0000
0000
0000
0130
0000
0010
0000
0100
0000
1000
0000
0100
0000
0010
0000
0100
0001
0100
0000
0010
0000
,  // measure 33
1000
0000
0001
0100
0001
0000
0100
0000
0000
0000
0002
0000
0000
0000
0000
0000
0203
0000
0000
0000
0000
0000
0000
0000
0310
0000
1000
0000
0100
0000
0010
0000
,  // measure 34
0001
0000
0100
0001
0100
0000
0010
0000
0000
0000
2000
0000
0000
0000
0000
0000
3020
0000
0000
0000
0130
0000
0000
0000
0110
0000
0000
0000
0000
0000
0100
0000
,  // measure 35
0001
0000
0010
0000
0100
0000
1000
0000
0010
0000
1000
0000
0100
0000
0010
0000
0001
0000
0100
0000
0010
0000
1000
0000
0002
0000
0000
0000
0000
0000
1003
0100
,  // measure 36
2000
0000
0000
0000
3002
0000
0000
1003
0010
0100
0010
0100
0001
0010
0001
0010
,  // measure 37
0100
0000
1000
0010
0000
0001
0000
0010
1000
0000
0100
0010
0000
0001
0010
0000
,  // measure 38
0012
0000
0000
0000
2003
0000
0000
0000
3001
0000
0100
0010
0100
0000
0010
0000
,  // measure 39
1000
0000
0010
0100
0000
0001
0000
0010
0100
0000
1000
0001
0000
0100
0001
0000
,  // measure 40
0101
0000
0000
0000
0110
0000
0000
0000
1020
0000
0000
0000
1030
0100
1000
0100
,  // measure 41
1000
0000
0010
0100
0000
0001
0000
0100
0002
0000
0013
0000
0110
0000
0100
0000
,  // measure 42
0010
0000
0001
0000
0100
0000
0010
1000
0010
0000
0000
0000
1010
0000
0010
0000
,  // measure 43
0100
0010
0100
0001
0000
1000
0000
0100
0000
0001
0000
0100
0000
0010
0001
0000
,  // measure 44
1001
0000
0000
0000
0110
0010
1000
0100
1000
0010
0100
0001
0010
0100
1000
0001
,  // measure 45
2002
3003
0000
0000
;

//---------------dance-single - DDRDAIKENKAI----------------
#NOTES:
     dance-single:
     DDRDAIKENKAI:
     Medium:
     4:
     0.293,0.304,0.024,0.331,0.000: // measure 1
0000
0000
0000
0000
,  // measure 2
0000
0000
0000
0000
,  // measure 3
0000
0000
0000
0000
,  // measure 4
1000
0000
1000
0000
1000
0001
1000
0001
,  // measure 5
0100
0000
0010
1000
0010
0000
1000
0100
,  // measure 6
1000
0000
0001
0100
0001
0100
0001
0000
,  // measure 7
0010
0000
0001
0000
0100
0010
0100
0000
,  // measure 8
0010
0000
1000
0000
0100
1000
0100
0000
,  // measure 9
1000
0001
1000
0000
0001
0100
0001
0000
,  // measure 10
0100
0000
0010
0000
1000
0000
0001
0001
,  // measure 11
1000
0100
1000
0000
0001
0010
0001
0000
,  // measure 12
0200
0300
0002
0003
0020
0030
2000
3000
,  // measure 13
0010
0001
0010
0000
1000
0010
1000
0000
,  // measure 14
0010
0000
0100
0000
1000
1000
0001
1000
,  // measure 15
0010
1000
0100
0001
,  // measure 16
0010
0000
0001
0000
0100
0000
1000
0100
,  // measure 17
1000
0000
0002
0000
0103
0100
0001
0000
,  // measure 18
1000
0100
1000
0001
1000
0000
0001
0100
,  // measure 19
0002
0023
2030
3010
,  // measure 20
0002
0000
2003
0000
3001
0100
0001
0100
,  // measure 21
0010
0000
1000
0002
0000
0003
1000
0100
,  // measure 22
0000
1000
0100
1000
0000
0010
0000
0100
,  // measure 23
0000
0001
0100
0020
0000
0000
1030
0001
,  // measure 24
0000
1000
0100
1000
0100
0000
0010
0000
,  // measure 25
0001
0100
0001
0200
0000
0300
0010
1000
,  // measure 26
0000
0010
0100
0001
0100
0001
0100
0002
,  // measure 27
0000
0000
0000
1003
,  // measure 28
0001
1000
0001
1000
0100
0010
0100
0010
,  // measure 29
0002
0000
1003
2000
0000
0000
3010
0020
,  // measure 30
0000
0000
0130
0000
0001
0000
1000
0100
,  // measure 31
0020
0000
0032
0000
0203
0000
1300
1000
,  // measure 32
0200
0000
0302
0000
0013
0100
0010
0100
,  // measure 33
0010
0000
0001
1000
0001
0000
0001
0010
,  // measure 34
0001
0100
0001
0100
0002
0000
0103
0000
,  // measure 35
0020
2030
3200
0302
,  // measure 36
0023
0000
0200
0330
,  // measure 37
1000
0001
1000
0000
0001
0100
0001
0000
,  // measure 38
2000
0000
3020
0000
0130
0001
0100
0000
,  // measure 39
0001
0010
1000
0100
,  // measure 40
0002
0000
0000
0000
1003
0000
0001
0100
,  // measure 41
0001
0000
0200
0000
0320
0000
0000
0030
,  // measure 42
1000
0100
1000
0100
1000
0000
0010
0100
,  // measure 43
0020
2030
3002
0103
,  // measure 44
0102
0013
2100
3001
,  // measure 45
2002
3003
0000
0000
;

//---------------dance-single - DDRDAIKENKAI----------------
#NOTES:
     dance-single:
     DDRDAIKENKAI:
     Beginner:
     1:
     0.113,0.143,0.008,0.121,0.000: // measure 1
0000
0000
0000
0000
,  // measure 2
0000
0000
0000
0000
,  // measure 3
0000
0000
0000
0000
,  // measure 4
0000
0000
0000
0000
,  // measure 5
1000
0000
0001
0001
,  // measure 6
0001
0000
0100
0100
,  // measure 7
0100
0000
0010
0000
,  // measure 8
0100
0000
0001
0001
,  // measure 9
0001
0000
1000
0000
,  // measure 10
0010
0000
0100
0000
,  // measure 11
0001
0001
0001
0000
,  // measure 12
1000
1000
1000
1000
,  // measure 13
1000
0000
0010
0000
,  // measure 14
0200
0000
0300
0000
,  // measure 15
0001
0000
0010
0000
,  // measure 16
0200
0000
0300
0000
,  // measure 17
1000
1000
1000
0000
,  // measure 18
0001
0001
0001
0000
,  // measure 19
0100
0100
0100
0000
,  // measure 20
0020
0000
0000
0000
,  // measure 21
0030
0000
1000
0000
,  // measure 22
0001
0000
1000
0000
,  // measure 23
0010
0000
0100
0000
,  // measure 24
0001
0001
0001
0000
,  // measure 25
0100
0000
0010
0000
,  // measure 26
1000
0000
0100
0000
,  // measure 27
2000
0000
0000
0000
,  // measure 28
3000
0000
0001
0001
,  // measure 29
0002
0000
0003
0000
,  // measure 30
0200
0000
0300
0000
,  // measure 31
0020
0000
0030
0000
,  // measure 32
1000
0000
0001
0000
,  // measure 33
2000
0000
3000
0000
,  // measure 34
0200
0000
0300
0000
,  // measure 35
0010
0010
0010
0010
,  // measure 36
0020
0000
0030
0000
,  // measure 37
0001
0000
0001
0000
,  // measure 38
2000
0000
3000
0000
,  // measure 39
0001
0000
0100
0000
,  // measure 40
0020
0000
0030
0000
,  // measure 41
1000
1000
1000
0000
,  // measure 42
0001
0001
0001
0000
,  // measure 43
0100
0100
0100
0000
,  // measure 44
0020
0000
0030
0000
,  // measure 45
2002
3003
0000
0000
;

//---------------dance-single - DDRDAIKENKAI----------------
#NOTES:
     dance-single:
     DDRDAIKENKAI:
     Easy:
     3:
     0.185,0.232,0.008,0.234,0.000: // measure 1
0000
0000
0000
0000
,  // measure 2
0000
0000
0000
0000
,  // measure 3
0000
0000
0000
0000
,  // measure 4
0100
0100
0100
0100
,  // measure 5
0110
0010
1000
0001
,  // measure 6
0000
1000
0100
0100
,  // measure 7
0010
0100
1000
0000
,  // measure 8
0001
1000
1000
0001
,  // measure 9
0100
0100
0010
0010
,  // measure 10
1000
0000
0001
0001
,  // measure 11
0001
0010
0100
1000
,  // measure 12
1000
0100
0010
0001
,  // measure 13
0001
1000
0010
0100
,  // measure 14
0002
0003
1000
1000
,  // measure 15
1000
0010
0100
0001
,  // measure 16
0200
0300
0010
0010
,  // measure 17
0020
0000
0030
0000
,  // measure 18
1000
0001
0100
0100
,  // measure 19
0001
0100
1000
0100
,  // measure 20
0002
2000
0000
3003
,  // measure 21
0010
0000
0000
1000
0000
0000
1000
0000
,  // measure 22
0001
0000
0100
0010
,  // measure 23
1000
0000
0000
0100
0000
0000
0010
0000
,  // measure 24
0001
0000
0010
1000
,  // measure 25
0100
0000
0000
1000
0000
0000
0010
0000
,  // measure 26
0001
0000
0100
1000
,  // measure 27
0200
0000
0000
0300
,  // measure 28
0001
0001
0001
0001
,  // measure 29
0002
2003
0000
3002
,  // measure 30
0000
0203
0000
0310
,  // measure 31
0020
0000
0000
0000
,  // measure 32
2030
3002
1003
0100
,  // measure 33
0002
0203
2300
3000
,  // measure 34
0020
2030
3200
0300
,  // measure 35
2000
3020
0032
0023
,  // measure 36
2030
0000
0000
0000
,  // measure 37
3001
0001
0010
0100
,  // measure 38
2000
3000
0000
0001
,  // measure 39
1000
0010
0100
0001
,  // measure 40
0200
0000
0300
0100
,  // measure 41
0010
1000
0002
0003
,  // measure 42
1000
0010
0001
0010
,  // measure 43
0100
0001
1000
0100
,  // measure 44
0100
0020
0001
0001
,  // measure 45
0032
0003
0000
0000
;
