#TITLE:Stay Gold;
#SUBTITLE:;
#ARTIST:宇多田ヒカル;
#TITLETRANSLIT:;
#SUBTITLETRANSLIT:;
#ARTISTTRANSLIT:Utada Hikaru;
#GENRE:R&B;
#CREDIT:;
#MENUCOLOR:;
#NEWMETERSYSTEM:NO;
#BANNER:Stay Gold.png;
#BACKGROUND:Stay Gold-bg.png;
#LYRICSPATH:Stay Gold.lrc;
#CDTITLE:;
#MUSIC:Stay Gold.ogg;
#OFFSET:0.000;
#SAMPLESTART:52.541;
#SAMPLELENGTH:21.200;
#SELECTABLE:YES;
#LISTSORT:;
#BPMS:0.000=90.008;
#STOPS:;
#BGCHANGES:;
#ATTACKS:;

//---------------dance-single - DDRDAIKENKAI----------------
#NOTES:
     dance-single:
     DDRDAIKENKAI:
     Hard:
     8:
     0.489,0.456,0.027,0.284,0.590: // measure 1
0000
0000
0000
0000
,  // measure 2
0000
0000
0000
0000
,  // measure 3
0000
0000
0000
0000
,  // measure 4
0000
0000
0000
0000
,  // measure 5
0100
0001
0100
0000
0001
0000
0100
0000
0010
0000
1000
0100
0000
1000
0000
1000
,  // measure 6
0001
1000
0001
0000
1000
0000
0100
0000
1000
0000
0001
0000
0100
0001
0100
0000
,  // measure 7
0001
0010
0001
0000
0010
0000
0100
0000
0010
0000
0001
0100
0000
0010
0000
0010
,  // measure 8
0100
0010
0100
0000
0020
0000
0000
0000
1030
0100
1000
0000
0200
0000
0000
1300
,  // measure 9
0000
0010
1000
0000
0001
0100
0001
0000
1000
0000
0001
1000
0000
0001
0000
0001
,  // measure 10
0010
0001
0010
0000
0001
0000
0000
0000
0200
0000
0010
0000
0310
1000
0000
0000
,  // measure 11
1000
0100
1000
0000
0100
0000
1000
0000
0001
0000
0010
0001
0000
0100
0000
0100
,  // measure 12
0010
1000
0010
0000
2000
0000
0000
0000
3002
0000
0100
0000
0203
0010
0000
0320
,  // measure 13
1000
0000
1030
0000
0100
0000
1000
0010
0000
0100
0000
0001
0100
0000
0010
0000
,  // measure 14
1000
0000
0100
0000
0010
0000
0001
0100
0000
0001
0000
0010
0100
0000
0010
0000
,  // measure 15
0001
0000
1000
0000
0010
0000
1000
0100
0000
1000
0000
0001
0100
0000
0001
0000
,  // measure 16
1000
0000
0010
0000
0100
0000
0010
1000
0000
0100
0000
1000
0002
0000
1000
0000
,  // measure 17
1003
0000
0001
0000
0100
0000
0001
0010
0000
0001
0000
0100
0010
0000
1000
0000
,  // measure 18
0100
0000
1000
0000
0010
0000
0100
0010
0000
1000
0000
0100
1000
0000
0001
0000
,  // measure 19
0010
0000
0001
0000
0100
0000
0010
0100
0000
0001
0000
0010
0100
0000
0010
0000
,  // measure 20
0001
0000
1000
0000
1100
0000
0000
0000
1000
0000
0001
0000
0201
0000
0000
0301
,  // measure 21
0100
0001
0100
0010
1000
0000
0100
1000
0000
0001
0000
1000
0200
0000
0000
1300
,  // measure 22
0001
0010
0001
1000
0100
0000
1000
0001
0000
0100
0000
0001
0200
0000
0310
0000
,  // measure 23
1000
0010
1000
0010
0100
0000
0010
0100
0000
0001
0000
1000
0002
0000
0103
0000
,  // measure 24
0001
0010
0001
0010
0100
0000
0010
0100
0000
0010
0000
0100
2000
0000
3001
0000
,  // measure 25
1000
0001
1000
0001
0010
0000
0001
0100
0000
0010
0000
1000
0200
0000
1300
0000
,  // measure 26
0001
0010
0001
0010
0001
0000
0100
0010
0000
0100
0000
0001
2000
0000
3001
0000
,  // measure 27
1000
0100
1000
0100
0010
0000
0100
1000
0000
0010
0000
0100
0002
0000
0013
0000
,  // measure 28
0001
0100
0001
0100
0010
0000
0000
0000
1000
0100
1000
0100
0020
0000
0000
0000
,  // measure 29
0031
1000
0001
1000
0100
0000
1000
0000
0001
0000
0000
0000
1002
0000
0000
0000
,  // measure 30
2003
0000
3010
0100
0002
0000
0203
0000
,  // measure 31
0320
0000
0000
1030
0100
0000
1000
0000
0002
0000
0000
0000
0203
0000
0000
0000
,  // measure 32
0301
0010
0001
0010
0100
0000
0000
0000
1000
0001
1000
0001
0100
0000
0010
0000
,  // measure 33
2000
0001
3002
0000
0103
0010
0100
0001
,  // measure 34
2000
0100
3200
0000
1300
0001
0010
0100
,  // measure 35
1000
0000
0001
0100
0000
0000
0010
0000
1000
0100
0000
0000
1000
0000
0000
0001
,  // measure 36
0100
0000
0000
0000
0010
0000
0100
0000
0000
0000
0010
0000
0200
0000
0000
0000
0000
0000
0310
0000
0000
0000
1000
0000
0001
0000
0000
0000
0100
0000
0010
0000
0000
1000
0000
0000
0000
0000
0000
0001
0000
0000
0000
0000
0000
0020
0000
0000
,  // measure 37
0000
0031
0100
0010
1000
0000
0100
1000
0000
0001
0000
0100
0000
0001
0000
0010
,  // measure 38
0000
0001
0100
0001
1000
0000
0100
0010
0000
0001
0000
0100
0000
0001
0020
0000
,  // measure 39
0130
1000
0100
0010
0001
0000
0100
0010
0000
1000
0000
0100
1000
0000
0010
0000
,  // measure 40
0100
0001
0010
0100
0010
0000
0001
0100
0000
0010
0000
1000
0100
0000
1000
0000
;

//---------------dance-single - DDRDAIKENKAI----------------
#NOTES:
     dance-single:
     DDRDAIKENKAI:
     Medium:
     4:
     0.278,0.292,0.009,0.457,0.027: // measure 1
0000
0000
0000
0000
,  // measure 2
0000
0000
0000
0000
,  // measure 3
0000
0000
0000
0000
,  // measure 4
0000
0000
0000
0000
,  // measure 5
0000
0000
0010
0001
0010
0001
0100
0001
,  // measure 6
0200
0300
0002
0003
,  // measure 7
0000
0000
1000
0100
1000
0100
1000
0010
,  // measure 8
2000
3020
2030
3200
,  // measure 9
0300
0000
1000
0001
1000
0001
0100
0001
,  // measure 10
0200
0300
0002
0003
,  // measure 11
0000
0000
1000
0010
1000
0010
1000
0001
,  // measure 12
2000
3002
0023
0230
,  // measure 13
2300
0010
0010
3010
,  // measure 14
0200
0001
0001
0301
,  // measure 15
2000
0100
0100
3100
,  // measure 16
0020
0000
0001
0000
0031
0000
0001
0100
,  // measure 17
0020
1000
1000
1030
,  // measure 18
0002
1000
1000
1003
,  // measure 19
0200
0010
0010
0310
,  // measure 20
2002
0000
3003
0001
,  // measure 21
1000
0010
1000
0000
0001
0000
0010
0001
,  // measure 22
0100
0000
0010
0000
1000
0000
0100
1000
,  // measure 23
0010
0000
1000
0001
1000
0000
0010
0000
,  // measure 24
1000
0100
2000
0000
0001
0001
3002
0000
,  // measure 25
2003
3200
0310
0002
,  // measure 26
0203
0000
0320
0000
1030
0000
0001
0010
,  // measure 27
0001
0000
1000
0100
1000
0000
0010
0000
,  // measure 28
0100
0001
1000
0000
0100
0000
0020
0000
,  // measure 29
0031
0100
0020
0000
1030
0000
0200
0000
,  // measure 30
0320
0000
0030
0001
,  // measure 31
2000
3001
0002
1003
,  // measure 32
0001
0100
0002
0000
1000
1000
2003
0000
,  // measure 33
3020
2030
3100
0020
,  // measure 34
0032
0000
0203
0000
0310
0000
1000
0100
,  // measure 35
2000
0000
3001
0100
0002
0000
2003
0000
,  // measure 36
3010
1000
0100
0000
1000
0100
0001
0100
,  // measure 37
2000
0010
0100
3001
,  // measure 38
0002
0010
0100
1003
,  // measure 39
0020
0000
0000
0000
0000
0000
0000
1000
0000
1000
0000
2030
0000
0000
3000
0000
,  // measure 40
0200
0000
0000
0000
0000
0000
0000
0010
0000
0010
0000
0020
0000
0000
0330
0000
;

//---------------dance-single - DDRDAIKENKAI----------------
#NOTES:
     dance-single:
     DDRDAIKENKAI:
     Easy:
     2:
     0.162,0.182,0.009,0.210,0.000:
0000
0000
0000
0000
,
0000
0000
0000
0000
,
0000
0000
0000
0000
,
0000
0000
0000
0000
,
0000
1000
0001
0100
,
0002
0003
2000
3000
,
0000
0001
1000
0100
,
0020
0031
2000
3100
,
0000
1000
0001
0100
,
0020
0030
2000
3000
,
0000
0001
0100
0001
,
2000
3100
2000
3001
,
0020
0001
0000
0031
,
0200
0010
0000
0310
,
2000
0100
0000
3100
,
2000
0001
3000
0001
,
0002
1000
0000
1003
,
0002
0100
0000
0103
,
0200
0000
0000
0300
,
1001
0000
0000
0010
,
1000
0100
0000
1000
,
0001
0000
0000
0100
,
0001
1000
0001
0100
,
0010
1000
0000
0100
,
0010
0001
0000
1000
,
0200
0000
0300
1000
,
0001
0001
1000
1000
,
0001
0100
0000
0010
,
1000
1000
0000
0001
,
0020
0000
0030
0100
,
0010
0001
0100
0010
,
1000
0001
0000
1000
,
0020
0000
0030
1000
,
0200
0000
0300
1000
,
0001
0001
1000
1000
,
0010
0100
0001
1000
,
0020
0000
0000
1000
,
2030
0000
0000
0001
,
3002
0000
0000
0103
,
0200
0000
0000
0000
0000
0000
0000
0300
;
