#TITLE:Stay Gold;
#SUBTITLE:(MASA TAMAKI D&B EDIT);
#ARTIST:宇多田ヒカル;
#TITLETRANSLIT:;
#SUBTITLETRANSLIT:;
#ARTISTTRANSLIT:Utada Hikaru;
#GENRE:;
#CREDIT:;
#MENUCOLOR:;
#NEWMETERSYSTEM:NO;
#BANNER:Stay Gold (MASA TAMAKI D&B EDIT).png;
#BACKGROUND:Stay Gold (MASA TAMAKI D&B EDIT)-bg.png;
#LYRICSPATH:Stay Gold (MASA TAMAKI D&B EDIT).lrc;
#CDTITLE:CDTitle.png;
#MUSIC:Stay Gold (MASA TAMAKI D&B EDIT).ogg;
#OFFSET:0.000;
#SAMPLESTART:64.315;
#SAMPLELENGTH:22.900;
#SELECTABLE:YES;
#LISTSORT:;
#BPMS:0.000=88.500,16.000=177.000,104.000=88.500,105.000=177.000,107.000=88.500,108.000=177.000,110.000=88.500,142.000=177.000,206.000=88.500,254.000=177.000;
#STOPS:;
#BGCHANGES:;
#ATTACKS:;

//---------------dance-single - DDRDAIKENKAI----------------
#NOTES:
     dance-single:
     DDRDAIKENKAI:
     Hard:
     9:
     0.637,0.747,0.027,0.294,0.376:
0000
0000
0000
0000
,
0000
0000
0000
0000
,
0000
0000
0000
0000
,
0000
0000
0000
0000
,
0010
0100
0010
0010
0000
0010
0100
0010
,
1000
0100
0001
0100
2000
0000
3002
0000
,
0103
0010
0100
0001
0000
0100
0001
1000
,
0100
1000
0001
0010
0100
0010
0020
0000
,
0031
1000
0001
0001
0000
0001
0010
0001
,
0100
0010
1000
0100
0020
0000
0032
0000
,
0103
1000
0100
0010
0000
0100
0010
0001
,
0010
1000
0100
0010
0100
1000
2000
0000
,
3001
0000
0010
0100
1000
0001
0100
0000
,
0010
0000
1000
0100
0010
0001
0100
0000
,
0010
0000
1000
0010
0100
0001
1000
0000
,
0001
0000
0010
0100
1000
0100
0001
0000
,
0100
0000
1000
0001
0100
0010
1000
0000
,
0010
0000
0001
0010
0100
0001
1000
0000
,
0100
0000
0001
0100
1000
0001
0100
0000
,
0010
0100
0010
0100
0010
1000
0010
1000
,
0001
0000
0100
0010
0001
0010
1000
0000
,
0001
0000
0100
0010
1000
0100
1000
0000
,
0001
0000
1000
0100
0010
0100
1000
0000
,
0010
0000
0100
0001
0010
0100
1000
0000
,
0100
0000
0010
0100
0001
0100
1000
0000
,
0010
0000
0001
0010
1000
0100
1000
0000
,
1010
0000
0000
0101
0000
0000
0000
0000
1001
0000
0000
0000
2000
0000
3100
0010
,
0001
0000
0000
0000
0001
0000
0001
0000
1000
0000
1000
0010
0100
0000
0100
0001
,
0010
0000
0000
0010
0100
0000
0000
1000
0001
0000
0001
0100
0010
0000
0010
1000
,
0100
0000
0000
0100
0010
0000
0000
0000
0001
0000
1000
0001
0100
0000
0100
0010
,
1000
0000
0000
1000
0001
0000
0000
0010
0100
0000
0100
0010
0001
0000
0001
0100
,
0010
1000
0000
1000
0002
0000
2003
0000
3100
0001
0100
1000
0001
0000
0100
0010
,
0000
0001
0000
0010
2000
0000
3002
0000
0013
0100
1000
0100
0010
0000
0001
0100
,
0000
0010
0000
1000
0200
0000
0320
0000
0031
0100
1000
0100
0001
0000
0010
0100
,
0000
1000
0000
0010
0200
0000
0302
0000
1003
0100
0010
0001
1000
0000
0001
0010
,
0100
0000
1000
0000
0010
0000
0000
0000
0010
0000
1000
0000
0100
1000
0100
1000
0100
0000
0000
0000
1000
0000
0000
0000
0100
0000
0000
0000
0010
0000
0000
0000
,
0001
0100
0001
0000
1000
0000
0000
0000
0100
0000
0010
0000
0001
0000
0100
0000
,
0010
1000
0010
0000
0100
0000
0000
0000
0001
0000
0010
0000
0100
0000
1000
0000
,
0001
0010
0001
0000
1000
0000
0000
0000
0001
0000
0010
0000
0001
0000
0100
0000
,
0010
0100
0010
0000
1000
0000
0000
0000
0010
0000
0100
0000
1000
0000
0100
0000
,
0001
0010
0001
0000
0100
0000
0000
0000
0010
0000
1000
0000
0100
0000
0001
0000
,
0100
0010
0100
0000
0010
0000
0000
0000
0001
0000
0100
0000
0010
0000
1000
0000
,
0010
0100
0010
0000
0100
0000
0000
0000
0001
0000
1000
0000
0010
0000
0100
0000
,
0002
1000
1003
0000
0100
0010
0001
0100
,
0010
1000
0010
0000
0100
0000
0000
0000
0001
0000
1000
0000
0100
0000
0010
0000
,
0100
1000
0100
0000
1000
0000
0000
0000
0001
0000
0010
0000
0001
0000
0100
0000
,
0001
1000
0001
0000
0100
0000
0000
0000
0010
0000
1000
0000
0100
0000
0001
0000
,
0100
1000
0100
0000
0010
0000
0000
0000
0100
0000
1000
0000
0010
0000
0100
0000
,
0001
0010
0001
0000
0100
0000
0000
0000
0010
0000
1000
0000
0001
0000
0010
0000
,
0001
1000
0001
0000
0100
0000
0000
0000
0010
0000
0100
0000
1000
0000
0100
0000
,
0001
0010
0001
0000
1000
0000
0000
0000
0100
0000
0010
0000
0001
0000
0000
0000
,
0002
0000
1000
0000
1000
0000
0000
0000
1003
0100
0010
0001
0200
0000
0010
0000
,
0310
0000
0000
1000
0002
0000
0000
1000
1003
0100
0010
0001
2000
0000
0001
0000
,
3001
0000
0000
0001
0200
0000
0010
0000
0310
1000
0100
1000
0010
0000
0100
0000
,
0100
0000
0000
0100
0002
0000
0000
1000
1003
0001
0100
0010
2000
0000
0100
0000
,
3100
0000
0000
0100
0020
0000
0032
0000
1003
0010
1000
0001
0200
0000
0001
0000
,
0301
0000
0000
0001
0200
0000
0000
0010
0310
1000
0100
0010
0002
0000
1000
0000
,
1003
0000
0000
1000
0020
0000
0230
0000
0301
0010
0100
1000
0001
0000
1000
0100
,
0010
0001
1000
0000
0010
0000
0000
0010
1000
0100
1000
0001
0200
0000
0310
0000
,
1000
0010
0100
0001
0000
1000
0000
1002
0000
1003
0010
0100
0001
0000
0010
0001
,
0000
0100
0000
0010
0000
1000
0000
0001
0000
0001
0100
0001
1000
0000
1000
0010
,
0000
1000
0000
0100
0000
0020
0000
0000
0031
1000
0100
0010
0001
0000
0100
0010
,
0000
1000
0000
0100
0010
0000
0001
0000
0100
0001
0010
0100
1000
0000
0010
0100
,
0000
0001
0000
0010
0100
1000
0002
0000
0103
0000
0010
0000
0100
0000
0100
0000
,
0000
0100
0010
0100
0001
0010
1000
0010
,
0002
0000
2003
0000
3010
0100
0010
1000
,
0000
0010
1000
0001
0010
0001
1000
0100
,
0010
0100
0200
0000
1300
0001
1000
1000
,
0000
1000
0100
1000
0010
0100
0001
0010
,
0200
0000
2300
0000
3010
0001
0010
0100
,
0000
0010
0100
1000
0100
0001
0010
0100
,
0010
0001
0002
0000
1003
0100
1000
0100
,
1000
0010
1000
0010
0100
0010
0100
0010
,
0100
0001
0100
0001
1000
0100
1000
0100
,
0010
0001
0010
0001
0100
0010
0100
0010
,
1000
0001
0002
0000
1003
0100
0010
0100
,
1000
0010
0100
0010
1000
0001
0010
0001
,
1000
0100
0010
0001
0100
1000
0100
0001
,
0010
1000
0010
0001
0100
0010
1000
0100
,
0010
0001
0002
0000
2000
0000
0000
0000
,
0000
0000
0000
0000
,
3003
0000
0000
0000
;

//---------------dance-single - DDRDAIKENKAI----------------
#NOTES:
     dance-single:
     DDRDAIKENKAI:
     Medium:
     6:
     0.456,0.553,0.007,0.424,0.031: // measure 1
0000
0000
0000
0000
,  // measure 2
0000
0000
0000
0000
,  // measure 3
0000
0000
0000
0000
,  // measure 4
0000
0000
0000
0000
,  // measure 5
0001
0000
0001
0001
0000
1000
0000
0001
,  // measure 6
0000
1000
0000
0001
0002
0000
2003
0000
,  // measure 7
3100
0000
0100
0010
0000
0100
0000
0100
,  // measure 8
0000
0100
0000
0100
0010
0001
0002
0000
,  // measure 9
1003
0000
1000
1000
0000
0010
0000
0100
,  // measure 10
0000
0001
0000
1000
2000
0000
3002
0000
,  // measure 11
0103
0000
0100
0010
0000
0100
0000
0100
,  // measure 12
0000
0100
0000
0100
0001
0010
0020
0000
,  // measure 13
0130
0000
0010
0000
0001
1000
0100
0000
,  // measure 14
1000
0000
0001
0000
0100
0010
1000
0000
,  // measure 15
0100
0000
0010
0000
0001
0010
0100
0000
,  // measure 16
1000
0000
0001
0000
0100
0010
1000
0000
,  // measure 17
0010
0000
0100
0000
0001
0010
0100
0000
,  // measure 18
1000
0000
0001
0000
0100
0010
1000
0000
,  // measure 19
0100
0000
0010
0000
0001
0100
0001
0000
,  // measure 20
0010
0100
0010
0000
0100
1000
0100
0000
,  // measure 21
1000
0000
0010
0000
1000
0001
1000
0000
,  // measure 22
0100
0000
0010
0000
0001
0100
0001
0000
,  // measure 23
0010
0000
0100
0000
1000
0010
1000
0000
,  // measure 24
0001
0000
0100
0000
0001
0010
0001
0000
,  // measure 25
1000
0000
0001
0000
0100
0010
1000
0000
,  // measure 26
0001
0000
1000
0000
0010
0100
0001
0000
,  // measure 27
0020
0130
1100
2000
,  // measure 28
3002
0000
0100
0100
0203
0000
0310
1000
,  // measure 29
2000
0000
3001
0000
0020
0000
0130
0010
,  // measure 30
0020
0000
0031
0000
2000
0000
3001
0100
,  // measure 31
0200
0000
0310
0000
2000
0000
3001
0010
,  // measure 32
0020
0000
0130
0010
0002
0000
1003
0100
,  // measure 33
0020
0000
0130
0000
2000
0000
3001
0100
,  // measure 34
0020
0000
0130
0000
0002
0000
1003
0001
,  // measure 35
0200
0000
0310
0000
2000
0000
3100
0010
,  // measure 36
0001
0000
0100
0000
0010
1000
0010
1000
0001
0000
0010
0000
0001
0000
0010
0000
,  // measure 37
0100
1000
0001
0100
,  // measure 38
0020
0000
1030
0000
1000
0100
1000
0100
,  // measure 39
0010
0001
0100
0010
,  // measure 40
2000
0000
3010
0000
0100
0001
0100
0001
,  // measure 41
1000
0010
0100
0001
,  // measure 42
1000
0000
0100
0000
0010
0001
0010
0001
,  // measure 43
0100
0000
0010
0000
1000
0001
1000
0001
,  // measure 44
2000
0000
3001
0000
0100
0010
0100
0010
,  // measure 45
1000
0001
1000
0010
,  // measure 46
0200
0000
0301
0000
0010
0100
0010
0100
,  // measure 47
1000
0001
0100
0010
,  // measure 48
0200
0000
0301
0000
1000
0010
1000
0010
,  // measure 49
0100
0001
0010
0001
,  // measure 50
0200
0000
0310
0000
1000
0100
0010
0001
,  // measure 51
0100
0000
0100
0000
0001
0010
0100
1000
,  // measure 52
0002
0000
0000
0000
0003
0000
0000
0000
0100
0010
0100
0010
2000
0000
0001
0000
,  // measure 53
3001
0000
0200
0000
0302
0000
0013
0100
,  // measure 54
1000
0000
0001
0100
0020
0000
1030
0100
,  // measure 55
0020
0000
0000
0000
0032
0000
0000
0000
1003
0100
1000
0100
1000
0000
0000
0000
,  // measure 56
0001
0000
2000
0001
3002
0000
0103
0010
,  // measure 57
1000
0000
0002
0000
0023
0000
0130
0010
,  // measure 58
0001
0000
0000
0000
0100
0000
0010
0000
2000
0000
0000
3010
0000
0000
0020
0000
,  // measure 59
0000
0130
0000
0000
0200
0000
0000
0301
1000
0000
0001
0000
1000
0000
0000
0000
,  // measure 60
1000
0010
0100
0001
2000
3100
0200
0310
,  // measure 61
0001
0100
0010
1000
0200
0310
0020
0031
,  // measure 62
0001
0100
0010
2000
3001
0100
0001
1000
,  // measure 63
0100
0010
0001
0001
1000
0010
1000
0001
,  // measure 64
0010
0100
1000
1000
0010
0000
0010
0010
,  // measure 65
0000
0100
0000
0001
0000
1000
0000
1000
,  // measure 66
2000
0000
3002
0000
0103
0000
0100
0010
,  // measure 67
0000
0100
0000
0001
0000
1000
0000
0100
,  // measure 68
0010
0001
0002
0000
1003
0000
1000
1000
,  // measure 69
0000
0001
0000
0100
0000
0010
0000
1000
,  // measure 70
2000
0000
3002
0000
0103
0000
0100
0010
,  // measure 71
0000
0100
0000
0001
0000
0100
0000
0100
,  // measure 72
0001
1000
0002
0000
0013
0000
0010
0010
,  // measure 73
0000
0001
0000
0001
0000
0001
0000
0001
,  // measure 74
0002
0000
2003
0000
3100
0000
0100
0010
,  // measure 75
0000
0100
0000
0100
0000
0100
0000
0100
,  // measure 76
1000
0001
0002
0000
1003
0000
1000
1000
,  // measure 77
0000
0001
0000
0001
0000
0001
0000
0001
,  // measure 78
2000
0000
3002
0000
0103
0000
0100
0010
,  // measure 79
0000
0100
0000
0100
0000
0100
0000
0100
,  // measure 80
0010
1000
2000
0000
0002
0000
0000
0000
,  // measure 81
0000
0000
0000
0000
,  // measure 82
3003
0000
0000
0000
;

//---------------dance-single - DDRDAIKENKAI----------------
#NOTES:
     dance-single:
     DDRDAIKENKAI:
     Easy:
     4:
     0.319,0.415,0.007,0.417,0.000:
0000
0000
0000
0000
,
0000
0000
0000
0000
,
0000
0000
0000
0000
,
0000
0000
0000
0000
,
0001
0001
0000
0100
,
0010
0100
0001
1000
,
0100
0100
0000
0010
,
0001
0010
0100
1000
,
0010
0010
0000
1000
,
0010
0100
0001
1000
,
0100
0100
0000
0010
,
0001
0100
0001
0002
,
1003
0100
0010
0001
,
1000
0010
0100
0001
,
1000
0000
0001
0000
,
0100
0000
0010
0000
,
1000
0100
0010
0001
,
1000
0010
0100
0001
,
0200
0300
0002
0003
,
2000
0000
3002
0003
,
0010
0001
0100
0010
,
1000
0100
0010
0001
,
2000
3000
0002
0003
,
0200
0300
0010
0100
,
0020
0000
0130
0010
,
1000
0100
0010
0001
,
0200
0310
0000
2000
,
3002
0000
0203
0310
,
0020
1030
2000
3001
,
0002
0013
0200
0310
,
0020
0031
0002
1003
,
0001
0000
0100
0100
0020
0000
1030
0000
,
2000
3100
0200
0310
,
0020
0031
2000
3001
,
0200
0310
2002
3003
,
0001
0001
0002
0000
1003
0000
0100
0000
,
2000
3000
0010
0100
,
0002
0003
0010
0100
,
2000
3000
0100
0010
,
0002
0003
0100
0010
,
0200
0300
0001
1000
,
0200
0300
0010
0001
,
0020
0030
0100
1000
,
0002
0003
0100
0010
,
2000
3000
0010
0100
,
0002
0003
1000
0100
,
2000
3000
0001
0010
,
0200
0300
0010
0001
,
0200
0300
0010
1000
,
0020
0030
1000
0001
,
2000
3000
0001
1000
,
0200
0000
0300
0000
0010
0001
0020
0000
,
0030
0200
2000
0000
,
3300
0000
0002
0000
0203
0000
0310
0010
,
2000
0000
3002
0000
1003
1000
2000
0000
,
3100
0000
0010
0010
0020
0000
0002
0000
,
0033
0200
0020
0000
,
0330
0000
1000
1000
2000
0000
3010
0000
,
0200
0000
0301
0000
0010
0010
0010
0000
,
0100
0100
0100
0100
1000
0000
0100
0000
,
0010
0001
0100
0010
,
1000
0000
0200
0300
0000
1000
0000
0010
,
0000
0100
0000
0001
0000
0010
0000
0100
,
0000
1000
0001
0001
1000
0000
0100
0000
,
0000
1000
0001
0100
,
0010
1000
0001
0100
,
0000
0001
1000
0010
,
0100
0001
1000
0010
,
0000
1000
0001
0010
,
0100
1000
0001
0010
,
0000
0001
0100
0010
,
1000
0100
1000
1000
,
0000
0001
0010
0001
,
0100
0010
0100
0100
,
0000
0010
1000
0001
,
0010
0001
0010
0010
,
0000
0100
0010
0001
,
1000
1000
0001
0001
,
0000
0100
0100
0010
,
1000
0002
2000
0000
,
0000
0000
0000
0000
,
0000
3003
0000
0000
0000
0000
0000
0000
0000
0000
0000
0000
0000
0000
0000
0000
0000
0000
0000
0000
0000
0000
0000
0000
0000
0000
0000
0000
0000
0000
0000
0000
0000
0000
0000
0000
0000
0000
0000
0000
0000
0000
0000
0000
0000
0000
0000
0000
0000
0000
0000
0000
0000
0000
0000
0000
0000
0000
0000
0000
0000
0000
0000
0000
0000
0000
0000
0000
0000
0000
0000
0000
0000
0000
0000
0000
0000
0000
0000
0000
0000
0000
0000
0000
0000
0000
0000
0000
0000
0000
0000
0000
0000
0000
0000
0000
0000
0000
0000
0000
0000
0000
0000
0000
0000
0000
0000
0000
0000
0000
0000
0000
0000
0000
0000
0000
0000
0000
0000
0000
0000
0000
0000
0000
0000
0000
0000
0000
0000
0000
0000
0000
0000
0000
0000
0000
0000
0000
0000
0000
0000
0000
0000
0000
0000
0000
0000
0000
0000
0000
0000
0000
0000
0000
0000
0000
0000
0000
0000
0000
0000
0000
0000
0000
0000
0000
0000
0000
0000
0000
0000
0000
0000
0000
0000
0000
0000
0000
0000
0000
0000
0000
0000
0000
0000
0000
0000
0000
0000
0000
0000
0000
;
