#TITLE:Show Me Love;
#SUBTITLE:(Not a Dream);
#ARTIST:宇多田ヒカル;
#TITLETRANSLIT:;
#SUBTITLETRANSLIT:;
#ARTISTTRANSLIT:Utada Hikaru;
#GENRE:J-Rock;
#CREDIT:;
#MENUCOLOR:;
#NEWMETERSYSTEM:NO;
#BANNER:Show Me Love (Not a Dream).png;
#BACKGROUND:Show Me Love (Not a Dream)-bg.png;
#LYRICSPATH:;
#CDTITLE:;
#MUSIC:Show Me Love (Not a Dream).ogg;
#OFFSET:-0.002;
#SAMPLESTART:16.850;
#SAMPLELENGTH:20.700;
#SELECTABLE:YES;
#LISTSORT:;
#BPMS:0.000=109.995,32.000=219.990,256.000=109.995,288.000=219.990,336.000=109.995;
#STOPS:;
#BGCHANGES:30.500=Show Me Love (Not a Dream).avi=1.000=1=0=0,
99999=-nosongbg-=1.000=0=0=0 // don't automatically add -songbackground-
;
#ATTACKS:;

//---------------dance-single - DDRDAIKENKAI----------------
#NOTES:
     dance-single:
     DDRDAIKENKAI:
     Hard:
     9:
     0.602,0.760,0.195,0.263,0.008:
0000
0000
0000
0000
,
0000
0000
0000
0000
,
0000
0000
0000
0000
,
0000
0000
0000
0000
0000
0000
1000
0001
,
1000
0001
0100
0020
0000
0000
0130
0100
,
0001
0010
0100
2000
0000
0000
3001
0001
,
2000
0001
0001
3002
0000
0200
0003
0000
,
0010
0010
0010
0010
0010
0310
0110
0000
,
2001
0000
0000
3001
0010
0000
0010
0100
,
0000
1000
0001
0000
1000
0000
0010
0000
,
0001
0020
2030
3200
,
0000
0000
0310
0000
0010
0000
0001
1000
,
0001
0000
0100
0010
0100
0000
0100
0010
,
0000
0010
1000
0000
1000
0001
1000
0000
,
0001
0000
1000
0100
1000
0000
0001
1000
,
0000
0001
1000
0000
0010
0100
0010
0100
,
0020
0000
0030
0100
0010
0000
0010
1000
,
0000
1000
0100
0000
0110
0000
0010
0001
,
1000
0000
0100
0000
1100
0000
1000
0001
,
0000
0001
1000
0000
1001
0000
0001
0100
,
0002
0000
0100
0000
0103
0000
0001
1000
,
0000
1000
0100
0000
0110
0000
0010
0000
,
0001
0100
1000
0100
,
0001
1000
0001
0000
1000
0001
1000
0000
,
0001
0010
0000
0010
0001
0000
0001
0010
,
0000
0010
0001
0000
0010
0001
0010
0001
,
0100
0010
0000
0010
0100
0000
0100
0010
,
0000
0010
0100
0000
0100
0010
0100
0010
,
1000
0100
0000
0100
1000
0000
1000
0100
,
0000
0100
1000
0000
1000
0100
1000
0000
,
1001
1001
0000
1001
1001
0000
1001
1001
,
0000
1001
1001
0000
1000
0001
2000
0000
,
3001
0000
0001
0000
1000
0100
0000
1000
,
0000
0000
0001
0000
0010
0100
0000
0000
,
1000
0000
0001
0000
0100
0001
0000
0100
,
0000
0000
0001
0000
0010
0100
0000
0000
,
1000
0000
0001
0000
0010
0001
0000
0010
,
0000
0000
0001
0000
1000
0100
0000
0000
,
1000
0000
0001
0000
0100
0001
0000
0100
,
0010
0000
0010
0000
1000
0001
1000
0000
,
0100
0000
0100
0000
1000
0100
0000
0100
,
0000
0000
0010
0000
0001
1000
0000
1000
,
0100
0000
0100
0000
0001
0100
0000
0100
,
0000
0000
1000
0000
0001
1000
0000
1000
,
0001
0000
0001
0000
1000
0001
0000
0001
,
0000
0000
1000
0000
0010
0100
0000
0100
,
0001
1000
0001
0000
0100
0010
0100
0000
,
0001
1000
0001
0000
0100
0010
0100
0000
,
0001
0010
0000
0001
0010
0000
0001
0010
,
0000
0001
0010
0000
0100
1000
0100
0000
,
1000
0010
0000
1000
0010
0000
1000
0010
,
0000
1000
0010
0000
0100
0001
0100
0000
,
0001
1000
0000
0001
1000
0000
0001
1000
,
0000
0001
1000
0000
0100
0010
0100
0000
,
1000
0010
0000
1000
0010
0000
1000
0010
,
0000
1000
0010
0000
1000
0100
1000
0100
,
0010
0001
0010
0001
0100
0000
0100
0010
,
0000
0010
1000
0000
1000
0100
1000
0100
,
1000
0001
1000
0001
0100
0000
0100
0010
,
0000
0010
0100
0000
0100
0001
0100
0001
,
0010
0001
0010
0001
0100
0000
0100
0010
,
0000
0010
1000
0000
1000
0001
1000
0000
,
1001
1001
0000
1001
1001
0000
1001
1001
,
0000
1001
1001
0000
0001
1000
0002
0000
,
2000
0000
0000
0000
3003
1000
0010
0100
,
0001
0000
2000
0000
3020
0000
2030
0000
0000
0000
3002
0000
0100
0000
0103
0010
,
0000
0000
0200
0000
0000
0000
0000
0000
0000
0000
0000
0000
0000
0000
0000
0000
0000
0000
0000
0000
0000
0000
0000
0000
0000
0000
0000
0000
0000
0000
0000
0000
0000
0300
0000
0000
0000
0000
0000
0000
0000
0000
0000
0000
0000
0000
0000
0000
0000
0000
0000
0000
0000
0000
0000
0000
0001
0000
0000
0000
0000
0000
0000
0000
,
0002
0000
0013
0020
0000
0230
0000
1300
,
2000
0000
3000
0001
0200
0000
0301
2000
,
0000
3001
0010
2000
0000
3010
0200
0000
,
0310
0100
1000
0020
0000
0130
0000
0001
,
1000
0001
1000
0100
1000
0010
0100
0001
,
1000
0010
1000
0010
0100
0000
0100
0001
,
0100
0001
1000
0000
1000
0001
1000
0000
,
0001
0100
0001
0100
0001
0000
0001
0010
,
0001
0010
0100
0000
1000
0010
1000
0000
,
1000
0001
1000
0001
0100
0000
0100
0010
,
0100
0010
1000
0000
1000
0100
1000
0000
,
1000
0001
1000
0001
0010
0000
0001
0000
,
0100
0010
1000
0000
0010
0100
0002
0000
,
0013
0001
0100
0010
1000
0000
0010
1000
,
0001
1000
0100
0000
1000
0001
1000
0001
,
1000
0100
0010
0100
1000
0000
1000
0010
,
0100
0010
0100
0001
1000
0001
1000
0000
,
2001
0000
0000
0200
0000
0000
0000
0000
,
0000
3300
0000
0000
;

//---------------dance-single - DDRDAIKENKAI----------------
#NOTES:
     dance-single:
     DDRDAIKENKAI:
     Medium:
     6:
     0.404,0.615,0.051,0.492,0.000: // measure 1
0000
0000
0000
0000
,  // measure 2
0000
0000
0000
0000
,  // measure 3
0000
0000
0000
0000
,  // measure 4
0000
0000
0000
0000
,  // measure 5
0000
0000
0000
0000
,  // measure 6
0000
0000
0000
0000
,  // measure 7
0000
0000
0000
0000
,  // measure 8
0000
0000
0000
0100
,  // measure 9
2001
0000
3010
0000
,  // measure 10
0100
0001
0010
0100
,  // measure 11
0010
0002
0000
2003
,  // measure 12
0000
0000
3200
0000
0000
0000
1300
0001
,  // measure 13
1000
0000
0001
0000
,  // measure 14
0100
0010
1000
0100
,  // measure 15
2000
3000
0010
0020
,  // measure 16
0000
0130
0000
0002
,  // measure 17
1003
0000
1001
0001
,  // measure 18
1000
0100
1000
0020
,  // measure 19
0000
1030
0001
0020
,  // measure 20
0000
0031
1000
0020
,  // measure 21
0000
1030
0100
0020
,  // measure 22
0000
0130
0000
1000
,  // measure 23
0001
0010
0001
0010
,  // measure 24
0100
1000
0100
1000
,  // measure 25
2001
0000
3002
0000
,  // measure 26
0103
0010
0100
0001
,  // measure 27
0020
0000
0130
1000
,  // measure 28
0001
0100
0010
1000
,  // measure 29
0200
0000
0320
0000
,  // measure 30
0031
1000
0100
0100
,  // measure 31
1000
0001
0000
1000
0001
0000
1000
0001
,  // measure 32
0000
1000
0001
0000
1000
0001
1000
0000
,  // measure 33
0001
0100
0010
1000
,  // measure 34
0010
0010
0010
0010
,  // measure 35
0200
0000
0301
0020
,  // measure 36
0000
0130
1000
0000
,  // measure 37
0001
0100
0010
0000
,  // measure 38
0010
1000
0100
0010
,  // measure 39
0002
0000
1003
0020
,  // measure 40
0000
0130
0110
0100
,  // measure 41
0001
0010
0100
0010
,  // measure 42
0100
1000
0001
0200
,  // measure 43
0000
0310
1000
1000
,  // measure 44
0010
0001
0020
2030
,  // measure 45
3100
0000
0100
0000
1000
0000
0000
1000
,  // measure 46
0000
0001
0100
0001
,  // measure 47
0020
0000
0230
0000
,  // measure 48
1300
0001
0200
0000
,  // measure 49
0320
0000
1000
0000
,  // measure 50
1030
0100
0020
0000
,  // measure 51
0032
0000
0100
0000
,  // measure 52
0013
0001
0001
0100
,  // measure 53
0200
0000
0010
0010
,  // measure 54
0320
0000
1000
0000
2030
0000
0000
3200
,  // measure 55
0000
2000
0000
0000
,  // measure 56
3300
0000
0000
0000
1000
0001
1000
0000
,  // measure 57
0002
0000
0100
0000
,  // measure 58
0103
0010
2000
0000
,  // measure 59
3200
0000
0010
0000
,  // measure 60
0310
0001
1000
0010
,  // measure 61
0200
0000
0302
0000
,  // measure 62
0013
0100
2000
0000
,  // measure 63
3001
1000
0000
0001
1000
0000
0001
1000
,  // measure 64
0000
0001
1000
0000
0002
0000
0000
0000
,  // measure 65
0023
0000
0000
0000
0030
0100
0100
1000
,  // measure 66
0001
0200
0000
0320
0000
2030
0000
3100
,  // measure 67
0200
0000
0000
0000
0300
0000
0000
0010
,  // measure 68
0020
0000
0031
0002
0000
2003
0000
0200
,  // measure 69
0000
3300
0000
1000
0010
0000
0010
1000
,  // measure 70
0000
1000
0001
0200
0000
0301
0200
0000
,  // measure 71
0310
1000
0100
0020
0000
0130
0000
1000
,  // measure 72
0010
0100
0010
0100
0001
1000
0001
1000
,  // measure 73
1001
0001
0001
0001
,  // measure 74
1000
0100
0010
0100
,  // measure 75
1000
1000
1000
1000
,  // measure 76
0001
0001
1000
0100
,  // measure 77
0010
0010
0010
0010
,  // measure 78
0001
0100
0010
1000
,  // measure 79
0100
0100
1000
0001
,  // measure 80
2000
3002
2003
0010
,  // measure 81
3010
0100
0001
0100
,  // measure 82
0010
1000
0100
0010
,  // measure 83
0100
1000
0001
0010
,  // measure 84
0100
1000
0010
0100
,  // measure 85
0120
0000
0000
0200
0000
0000
0000
0000
,  // measure 86
0000
0330
0000
0000
;

//---------------dance-single - DDRDAIKENKAI----------------
#NOTES:
     dance-single:
     DDRDAIKENKAI:
     Easy:
     4:
     0.255,0.466,0.119,0.323,0.000:
0000
0000
0000
0000
,
0000
0000
0000
0000
,
0000
0000
0000
0000
,
0000
0000
0000
0000
,
0000
0000
0000
0000
,
0000
0000
0000
0000
,
0000
0000
0000
0000
,
0000
0000
0000
0100
,
2002
0000
0000
3003
,
0000
0000
0001
0000
,
1000
0000
0100
0000
,
0010
0000
0001
0000
,
2002
0000
3003
0000
,
0100
0000
0100
0000
,
0001
0000
1000
0000
,
0010
0000
0100
0000
,
0220
0000
0330
0000
,
0100
0000
0001
0000
,
1000
0000
0100
0000
,
0010
0000
0100
0000
,
1000
0000
0001
0000
,
0010
0000
0100
0000
,
0010
0000
0010
0000
,
0001
0000
1001
0000
,
2200
0000
0000
0000
,
3300
0000
1000
0000
,
2020
0000
3030
0000
,
0010
0000
0100
0000
,
0220
0000
0000
0000
,
0000
0000
0330
0000
,
2002
0000
0000
0000
,
0000
0000
3003
0000
,
1001
0000
1000
0000
,
0100
0000
0100
0000
,
1000
0000
0001
0000
,
0100
0000
0010
0000
,
0100
0100
0100
0000
,
0010
0000
0010
0000
,
1000
1000
1000
0000
,
0001
0001
0001
0000
,
0010
0000
0001
0000
,
0100
0000
0010
0000
,
1000
0000
0100
0000
,
0010
0010
0010
0000
,
0001
0000
1000
0000
,
0100
0100
0100
0000
,
2000
0000
3002
0000
,
0203
0000
0320
0000
,
0230
0000
0000
0000
,
0000
0000
0310
0000
,
2000
0000
0000
0000
,
3000
0000
0001
0001
,
0002
0000
0000
0103
,
0100
0010
0010
0000
,
2000
0002
0000
0000
,
3003
0000
0100
0100
,
0200
0000
0000
0000
,
0000
0000
0310
0000
,
0020
0000
0000
0000
,
0030
0000
1000
1000
,
0002
0000
1000
0000
,
1000
0000
1003
0000
,
2002
0000
0000
0000
,
3003
0000
0100
0000
,
2002
0000
3003
0001
,
0001
0002
0000
0023
0000
0230
0000
0300
,
1000
2000
0000
0000
3000
0000
0000
1000
,
2000
3001
0100
0010
,
2000
0000
3000
0010
0010
0000
0010
0010
,
0000
1000
0000
0100
0000
1000
1000
0000
,
0010
0000
0100
0100
0000
0001
0000
1000
,
1000
0010
1000
1001
,
0101
0000
0001
0000
,
0010
0000
0100
0000
,
1000
0000
0010
0000
,
0100
0100
0100
0000
,
0010
0000
1000
0000
,
0001
0000
0100
0000
,
0010
0000
1000
0000
,
0001
0001
0001
0000
,
0010
0000
0001
0000
,
0100
0000
0010
0010
,
0010
0000
1000
1000
,
1000
0000
0001
0000
,
2002
0000
0000
0000
0000
0000
0000
0000
0000
0000
0000
0000
0000
0000
0000
0000
0000
0000
0000
0000
0000
0000
0000
0000
0000
0000
0000
0000
0000
0000
0000
0000
0000
0000
0000
0000
0000
0000
0000
0000
0000
0000
0000
0000
0000
0000
0000
0000
0000
0000
0000
0000
0000
0000
0000
0000
0000
0000
0000
0000
0000
0000
0000
0000
0000
0000
0000
0000
0000
0000
0000
0000
0000
3003
0000
0000
0000
0000
0000
0000
0000
0000
0000
0000
0000
0000
0000
0000
0000
0000
0000
0000
0000
0000
0000
0000
0000
0000
0000
0000
0000
0000
0000
0000
0000
0000
0000
0000
0000
0000
0000
0000
0000
0000
0000
0000
0000
0000
0000
0000
0000
0000
0000
0000
0000
0000
0000
0000
0000
0000
0000
0000
0000
0000
0000
0000
0000
0000
0000
0000
0000
0000
0000
0000
0000
0000
0000
0000
0000
0000
0000
0000
0000
0000
0000
0000
0000
0000
0000
0000
0000
0000
0000
0000
0000
0000
0000
0000
0000
0000
0000
0000
0000
0000
0000
0000
0000
0000
0000
0000
0000
0000
0000
0000
0000
0000
0000
0000
0000
0000
0000
0000
;
