#TITLE:Prisoner of Love;
#SUBTITLE:;
#ARTIST:宇多田ヒカル;
#TITLETRANSLIT:;
#SUBTITLETRANSLIT:;
#ARTISTTRANSLIT:Utada Hikaru;
#GENRE:R&B;
#CREDIT:;
#MENUCOLOR:;
#NEWMETERSYSTEM:NO;
#BANNER:Prisoner of Love.png;
#BACKGROUND:Prisoner of Love-bg.png;
#LYRICSPATH:Prisoner of Love.lrc;
#CDTITLE:;
#MUSIC:Prisoner of Love.ogg;
#OFFSET:-2.474;
#SAMPLESTART:60.960;
#SAMPLELENGTH:21.600;
#SELECTABLE:YES;
#LISTSORT:;
#BPMS:0.000=97.000;
#STOPS:;
#BGCHANGES:;
#ATTACKS:;

//---------------dance-single - DDRDAIKENKAI----------------
#NOTES:
     dance-single:
     DDRDAIKENKAI:
     Hard:
     7:
     0.364,0.372,0.114,0.221,0.183: // measure 1
0000
0000
0000
0000
,  // measure 2
0000
0000
0000
0000
,  // measure 3
0000
0000
0000
0000
,  // measure 4
0000
0000
0000
0000
0000
0010
0100
0001
,  // measure 5
0010
0000
0001
0010
0000
0100
0000
2000
0000
0000
0010
0000
3010
0000
0000
0010
,  // measure 6
0100
0000
0001
0100
0000
0001
0000
0010
0000
0010
0002
0000
0203
0000
0302
0000
,  // measure 7
0013
0100
0010
0100
0010
0100
0010
0100
,  // measure 8
1000
1000
0000
0000
0020
0000
0030
0000
,  // measure 9
1001
0001
1000
0001
0010
0100
2000
0001
,  // measure 10
3001
1000
0100
1000
0010
0100
0002
1000
,  // measure 11
1003
0100
0001
0000
0100
1000
0010
0000
,  // measure 12
1000
0000
0100
0000
0010
0000
0001
0000
0100
0000
0000
0010
0000
0000
0110
0000
,  // measure 13
0010
1000
0100
1000
0010
0100
0002
0010
,  // measure 14
0013
1000
0010
0001
0010
0100
2000
0010
,  // measure 15
3010
0100
0101
0000
0010
0100
1100
0000
,  // measure 16
2000
0000
0000
0000
3001
0000
0100
0000
0020
0000
0000
1030
1002
0000
0000
0000
,  // measure 17
1003
0100
1000
0001
1000
0010
1000
0100
,  // measure 18
1100
0000
0110
0100
1000
0010
0001
0010
,  // measure 19
0100
0001
0010
0001
1000
0001
0010
0001
,  // measure 20
0101
0000
0110
0010
1000
0100
1000
0010
,  // measure 21
0100
0001
0100
0010
0100
1000
0100
0001
,  // measure 22
0101
0000
0110
0010
1000
0100
1000
0010
,  // measure 23
0021
0000
2030
0000
3200
0000
0310
0001
,  // measure 24
1000
0000
0001
1000
0100
1000
0010
1000
0001
1000
0100
0010
0001
0100
0020
0000
,  // measure 25
1000
0000
1030
0000
1000
0100
0010
0000
0001
0000
0001
0000
0100
0010
1000
0000
,  // measure 26
0010
0000
0100
0001
0000
1000
0000
0001
0000
0000
0001
0000
0010
0100
0010
0000
,  // measure 27
0100
0000
1000
0010
0000
1000
0000
0010
0000
0000
0010
0000
0100
0000
0001
0000
,  // measure 28
0002
0000
0000
0000
0203
0000
0000
0000
0310
0000
1000
0000
0001
0100
0001
0000
,  // measure 29
1000
0000
0010
0000
0100
0001
0100
0000
0010
0000
1000
0000
0001
0010
0001
0000
,  // measure 30
1000
0000
0100
0010
0000
0100
0000
1000
0000
0000
0001
0000
0010
0000
0100
0000
,  // measure 31
1000
0000
0010
0001
0000
0010
0000
1000
0000
0000
0001
0000
0011
0000
0001
0100
,  // measure 32
0001
0000
0100
0010
0000
1000
0000
0001
0000
0000
1000
0000
1001
0000
0000
0000
,  // measure 33
1000
0000
0100
0000
1000
0000
0010
0100
0000
0010
0100
0000
0001
0000
1000
0000
,  // measure 34
0100
0000
0001
0000
0100
0000
0010
0001
0000
0010
0001
0000
1000
0000
0001
0000
,  // measure 35
0100
0000
0010
0000
1000
0000
0100
0010
0000
0100
0010
0000
0001
0000
0100
0000
,  // measure 36
0010
1000
0100
1000
0010
0200
0302
2003
,  // measure 37
3100
0000
0001
0000
0100
0000
1000
0001
0000
1000
0100
0000
1000
0000
0010
0000
,  // measure 38
0100
0000
0001
0000
0010
0000
0001
0100
0000
0010
1000
0000
0100
0000
0010
0000
,  // measure 39
0001
0100
1000
0100
0001
0010
1000
0010
,  // measure 40
0100
0002
0203
2300
3020
0032
0023
1030
,  // measure 41
2002
0000
0000
0000
0000
3003
0000
0000
;

//---------------dance-single - DDRDAIKENKAI----------------
#NOTES:
     dance-single:
     DDRDAIKENKAI:
     Medium:
     4:
     0.252,0.248,0.031,0.160,0.000:
0000
0000
0000
0000
,
0000
0000
0000
0000
,
0000
0000
0000
0000
,
0000
0000
0000
0000
0000
0001
1000
0001
,
1000
0001
0100
0010
1000
0000
0001
0000
,
0010
0100
1000
0001
0200
0000
0320
0000
,
1030
0001
1000
0001
1000
0001
1000
0001
,
0100
0100
0000
0000
0020
0000
0030
0000
,
0110
0000
0010
1000
0100
0000
2000
0000
,
3001
0000
0100
0001
0010
0000
0002
0000
,
1003
0000
0001
0000
1000
0001
0100
0000
,
0010
1000
0001
1001
,
1000
0000
0010
1000
0100
0000
2000
0000
,
3010
0000
0100
0001
0010
0000
0002
0000
,
0013
0100
1000
0000
0100
0010
0001
0000
,
0100
0000
0010
1000
0100
0000
1000
0000
,
0110
0000
0001
0010
0100
0000
0100
0010
,
0001
0000
1000
0001
0100
0010
0100
0001
,
1000
0000
1000
0001
0100
0000
0100
0001
,
1000
0000
1000
0010
1000
0100
0010
0001
,
0100
0000
0100
0001
0010
0000
0010
0001
,
0100
0000
0100
0010
1000
0100
1000
0010
,
0200
0320
2030
3002
,
0200
0000
0000
0303
,
0010
1000
0100
0000
1000
0001
0100
0000
,
0001
0010
0001
0010
0100
0000
1000
0000
,
0010
0100
0010
0100
0001
0000
1000
0000
,
0200
0000
0000
0020
0000
0000
0330
0000
,
0001
0100
1000
0000
0100
0001
0010
0000
,
1000
0010
0001
0010
0100
0000
1000
0000
,
0001
0100
1000
0100
0010
0000
1000
0000
,
0100
0010
0100
1000
0001
0000
1001
0000
,
1000
0001
0100
0010
2000
0000
3001
0000
,
1000
0001
0100
0010
0200
0000
0301
0000
,
0010
0001
0100
0010
2000
0000
3001
0000
,
1000
0001
0100
0000
0010
1000
0100
0010
,
0001
0100
0001
0100
0020
0000
1030
0000
,
0001
0010
0001
0010
0200
0000
2300
0000
,
3001
0100
0010
0000
0010
1000
0100
0000
,
0100
0010
0001
0100
0010
1000
0100
0010
,
0002
0000
0000
0000
0000
0003
0000
0000
;

//---------------dance-single - DDRDAIKENKAI----------------
#NOTES:
     dance-single:
     DDRDAIKENKAI:
     Easy:
     2:
     0.183,0.202,0.130,0.145,0.000:
0000
0000
0000
0000
,
0000
0000
0000
0000
,
0000
0000
0000
0000
,
0000
0000
0000
0000
,
0001
0001
0002
0003
,
1000
1000
2000
3000
,
0010
0010
0010
0010
,
0100
0100
0000
0000
0220
0000
0330
0000
,
1001
0001
1000
0100
,
0110
0010
0001
0100
,
0220
0330
2000
3000
,
0001
1000
0100
0010
,
1001
0001
1000
0010
,
0110
0010
1000
0001
,
1002
2000
0003
3200
,
0000
0310
0001
1001
,
0001
0010
0100
1000
,
1001
1000
0001
0100
,
0010
0100
0001
1000
,
1001
0001
1000
0010
,
0100
0001
1000
0010
,
0110
0010
1000
0100
,
0120
0230
2300
3001
,
0200
0000
0300
0010
,
1001
0100
1001
0100
,
0001
0010
1000
0010
,
0001
0100
1000
0100
,
0020
0000
0030
1000
,
1001
0001
1001
1000
,
0001
0100
0010
1000
,
0100
0100
0200
0300
,
0010
0010
0020
0030
,
0001
1000
0010
0100
,
0001
0010
0100
1000
,
0010
0100
0001
1000
,
0100
0010
0001
1000
,
0010
1000
0100
1000
,
0001
0100
0001
0010
,
0001
0001
0010
0010
,
0100
0100
1000
1000
,
2002
0000
0000
0000
0000
0000
0000
0000
0000
0000
0000
0000
0000
0000
0000
0000
0000
0000
0000
0000
0000
0000
0000
0000
0000
0000
0000
0000
0000
0000
0000
0000
0000
0000
0000
0000
0000
0000
0000
0000
0000
0000
0000
0000
0000
0000
0000
0000
0000
0000
0000
0000
0000
0000
0000
0000
0000
0000
0000
0000
0000
0000
0000
0000
0000
0000
0000
0000
0000
0000
0000
0000
0000
0000
0000
0000
0000
0000
0000
0000
0000
0000
0000
0000
0000
0000
0000
0000
0000
0000
0000
0000
0000
0000
0000
0000
0000
0000
0000
0000
0000
0000
0000
0000
0000
0000
0000
0000
0000
0000
0000
0000
0000
0000
0000
0000
0000
0000
0000
0000
0000
3003
0000
0000
0000
0000
0000
0000
0000
0000
0000
0000
0000
0000
0000
0000
0000
0000
0000
0000
0000
0000
0000
0000
0000
0000
0000
0000
0000
0000
0000
0000
0000
0000
0000
0000
0000
0000
0000
0000
0000
0000
0000
0000
0000
0000
0000
0000
0000
0000
0000
0000
0000
0000
0000
0000
0000
0000
0000
0000
0000
0000
0000
0000
0000
0000
0000
0000
0000
0000
0000
0000
;
