#TITLE:One Night Magic;
#SUBTITLE:(feat. Yamada Masashi);
#ARTIST:宇多田ヒカル;
#TITLETRANSLIT:;
#SUBTITLETRANSLIT:;
#ARTISTTRANSLIT:Utada Hikaru;
#GENRE:J-POP;
#CREDIT:;
#MENUCOLOR:;
#NEWMETERSYSTEM:NO;
#BANNER:One Night Magic (feat. Yamada Masashi).png;
#BACKGROUND:One Night Magic (feat. Yamada Masashi)-bg.png;
#LYRICSPATH:One Night Magic (feat. Yamada Masashi).lrc;
#CDTITLE:CDTitle.png;
#MUSIC:One Night Magic (feat. Yamada Masashi).ogg;
#OFFSET:0.000;
#SAMPLESTART:99.300;
#SAMPLELENGTH:16.600;
#SELECTABLE:YES;
#LISTSORT:;
#BPMS:0.000=116.000;
#STOPS:;
#BGCHANGES:;
#ATTACKS:;

//---------------dance-single - DDRDAIKENKAI----------------
#NOTES:
     dance-single:
     DDRDAIKENKAI:
     Hard:
     9:
     0.594,0.523,0.089,0.164,0.732: // measure 1
0000
0000
0000
0000
,  // measure 2
0000
0000
0000
0000
,  // measure 3
0000
0000
0000
0000
,  // measure 4
0000
0000
0000
0000
0000
0000
0000
0000
0000
0000
0000
1000
0001
0000
0100
0000
,  // measure 5
0010
0000
0000
0010
1000
0000
0000
0000
0100
0000
0000
0100
1000
0000
0000
0000
,  // measure 6
0100
0000
0000
0100
0010
0000
0100
0000
1000
0001
0000
0001
1000
0000
0000
0000
,  // measure 7
0010
0000
0000
0010
1000
0000
0000
0000
0100
0000
0000
0100
0010
0000
0000
0000
,  // measure 8
0001
0000
0000
0001
1000
0000
0001
0000
0100
0010
0000
0010
0100
0000
0001
0000
,  // measure 9
1000
0000
0100
0000
1100
0000
0000
0000
1001
0000
0000
0001
0100
0001
0000
0001
,  // measure 10
1000
0000
0001
0000
1000
0010
0000
0010
0100
0000
0010
0000
1000
0000
0000
1000
,  // measure 11
0001
1000
0010
1000
0001
0010
0001
0100
,  // measure 12
0010
1000
0100
1000
0001
0100
0001
1000
,  // measure 13
0001
0000
0010
0000
0011
0000
0000
0000
1001
0000
0000
1000
0010
1000
0000
1000
,  // measure 14
0001
0000
1000
0000
0001
0100
0000
0100
0010
0000
0100
0000
0001
0000
0000
0100
,  // measure 15
0010
1000
0010
0100
0001
0010
0100
1000
,  // measure 16
0010
0000
1000
0000
0100
0000
1000
0000
0010
1000
0010
1000
0002
0000
1000
0000
,  // measure 17
1003
0000
0001
1000
0000
0001
1000
0000
0100
0000
1000
0001
0000
1000
0001
0000
,  // measure 18
0100
0000
0010
1000
0000
0010
1000
0000
0001
0000
1000
0100
0000
1000
0100
0000
,  // measure 19
0020
0000
0000
0001
0000
0000
0001
0000
0032
0000
0000
0000
0000
0000
0000
0000
,  // measure 20
2003
0000
0000
0010
0000
0000
0010
0000
3020
0000
0000
0000
2030
0000
0000
0000
,  // measure 21
3001
0000
1000
0000
0001
0100
0000
0100
0010
0000
0010
1000
0000
0000
0100
0000
,  // measure 22
1000
0000
0001
0000
0001
0100
0000
0100
0010
0000
0010
1000
0000
0000
0001
0000
,  // measure 23
0200
0000
0000
0302
0000
0000
2003
0000
0200
0000
0000
0000
3300
0000
0000
0000
,  // measure 24
0110
0000
0000
0110
0000
0000
0110
0000
1002
0000
0000
1003
0010
0000
0100
0000
,  // measure 25
0001
0000
0010
0000
0100
0000
1000
0010
0000
0100
0001
0000
2000
0000
0000
0000
,  // measure 26
3001
0000
1000
0000
0100
0000
0010
0001
0000
0100
0010
0000
2000
0000
0000
0000
,  // measure 27
3001
0000
0010
0000
0001
0000
0100
0010
0000
0100
0001
0000
1000
0100
0000
1000
,  // measure 28
0000
0001
0000
0010
0000
0100
0000
1000
0001
1000
0001
0000
0100
0000
0000
0000
,  // measure 29
0010
0000
1000
0000
0100
0000
1000
0010
0000
1000
0010
0000
0200
0000
0000
0000
,  // measure 30
0301
0000
0010
0000
0100
0000
1000
0001
0000
1000
0001
0000
0200
0000
0000
0000
,  // measure 31
0301
0000
0010
0000
0001
0000
0100
0010
0000
0100
0010
0000
1000
0010
0000
1000
,  // measure 32
0000
0100
0000
0010
0000
0100
0000
1000
0000
0001
0000
0100
0001
0000
0010
0000
,  // measure 33
0001
0000
0100
0010
0000
0100
0010
0000
1000
0010
0000
1000
0010
0000
1000
0000
,  // measure 34
0001
0000
1000
0100
0000
1000
0100
0000
0010
0001
0000
0010
0001
0000
1000
0000
,  // measure 35
0001
0000
0100
0010
0000
0100
0010
0000
0100
0001
0000
0100
0001
0000
1000
0000
,  // measure 36
0001
0000
1000
0010
0000
1000
0010
0000
1000
0100
0000
1000
0100
0000
0010
0000
,  // measure 37
0001
0000
0010
0100
0000
0010
0100
0000
1000
0001
0000
1000
0001
0000
0010
0000
,  // measure 38
0001
0000
0100
0010
0000
0100
0010
0000
0100
0001
0000
0100
0001
0000
1000
0000
,  // measure 39
0001
0000
1000
0010
0000
1000
0010
0000
0100
0010
0000
0100
0010
0000
1000
0000
,  // measure 40
0001
0000
0010
0001
0000
0010
0001
0000
1000
0100
0000
1000
0100
0000
1000
0000
,  // measure 41
0001
0000
0100
0000
0010
1000
0000
1000
0100
0000
0100
0010
0000
0010
0001
0000
,  // measure 42
1000
0000
0100
0000
0100
1000
0000
1000
0010
0000
0010
0100
0000
0100
0001
0000
,  // measure 43
1000
0000
0001
0000
1000
0010
0000
0010
0100
0000
0100
0001
0000
0001
1000
0000
,  // measure 44
0100
0000
0010
0000
0010
0100
0000
0100
1000
0000
1000
0001
0000
0001
1000
0000
,  // measure 45
0010
0000
1000
0000
0001
0010
0000
0001
0100
0000
0010
0100
0000
0010
1000
0000
,  // measure 46
0100
0000
1000
0000
0010
0100
0000
0010
1000
0000
0001
1000
0000
0100
0010
0000
,  // measure 47
0001
0000
0010
0000
0100
0010
0000
0001
1000
0000
0100
1000
0000
0001
1000
0000
,  // measure 48
0010
0000
1000
0000
0100
1000
0000
0010
1000
0001
0100
0001
0000
0001
0000
0000
,  // measure 49
1001
0000
0000
0001
1000
0000
0100
0000
1000
0001
0000
0001
2000
0000
0000
0000
,  // measure 50
3001
0000
0000
1000
0100
0000
0010
0000
0100
1000
0000
1000
0002
0000
0000
0000
,  // measure 51
0013
0000
0000
0100
1000
0000
0001
0000
0010
0001
0000
0001
0100
0001
0000
0010
,  // measure 52
0000
0100
0000
1000
0000
0010
0000
1000
0000
0001
0000
1000
0100
0000
0000
0000
,  // measure 53
0110
0000
0000
0010
0001
0000
0100
0000
0010
1000
0000
1000
0002
0000
0000
0000
,  // measure 54
1003
0000
0000
0001
0100
0000
0010
0000
0100
0001
0000
0001
2000
0000
0000
0000
,  // measure 55
3100
0000
0000
0010
0001
0000
0100
0000
0010
1000
0000
1000
0001
1000
0000
0001
,  // measure 56
0000
0010
0000
0100
0000
1000
0000
0010
0000
0100
0000
0001
0100
0000
0000
0000
,  // measure 57
0010
0000
1000
0000
0100
1000
0000
1000
0010
0000
1000
0200
0000
0000
2300
0000
,  // measure 58
3001
0000
0010
0000
0001
0100
0000
0100
0001
0010
0000
0010
0001
0000
0000
0000
,  // measure 59
1000
0000
0010
0000
0001
0010
0000
0010
1000
0000
1000
0100
0000
0000
1000
0000
,  // measure 60
0001
0000
0010
0000
1000
0010
0000
0010
0001
0100
0000
0100
0001
0000
1000
0000
,  // measure 61
0001
0000
0100
0000
0010
1000
0000
0010
1000
0000
0001
0000
1001
0000
0000
0000
,  // measure 62
0001
0000
0010
0000
0100
1000
0000
1000
0001
1000
0000
1000
0001
0000
0000
0000
,  // measure 63
0100
0000
0010
0000
1000
0100
0000
0100
0010
0000
0001
0000
2001
0000
0000
0000
,  // measure 64
3001
0000
0010
0000
0100
0010
0000
0010
0001
0100
0000
0100
0010
0000
0010
1000
;

//---------------dance-single - DDRDAIKENKAI----------------
#NOTES:
     dance-single:
     DDRDAIKENKAI:
     Medium:
     6:
     0.415,0.404,0.007,0.364,0.152: // measure 1
0000
0000
0000
0000
,  // measure 2
0000
0000
0000
0000
,  // measure 3
0000
0000
0000
0000
,  // measure 4
0000
0000
0000
0000
,  // measure 5
0010
0000
1000
0000
0100
0000
0000
0000
1000
0000
0000
1000
0001
0000
0000
0000
,  // measure 6
0100
0000
0001
0000
0010
0000
0000
0000
0001
0000
0000
0001
1000
0000
0000
0000
,  // measure 7
0010
0000
0100
0000
0001
0000
0000
0000
0010
0000
0000
0010
0100
0000
0000
0000
,  // measure 8
1000
0000
0010
0000
0100
0000
0000
0000
0010
0000
0000
0010
1000
0000
0000
0000
,  // measure 9
0001
1000
0100
0000
1000
0001
0100
0000
,  // measure 10
0010
1000
0100
0000
0010
0001
0100
0000
,  // measure 11
0002
0000
0023
0000
0230
0000
1300
0001
,  // measure 12
0200
0000
0320
0000
1030
0100
0020
0000
,  // measure 13
0230
0000
1300
0001
1000
0000
0001
0000
,  // measure 14
0100
0000
0010
1000
0200
0000
1300
0000
,  // measure 15
2002
0000
0000
0000
3003
0000
0001
1000
,  // measure 16
0010
0100
0001
0001
1000
1000
1000
0000
,  // measure 17
0002
0023
0230
0320
,  // measure 18
0032
2003
3020
0032
,  // measure 19
0023
0000
0000
1000
0000
0000
1000
0000
2000
0000
0000
0000
3030
0000
0000
0000
,  // measure 20
0200
0000
0000
0010
0000
0000
0010
0000
0320
0000
0000
0000
0032
0000
0000
0000
,  // measure 21
2003
3200
2300
3020
,  // measure 22
0032
0023
0230
0302
,  // measure 23
1000
0000
0000
1000
0000
0000
1000
0000
2000
0000
0000
0000
3003
0000
0000
0000
,  // measure 24
0100
0000
0000
0100
0000
0000
0100
0000
0010
0000
0000
0001
1000
0000
0000
0000
,  // measure 25
0001
0100
0010
0000
1000
0100
0001
0000
,  // measure 26
0100
1000
0010
0000
0001
0010
1000
0000
,  // measure 27
0010
0100
0001
0000
0010
0100
1000
0000
,  // measure 28
0001
0000
0100
0000
0010
0000
1000
0000
0100
0000
0000
0010
0001
0000
0000
0000
,  // measure 29
1000
0100
1000
0000
0001
0100
0001
0000
,  // measure 30
1000
0010
1000
0000
0001
0010
0001
0000
,  // measure 31
0100
0010
0100
0000
0001
1000
0001
0000
,  // measure 32
0100
0000
0010
0000
1000
0000
0100
0000
0010
0000
0000
0100
1000
0000
0000
0000
,  // measure 33
0001
0000
0010
0000
0002
0000
0000
0000
0103
0000
0000
0010
0000
0000
1000
0000
,  // measure 34
0100
0000
0010
0000
0200
0000
0000
0000
1300
0000
0000
0010
0000
0000
0100
0000
,  // measure 35
0001
0000
0010
0000
0002
0000
0000
0000
0103
0000
0000
0010
0000
0000
1000
0000
,  // measure 36
0100
0000
0010
0000
0200
0000
0000
0000
1300
0000
0000
0001
0000
0000
1000
0000
,  // measure 37
0001
0000
0100
0000
0002
0000
0000
0000
1003
0000
0000
0010
0000
0000
1000
0000
,  // measure 38
0001
0000
0100
0000
0002
0000
0000
0000
1003
0000
0000
0010
0000
0000
1000
0000
,  // measure 39
0001
0000
0010
0000
0002
0000
0000
0000
0103
0000
0000
0010
0000
0000
0100
0000
,  // measure 40
0001
0000
0010
0000
0002
0000
0000
0000
1003
0000
0000
0001
0000
0000
1000
0000
,  // measure 41
0001
0000
0000
0010
0000
0000
0100
0000
2000
0000
0000
0000
3010
0000
0000
0000
,  // measure 42
0100
0000
0000
0001
0000
0000
0010
0000
0200
0000
0000
0000
0310
0000
0000
0000
,  // measure 43
0001
0000
0000
0100
0000
0000
0010
0000
2000
0000
0000
0000
3001
0000
0000
0000
,  // measure 44
1000
0000
0000
0010
0000
0000
0100
0000
0002
0000
0000
0000
1003
0000
0000
0000
,  // measure 45
0001
0000
0000
0001
0000
0000
0001
0000
0200
0000
0000
0000
0310
0000
0000
0000
,  // measure 46
1000
0000
0000
1000
0000
0000
1000
0000
0200
0000
0000
0000
0310
0000
0000
0000
,  // measure 47
0001
0000
0000
1000
0000
0000
0001
0000
2000
0000
0000
0000
3001
0000
0000
0000
,  // measure 48
0100
0000
0000
0100
0000
0000
0100
0000
0010
0000
1000
0000
0001
0000
0000
0000
,  // measure 49
0010
0000
0000
0001
1000
0000
0000
0000
0100
0000
1000
0000
0001
0000
0000
0000
,  // measure 50
0100
0000
0000
0010
1000
0000
0000
0000
0100
0000
0010
0000
0001
0000
0000
0000
,  // measure 51
0100
0000
0000
0001
1000
0000
0000
0000
0010
0000
0100
0000
0001
0000
0000
0000
,  // measure 52
0010
0000
0000
0010
0100
0000
0000
0000
1000
0000
0000
1000
0001
0000
0000
0000
,  // measure 53
0100
0000
0000
0100
0010
0000
0000
0000
0100
0000
0001
0000
1000
0000
0000
0000
,  // measure 54
0010
0000
0000
0010
0100
0000
0000
0000
0010
0000
1000
0000
0100
0000
0000
0000
,  // measure 55
0010
0000
0000
0010
0001
0000
0000
0000
1000
0000
0100
0000
0001
0000
0000
0000
,  // measure 56
0100
0000
0000
1000
0001
0000
0000
0000
0100
0000
0000
0001
1000
0000
0000
0000
,  // measure 57
0010
0100
0010
0000
1000
0100
0001
0000
,  // measure 58
0100
0000
1000
0000
0010
0000
0100
0000
0001
0000
0000
1000
0100
0000
0000
0000
,  // measure 59
0010
0001
0100
0000
0010
1000
0200
0000
,  // measure 60
1300
0000
0001
0000
1000
0000
0001
0000
0100
0000
0000
0010
1000
0000
0000
0000
,  // measure 61
0010
0100
0010
0000
0100
0001
0010
0000
,  // measure 62
0100
0000
0010
0000
0001
0000
1000
0000
0100
0000
0000
1000
0001
0000
0000
0000
,  // measure 63
0100
0010
0100
0000
0001
0010
0002
0000
,  // measure 64
1003
0000
0100
0000
0010
0000
0100
0000
1000
0000
0000
1000
0001
0000
0100
0000
;

//---------------dance-single - DDRDAIKENKAI----------------
#NOTES:
     dance-single:
     DDRDAIKENKAI:
     Easy:
     3:
     0.274,0.333,0.126,0.201,0.000: // measure 1
0000
0000
0000
0000
,  // measure 2
0000
0000
0000
0000
,  // measure 3
0000
0000
0000
0000
,  // measure 4
0000
0000
0000
0000
,  // measure 5
2002
3003
0000
0000
0001
0000
0100
0000
,  // measure 6
0220
0330
0000
0000
0100
0000
0100
0000
,  // measure 7
2002
3003
0000
0000
0100
0000
0010
0000
,  // measure 8
0220
0330
0000
0000
0001
0000
0001
0000
,  // measure 9
2000
0001
3001
0000
,  // measure 10
0200
0010
0310
0000
,  // measure 11
0100
0001
1000
0100
,  // measure 12
0010
0001
1000
1000
,  // measure 13
0010
1000
0200
0300
,  // measure 14
1000
0001
0200
0300
,  // measure 15
0010
0100
0001
0010
,  // measure 16
0100
0010
0001
1001
,  // measure 17
2000
0010
0010
3010
,  // measure 18
0200
0001
0001
0301
,  // measure 19
2002
0000
0000
0003
,  // measure 20
0200
0000
3300
0100
,  // measure 21
0020
0001
0001
0031
,  // measure 22
0200
0010
0010
0310
,  // measure 23
0120
0000
0000
0000
,  // measure 24
0200
0000
0000
0330
,  // measure 25
1001
0001
0100
0100
,  // measure 26
0001
1000
0100
0100
,  // measure 27
0010
0001
1000
0010
,  // measure 28
0100
0100
0010
0110
,  // measure 29
0010
0100
0001
0001
,  // measure 30
0010
0100
1000
1000
,  // measure 31
0001
0100
0010
0010
,  // measure 32
0100
0100
0001
1001
,  // measure 33
1000
1000
2000
3100
,  // measure 34
0010
0010
0010
0001
,  // measure 35
1000
1000
2000
3001
,  // measure 36
0100
0100
0100
0010
,  // measure 37
0100
0100
0100
0001
,  // measure 38
0010
0010
0010
0001
,  // measure 39
1000
1000
1000
0001
,  // measure 40
0100
0010
0100
0110
,  // measure 41
0010
1000
0100
0001
,  // measure 42
0100
1000
0010
0100
,  // measure 43
0001
0010
1000
0010
,  // measure 44
0001
1000
0100
1000
,  // measure 45
1000
0001
0010
0100
,  // measure 46
1000
0001
0100
0010
,  // measure 47
1000
1000
0001
2000
,  // measure 48
0200
0000
0000
3300
,  // measure 49
0010
0001
0100
0100
,  // measure 50
0010
1000
0100
0100
,  // measure 51
1000
0001
0100
0100
,  // measure 52
0010
0010
1000
1001
,  // measure 53
0001
0010
0100
0100
,  // measure 54
1000
0010
0100
0100
,  // measure 55
0001
0100
0010
0010
,  // measure 56
1000
1000
0001
1001
,  // measure 57
1000
0000
0001
0100
,  // measure 58
0010
0000
1000
1001
,  // measure 59
0001
0000
1000
0010
,  // measure 60
0100
0000
0001
1001
,  // measure 61
1000
0100
0010
0010
,  // measure 62
0001
0100
0010
0110
,  // measure 63
0100
0001
0010
0010
,  // measure 64
0100
1000
0001
2002
,  // measure 65
3003
0000
0000
0000
;
