#TITLE:On and On;
#SUBTITLE:;
#ARTIST:Utada;
#TITLETRANSLIT:;
#SUBTITLETRANSLIT:;
#ARTISTTRANSLIT:Utada Hikaru;
#GENRE:CLUB;
#CREDIT:;
#MENUCOLOR:;
#NEWMETERSYSTEM:NO;
#BANNER:On and On.png;
#BACKGROUND:On and On-bg.png;
#LYRICSPATH:;
#CDTITLE:;
#MUSIC:On and On.ogg;
#OFFSET:0.000;
#SAMPLESTART:48.560;
#SAMPLELENGTH:15.800;
#SELECTABLE:YES;
#LISTSORT:;
#BPMS:0.000=121.000;
#STOPS:;
#BGCHANGES:;
#ATTACKS:;

//---------------dance-single - DDRDAIKENKAI----------------
#NOTES:
     dance-single:
     DDRDAIKENKAI:
     Hard:
     8:
     0.568,0.621,0.084,0.244,0.151: // measure 1
0000
0000
0000
0000
,  // measure 2
1000
0000
0001
0000
0100
0000
1000
0000
0000
0000
0100
0000
0001
0000
1000
0100
,  // measure 3
1000
0100
0010
0001
0100
0010
1000
0000
,  // measure 4
1000
0000
0001
0000
0010
0000
1000
0000
0000
0000
1000
0000
0010
0000
0001
0100
,  // measure 5
0001
0010
0001
0100
0010
1000
0001
0000
,  // measure 6
1000
0000
0010
0000
0100
0000
1000
0000
0000
0000
0100
0000
0010
0000
1000
0100
,  // measure 7
1000
0010
0100
0001
0010
0100
1000
0000
,  // measure 8
0001
0000
0100
0000
0010
0000
0001
0000
0000
0000
0001
0000
0010
0000
1000
0100
,  // measure 9
1000
0010
1000
0010
0100
0010
0100
0010
0100
0001
0100
0001
1000
0001
1000
0001
,  // measure 10
1000
0000
0001
0000
0010
0000
1000
0000
0010
0000
0001
0000
0100
0000
0010
1000
,  // measure 11
0020
0000
1000
0000
1030
0000
0100
1000
0200
0000
1000
0000
1300
0000
0001
0000
,  // measure 12
0010
0000
0001
0000
0100
0000
0010
0000
1000
0000
0100
0000
0010
0000
0001
0100
,  // measure 13
0002
0000
1000
0000
1003
0000
0001
0010
0002
0000
0100
0000
0103
0010
0100
0000
,  // measure 14
0010
0000
1000
0000
0100
0000
1000
0000
0010
0000
0001
0000
0010
0000
1000
0100
,  // measure 15
2000
0001
3001
0200
0000
0301
0011
0000
,  // measure 16
0001
0000
0100
0000
0010
0000
1000
0000
0100
0000
0010
0000
0001
0000
1000
0010
,  // measure 17
2000
0000
0000
0000
0010
0000
0010
0000
0010
0000
3000
0000
1000
0001
1000
0000
,  // measure 18
0001
0000
0010
0000
1000
0000
0010
0000
0001
0000
0100
0000
1000
0000
0100
0010
,  // measure 19
0200
0000
0301
1000
0010
0001
0020
0000
,  // measure 20
1030
0000
0100
0000
0010
0000
0001
0000
0100
0000
0010
0000
1000
0000
0001
0010
,  // measure 21
0002
0000
1003
0100
0001
0100
2000
0000
,  // measure 22
3001
0100
1000
0001
0010
1000
0100
0001
,  // measure 23
1000
0010
0001
0100
1000
0100
0001
0010
,  // measure 24
0001
0100
0010
1000
0010
0000
0010
1000
,  // measure 25
0200
0000
0000
0000
0000
0000
0000
0000
1300
0001
1000
0001
1000
0001
1000
0001
,  // measure 26
0100
0000
0010
0000
1000
0000
1010
0000
0000
0000
0110
0000
0010
0000
1000
0001
,  // measure 27
2000
0000
0001
3000
0002
0000
0000
0000
1003
0000
0100
0000
0010
0000
0001
0000
,  // measure 28
0100
0000
0010
0000
1000
0000
1010
0000
0000
0000
0110
0000
0010
0000
1000
0001
,  // measure 29
2000
0001
3002
0000
1003
0100
0010
0001
,  // measure 30
0100
0000
0001
0000
0010
0000
0110
0000
0000
0000
1100
0000
0100
0000
1000
0010
,  // measure 31
2000
0010
3010
1000
0100
0001
0100
1000
,  // measure 32
1010
0000
0120
0000
0130
0001
0010
1000
,  // measure 33
0020
0000
0031
1000
0100
1000
0001
0100
,  // measure 34
0110
0000
0010
0000
1000
0000
0100
0000
1000
0010
1000
0000
0010
0000
0001
0000
,  // measure 35
0020
1000
1030
0200
0000
1300
0001
0100
,  // measure 36
0001
0000
0010
0000
1000
0000
0010
0000
0001
0100
0001
0000
0010
0000
0100
0000
,  // measure 37
0020
0000
0001
0000
0031
0000
0200
0000
0000
0000
0310
0000
1000
0000
0100
1000
,  // measure 38
0100
1000
0010
0001
0010
1000
0100
0010
,  // measure 39
0001
0100
0001
0010
1000
0010
0001
1000
,  // measure 40
0001
0100
1000
0100
0001
0000
0010
0001
,  // measure 41
0200
0000
0000
0000
0000
0000
0000
0000
0310
1000
0010
1000
0010
1000
0010
1000
,  // measure 42
0100
1000
0010
0100
0010
1000
0100
1000
,  // measure 43
0010
0100
0010
1000
0100
0001
0100
1000
,  // measure 44
0001
0010
1000
0010
0001
0000
0001
0100
,  // measure 45
0020
0000
2030
0000
3001
0010
1000
0010
,  // measure 46
0001
1000
0010
0001
1000
0100
0001
0010
,  // measure 47
1000
0001
0100
1000
0001
0100
1000
0100
,  // measure 48
0010
1000
0100
1000
0001
0000
0001
0010
,  // measure 49
0200
0000
0300
0000
,  // measure 50
1000
0010
0100
1000
0100
0001
0010
0100
,  // measure 51
0010
0001
1000
0010
0001
0010
1000
0001
,  // measure 52
0010
0100
1000
0001
0100
0000
0100
0001
,  // measure 53
0020
0001
0002
0033
,  // measure 54
1000
0100
0001
0100
1000
0001
0100
1000
,  // measure 55
0100
0001
1000
0100
0001
0100
1000
0001
,  // measure 56
1000
0010
0001
0010
1000
0001
0010
1000
,  // measure 57
0010
0001
1000
0010
0001
0010
1000
0001
;

//---------------dance-single - DDRDAIKENKAI----------------
#NOTES:
     dance-single:
     DDRDAIKENKAI:
     Medium:
     5:
     0.388,0.382,0.000,0.277,0.000:
0000
0000
0000
0000
,
1000
0000
0001
0100
0000
0010
1000
1000
,
0001
0000
1000
0100
0010
0010
0001
0000
,
1000
0000
0001
0100
0000
0100
0001
0010
,
0010
0000
0100
1000
0010
1000
1000
0000
,
0001
0000
1000
0100
0000
0100
1000
0001
,
0001
0000
1000
0001
0100
0001
0001
0000
,
0100
0000
0010
0100
0000
0100
0010
0000
,
2000
3200
0320
0032
,
1003
0001
1000
0001
0100
0100
0100
0000
,
0010
0010
0010
0000
1000
1000
1000
0000
,
0010
0100
0010
0100
0001
0001
0001
0000
,
0100
0100
0100
0000
0010
0010
0010
0000
,
1000
1000
0100
0000
0010
0010
0001
0000
,
2000
0000
0000
0200
0000
0000
3300
0000
,
0010
0010
0001
0000
0100
0100
0010
0000
,
0200
0000
0000
0002
0000
0000
0303
0000
,
1000
0001
1000
0001
1000
0000
0010
0100
,
0010
0000
0100
0001
0100
0001
0100
0000
,
0001
0010
0001
0010
0001
0000
1000
0100
,
1000
0000
0010
0100
0010
0100
0010
0000
,
1000
0000
1000
0100
0000
1000
0000
0001
,
0100
0000
0010
0100
0010
0000
1000
0000
,
0001
1000
0100
0000
1000
0000
0001
1000
,
0020
0000
0000
0000
0100
0100
0100
0100
,
0230
0000
0000
0302
0000
0000
1003
0100
,
0020
0000
0032
0000
1003
0001
1000
0001
,
0200
0000
0000
0302
0000
0000
1003
0010
,
0200
0000
0310
0000
1000
0100
1000
0100
,
0020
0000
0000
0032
0000
0000
1003
0100
,
2000
0000
3001
0000
1000
0001
0100
0010
,
1000
0000
0001
0000
1000
0010
0100
0001
,
1000
0000
0010
0000
0100
0001
0100
0001
,
1000
0000
0100
0000
0010
0001
0100
0000
,
0020
0000
0000
0200
0000
0000
0330
0000
,
0010
0000
0100
0000
0001
0010
0100
0000
,
2000
0000
0000
0002
0000
0000
3003
0000
,
1000
0000
0001
0100
0000
0010
0000
1000
,
0001
0000
1000
0100
1000
0100
0010
0000
,
0001
0100
0001
0100
0010
0000
1000
0001
,
0200
0000
0000
0000
0010
0010
0010
0010
,
0320
0000
0000
2030
0000
3001
1000
0100
,
2000
0000
3001
0000
0100
0010
0100
0000
,
0002
0000
0000
2003
0000
0000
3100
0010
,
0001
0000
0100
0000
0010
1000
0100
0000
,
2000
0000
0000
3020
0000
0000
0130
0001
,
1000
0000
0001
0010
0001
0000
0100
0000
,
0010
1000
0100
0000
1000
0000
0001
1000
,
0020
0000
0030
0000
,
0100
0000
0001
1000
0000
0100
0000
0010
,
0001
0000
1000
0100
1000
0100
0010
0000
,
0001
0100
0001
0100
0010
0000
0010
1000
,
0200
0000
0300
0000
,
1000
0000
1000
0001
0000
1000
0000
0001
,
0100
0000
0010
0100
0010
0100
0001
0000
,
1000
0000
1000
0001
0000
0001
0100
0010
,
0100
0000
0100
0010
0100
0001
1000
0000
;

//---------------dance-single - DDRDAIKENKAI----------------
#NOTES:
     dance-single:
     DDRDAIKENKAI:
     Easy:
     3:
     0.257,0.215,0.025,0.235,0.000:
0000
0000
0000
0000
,
1000
0001
0000
0100
,
0000
0000
0010
0000
0000
1000
1000
0000
,
0001
1000
0000
0010
,
0000
0000
0100
0000
0000
0001
0001
0000
,
0010
0100
0000
1000
,
0000
0000
0001
0000
0000
0100
0100
0000
,
0010
1010
0000
1001
,
0000
0000
0101
0000
0000
0100
0100
0000
,
0010
1000
0001
1000
,
0100
0000
0010
0000
0000
0001
0001
0000
,
1000
0001
0100
0010
,
0100
0000
0001
0000
0000
0100
0100
0000
,
0010
1000
0100
0010
,
0002
0000
0000
2000
0000
0000
3003
0000
,
0010
0100
0001
0010
,
0200
0000
0000
2000
0000
0000
3300
0000
,
0010
0100
0001
1000
,
0001
0100
0010
0010
,
1000
0100
1000
0010
,
0100
0001
1000
1000
,
0001
0100
1000
0100
,
0001
1000
0100
1000
,
0010
0100
0001
0001
,
0020
0000
0100
0130
,
2000
0000
0000
3002
0000
0000
0000
0200
,
0000
0303
0010
1000
,
0200
0000
0000
0320
0000
0000
0000
0002
,
0000
0033
0100
0010
,
2000
0000
0000
3002
0000
0000
0000
2000
,
0000
3003
0001
0100
,
0010
0010
1000
1000
,
0200
0300
0001
0001
,
0100
1000
0010
0100
,
0010
0000
0000
0010
0000
0000
0000
0000
,
0100
0001
1000
0100
,
1000
0000
0000
1000
0000
0000
0000
0000
,
0001
0010
0100
1000
,
0010
0100
0001
1000
,
0100
0010
0001
0100
,
0020
0000
0100
0130
,
0010
1000
0100
1000
,
0001
1000
0010
1000
,
0001
0010
0100
1000
,
0020
0000
0100
0130
,
0001
0010
0100
1000
,
0010
0100
0001
1000
,
0100
0010
0001
0100
,
0020
0000
0030
0000
,
2000
0000
0000
3002
0000
0000
0000
0203
,
0000
0010
0010
0310
,
1000
1000
1000
0010
,
0020
0000
0030
0000
,
0200
0000
0000
0302
0000
0000
0000
2003
,
0000
0100
0100
3100
,
0020
0000
0000
0032
0000
0000
0000
2003
,
0000
0010
0010
3010
;
