#TITLE:Movin' on without you;
#SUBTITLE:(Live Ver.);
#ARTIST:宇多田ヒカル;
#TITLETRANSLIT:;
#SUBTITLETRANSLIT:;
#ARTISTTRANSLIT:Utada Hikaru;
#GENRE:J-POP;
#CREDIT:;
#MENUCOLOR:;
#NEWMETERSYSTEM:NO;
#BANNER:Movin' on without you (Live Ver).png;
#BACKGROUND:Movin' on without you (Live Ver)-bg.png;
#LYRICSPATH:Movin' on without you (Live Ver).lrc;
#CDTITLE:;
#MUSIC:Movin' on without you (Live Ver).ogg;
#OFFSET:-1.027;
#SAMPLESTART:16.720;
#SAMPLELENGTH:15.700;
#SELECTABLE:YES;
#LISTSORT:;
#BPMS:0.000=122.000,192.000=124.000,193.000=122.000,194.000=123.000,200.000=122.000,204.000=122.500,208.000=121.800,216.000=121.900,224.000=122.000;
#STOPS:;
#BGCHANGES:-2.027=Movin' on without you (Live Ver).avi=1.000=1=1=0,
99999=-nosongbg-=1.000=0=0=0 // don't automatically add -songbackground-
;
#ATTACKS:;

//---------------dance-single - DDRDAIKENKAI----------------
#NOTES:
     dance-single:
     DDRDAIKENKAI:
     Hard:
     8:
     0.460,0.485,0.265,0.367,0.245: // measure 1
0000
0000
0000
0000
,  // measure 2
0000
0000
0000
0000
,  // measure 3
0000
0000
0000
0000
,  // measure 4
0000
0000
0000
0000
,  // measure 5
1000
0000
0100
0000
0010
0000
0001
0000
0100
0000
0000
0100
0000
0000
0100
0000
,  // measure 6
0010
0000
0000
0010
0000
0000
0020
0000
0000
0000
0030
0000
0000
0000
0000
0000
,  // measure 7
0100
0000
0001
0000
0010
0000
0100
0000
1000
0000
0000
1000
0000
0000
1000
0000
,  // measure 8
0010
1000
0100
0010
0001
0100
0110
0000
,  // measure 9
0100
0000
0000
0001
0000
0000
0010
0000
0000
0100
0000
0000
1000
0000
0010
0000
,  // measure 10
1000
0000
0000
0100
0000
0000
0010
0000
0000
0001
0000
0000
0100
0000
0010
0000
,  // measure 11
1000
0000
0000
0010
0000
0000
0100
0000
0000
0001
0000
0000
0010
0000
0100
0000
,  // measure 12
1000
0010
0100
0001
0020
0100
0100
0130
,  // measure 13
0120
0000
0000
0031
0000
0000
1000
0000
0000
0100
0000
0000
0010
0000
0001
0000
,  // measure 14
1000
0000
0000
0100
0000
0000
1000
0000
0000
0001
0000
0000
0010
0000
0100
0000
,  // measure 15
1000
0000
0000
0001
0000
0000
0100
0000
0000
0010
0000
0000
1000
0000
0100
0000
,  // measure 16
0010
0001
0100
0010
2000
0001
0001
3001
,  // measure 17
0201
0000
0000
0000
0301
1000
0001
1000
0001
1000
0000
0200
0000
0000
0010
0000
,  // measure 18
0310
0000
0000
0000
0100
1000
0100
1000
0100
1000
0000
0002
0000
0000
0100
0000
,  // measure 19
0103
0000
0000
0000
0010
0100
0010
0100
0010
0100
0000
0002
0000
0000
1003
0000
,  // measure 20
0010
0100
0001
1000
1002
1000
0100
0103
,  // measure 21
0102
0000
0000
0000
1003
0001
1000
0001
1000
0001
0000
0020
0000
0000
0100
0000
,  // measure 22
0130
0000
0000
0000
1000
0100
1000
0100
1000
0001
0000
0020
0000
0000
0001
0000
,  // measure 23
0031
0000
0000
0000
1000
0010
1000
0010
1000
0001
0000
0200
0000
0000
0310
0000
,  // measure 24
0100
0001
1000
0010
0100
0001
1001
0001
,  // measure 25
0102
0000
0000
0000
1003
0100
0000
0010
0000
0000
0100
0000
1000
0000
0001
0000
,  // measure 26
0100
0000
0000
0001
0000
0000
1001
0000
0000
0000
0001
0000
0100
0000
0010
0000
,  // measure 27
0100
0001
1000
0100
0001
0100
1000
0000
,  // measure 28
0002
0000
0000
0000
2003
0000
0000
3100
0010
0000
0001
0000
1001
0000
0001
0000
,  // measure 29
0201
0000
0000
0000
0301
0000
0100
0010
0000
0000
1000
0000
1001
0000
0001
0000
,  // measure 30
1000
0100
0010
0100
1000
0010
0100
0000
,  // measure 31
0102
0000
2003
0000
3001
0010
0001
1000
,  // measure 32
0110
0000
0000
0000
0000
0000
0000
0000
0000
0100
0010
0000
0010
0000
1000
0000
,  // measure 33
1002
0000
2003
0000
3001
0100
0010
1000
,  // measure 34
0100
1000
0010
0100
0001
1000
0001
1001
,  // measure 35
0001
1000
0100
1100
1000
0001
0010
0001
,  // measure 36
0200
0000
0000
0320
0000
0000
2030
0000
0000
3001
0100
0000
0101
0000
0001
0000
,  // measure 37
0012
0000
1003
0000
2100
0000
3001
0100
,  // measure 38
0020
0000
1030
0000
1002
0000
1003
0001
,  // measure 39
0101
0000
0011
0010
1000
0010
0001
1000
,  // measure 40
0200
0000
0000
2300
0000
0000
3010
0000
0100
0010
0100
0000
0110
0000
0010
0000
,  // measure 41
2010
0000
0000
0010
0000
0000
3010
0000
0000
0000
1000
0000
0000
0100
0000
0000
,  // measure 42
0020
0000
0000
0001
0000
0000
0032
0000
0000
0000
0103
0000
0000
0001
0000
0000
,  // measure 43
0020
0000
0000
0100
0000
0000
0130
0000
0000
0000
1000
0000
0000
0001
0000
0000
,  // measure 44
0100
0000
0001
0000
1000
0000
0010
0000
0100
0000
0001
0000
2002
3003
0000
0000
,  // measure 45
2010
0000
3001
1000
0010
0100
0001
0000
,  // measure 46
1001
0000
0001
0100
0010
1000
0100
0000
,  // measure 47
0110
0000
0100
1000
1001
0000
0100
0001
,  // measure 48
0011
0000
0010
0000
0001
0000
0001
0000
1000
0010
1000
0000
0001
0000
0001
0000
,  // measure 49
2001
0000
3002
0000
2003
0000
3100
0010
,  // measure 50
0002
0000
0000
0023
0000
0000
0130
0000
0000
0000
0100
0000
1000
0000
0010
0000
,  // measure 51
0000
0100
0001
0010
0001
0100
1000
0100
,  // measure 52
0020
0000
0000
2030
0000
0000
3002
0000
0000
0000
1003
0000
1100
0000
0000
0000
,  // measure 53
1002
0000
0003
1000
0001
0000
0000
0010
0002
0000
0003
1000
0001
0000
0010
0000
,  // measure 54
0200
0000
0300
1000
0010
0000
0000
0100
0020
0000
0030
0100
0001
0000
1000
0000
,  // measure 55
1020
0000
0030
1000
0100
0000
0001
0000
0100
0000
1000
0000
0010
0000
0100
0000
,  // measure 56
0102
0000
0000
0203
0000
0000
0310
0000
1000
0000
0001
0000
1001
0000
0000
0000
,  // measure 57
0101
0000
0000
0001
0000
0000
0010
0000
0000
0100
0000
0000
1000
0000
0001
0000
,  // measure 58
0100
0000
0000
0010
0000
0000
1000
0000
0000
0100
0000
0000
0001
0000
0100
0000
,  // measure 59
1000
0000
0000
0010
0000
0000
0100
0000
0000
0001
0000
0000
1000
0000
0001
0000
,  // measure 60
1000
0100
0001
0100
0010
0001
0110
0000
,  // measure 61
2002
0000
0000
0000
,  // measure 62
0000
0000
0000
0000
,  // measure 63
3003
0000
0000
0000
;

//---------------dance-single - DDRDAIKENKAI----------------
#NOTES:
     dance-single:
     DDRDAIKENKAI:
     Medium:
     5:
     0.362,0.380,0.156,0.388,0.000: // measure 1
0000
0000
0000
0000
,  // measure 2
0000
0000
0000
0000
,  // measure 3
0000
0000
0000
0000
,  // measure 4
0000
0000
0000
0000
,  // measure 5
0200
0302
2003
3200
,  // measure 6
0310
0000
0000
0002
0000
0003
0000
0000
,  // measure 7
0200
0302
2003
3020
,  // measure 8
0130
0000
0001
0000
1000
0010
1000
0000
,  // measure 9
1001
0000
0001
1000
0001
0100
0010
0000
,  // measure 10
1000
0000
0100
1000
0010
0100
0001
0000
,  // measure 11
0010
0000
0100
0010
0001
0100
0010
0000
,  // measure 12
1000
0100
0010
0002
0000
1000
1000
1000
,  // measure 13
1003
0000
0010
1000
0010
1000
0001
0000
,  // measure 14
0010
0000
0100
1000
0010
0100
0010
0000
,  // measure 15
0100
0000
0001
0010
1000
0010
0001
0000
,  // measure 16
0001
0100
0010
2000
0000
0001
0001
0001
,  // measure 17
3001
0000
0001
0010
0100
0000
1000
0001
,  // measure 18
0100
0000
0010
1000
0100
0000
0010
0001
,  // measure 19
0100
0000
0001
1000
0001
0000
0100
0000
,  // measure 20
0010
1000
0010
1000
0200
0000
0310
0000
,  // measure 21
0110
0000
1000
0100
1000
0000
0010
0100
,  // measure 22
0001
0000
0010
0100
0010
0000
0001
0100
,  // measure 23
1000
0000
1000
0100
1000
0000
0100
0000
,  // measure 24
0001
0010
0100
0010
0100
1000
0001
0000
,  // measure 25
1001
0000
0010
0100
1000
0000
0100
0010
,  // measure 26
0002
0000
2003
0000
3100
0010
0100
0000
,  // measure 27
1000
0001
0100
0000
0001
1000
0100
0000
,  // measure 28
0020
0032
2003
3010
,  // measure 29
0110
0000
0100
0010
0100
0000
0100
0001
,  // measure 30
1000
0000
0010
0000
0100
0001
2000
0000
,  // measure 31
3002
0000
2003
0000
3100
0010
0001
0000
,  // measure 32
1001
0000
0000
0100
,  // measure 33
1001
0000
0002
0000
2003
0000
3001
1000
,  // measure 34
0100
0000
1000
0000
0001
0100
0010
0000
,  // measure 35
1000
0100
0010
0000
0001
0100
0010
0000
,  // measure 36
2000
0000
3002
0000
1003
0010
1000
0000
,  // measure 37
0002
0103
2000
3100
,  // measure 38
0002
0013
2000
3010
,  // measure 39
0001
0000
1000
0000
0001
1000
0100
0010
,  // measure 40
0001
0000
0001
0100
0001
0000
0101
0000
,  // measure 41
1002
2003
3200
0320
,  // measure 42
0031
0000
0000
0200
0000
0300
0000
0000
,  // measure 43
0020
2030
3200
2300
,  // measure 44
3010
0100
0001
2000
0000
0100
3100
0000
,  // measure 45
1001
0000
1000
0100
0010
0001
0100
0000
,  // measure 46
0100
0000
0001
0010
0100
1000
0010
0000
,  // measure 47
0110
0010
1001
0100
,  // measure 48
1000
0010
0100
0002
0000
1000
1000
1003
,  // measure 49
1002
0000
2003
0000
3002
0000
0103
0010
,  // measure 50
2000
0000
3200
0000
0310
0001
0001
1000
,  // measure 51
0000
1000
0001
0100
0010
0100
0010
0010
,  // measure 52
0200
0302
2003
3000
,  // measure 53
1002
0000
1003
0000
1020
0000
0130
0001
,  // measure 54
0020
0000
0130
0000
0210
0000
0310
0001
,  // measure 55
0100
0000
0001
1000
0010
0100
0001
1000
,  // measure 56
2002
0000
3003
0110
,  // measure 57
1001
0000
1100
0000
0010
0001
0100
0000
,  // measure 58
0010
1000
0100
2000
0000
0001
3001
0000
,  // measure 59
1001
0000
0101
0000
0100
0010
1000
0000
,  // measure 60
0010
1000
0001
0200
0000
0310
0110
0000
,  // measure 61
2002
0000
0000
0000
,  // measure 62
0000
0000
0000
0000
,  // measure 63
3003
0000
0000
0000
;

//---------------dance-single - DDRDAIKENKAI----------------
#NOTES:
     dance-single:
     DDRDAIKENKAI:
     Easy:
     3:
     0.227,0.253,0.129,0.075,0.000: // measure 1
0000
0000
0000
0000
,  // measure 2
0000
0000
0000
0000
,  // measure 3
0000
0000
0000
0000
,  // measure 4
0000
0000
0000
0000
,  // measure 5
0001
0010
0100
1000
,  // measure 6
0001
0000
0000
1000
0000
0000
0000
0000
,  // measure 7
0001
1000
0010
0100
,  // measure 8
0001
1000
0001
1001
,  // measure 9
1001
1000
0100
1000
,  // measure 10
0010
0100
0001
1000
,  // measure 11
0001
0010
0001
0100
,  // measure 12
0010
0010
0010
1000
,  // measure 13
1001
0001
1000
0100
,  // measure 14
1000
0010
0100
0001
,  // measure 15
0010
0100
1000
0010
,  // measure 16
1000
1000
1000
0010
,  // measure 17
0110
0100
0010
0100
,  // measure 18
0010
1000
0100
0010
,  // measure 19
0001
0100
0010
0100
,  // measure 20
0001
1000
0010
0010
,  // measure 21
0110
0100
0001
0001
,  // measure 22
1000
0001
1000
1000
,  // measure 23
0100
1000
0010
0010
,  // measure 24
0001
0100
1000
0010
,  // measure 25
0110
0100
0010
1000
,  // measure 26
0001
0100
1000
0100
,  // measure 27
0010
0010
1000
1000
,  // measure 28
0100
0100
0001
0100
,  // measure 29
1000
0001
0010
1000
,  // measure 30
0010
0001
0100
0010
,  // measure 31
0200
0000
0000
0300
,  // measure 32
0001
0001
0001
1000
,  // measure 33
1001
0001
0100
0010
,  // measure 34
0100
0100
0001
0001
,  // measure 35
0010
0010
0001
0001
,  // measure 36
0100
0010
2000
3000
,  // measure 37
0020
0130
0001
0001
,  // measure 38
0200
0310
1000
1000
,  // measure 39
0010
0000
1000
0100
,  // measure 40
1000
1000
0001
1001
,  // measure 41
1001
1000
0100
0010
,  // measure 42
0001
0000
0000
1000
0000
0000
0000
0000
,  // measure 43
0001
0010
0100
1000
,  // measure 44
0010
0010
0010
0100
,  // measure 45
0110
0010
1000
0001
,  // measure 46
1001
0001
1000
0100
,  // measure 47
0110
0010
0110
0100
,  // measure 48
1000
0001
0100
0010
,  // measure 49
0220
0000
0000
0000
,  // measure 50
0330
0000
0000
1000
,  // measure 51
2002
0000
3003
0000
,  // measure 52
0010
0001
0001
0000
,  // measure 53
0010
0010
0001
0001
,  // measure 54
0100
0100
1000
1000
,  // measure 55
0010
0010
1000
1000
,  // measure 56
0100
0100
0001
1001
,  // measure 57
1001
1000
0100
0010
,  // measure 58
0001
0000
0000
2000
0000
3000
0000
0000
,  // measure 59
0010
1000
0100
0010
,  // measure 60
0001
0100
0010
0110
,  // measure 61
2002
0000
0000
0000
,  // measure 62
0000
0000
0000
0000
,  // measure 63
3003
0000
0000
0000
;

//---------------dance-single - DDRDAIKENKAI----------------
#NOTES:
     dance-single:
     DDRDAIKENKAI:
     Challenge:
     10:
     0.660,0.675,0.279,0.374,0.704:
0000
0000
0000
0000
,
0000
0000
0000
0000
,
0000
0000
0000
0000
,
0000
0000
0000
0000
,
1001
0000
0000
0000
0000
0000
0000
0000
0001
0000
0000
0000
0000
0000
0000
0000
0100
0000
0000
0000
0000
0000
0000
0000
0010
0000
0000
0000
0000
0000
0000
0000
1000
0000
0000
0000
0000
0000
0000
0000
0100
0000
0000
0000
0000
0010
0000
0000
0000
0000
0000
0000
0000
0001
0000
0000
0100
0000
0000
0000
0000
0000
0000
0000
,
0101
0000
0000
0000
0000
0000
0000
0000
0000
0000
0000
0000
0000
0001
0000
0000
0000
0000
0000
0000
0000
0000
0000
0000
0012
0000
0000
0000
0000
0000
0000
0000
0000
0000
0000
0000
0000
0000
0000
0000
1003
0000
0000
0000
0000
0000
0000
0000
0000
0000
0000
0000
0000
0000
0000
0000
0000
0000
0000
0000
0000
0000
0000
0000
,
1001
0000
0000
0000
0000
0000
0000
0000
0001
0000
0000
0000
0000
0000
0000
0000
1000
0000
0000
0000
0000
0000
0000
0000
0100
0000
0000
0000
0000
0000
0000
0000
0110
0000
0000
0000
0000
0000
0000
0000
0010
0000
0000
0000
0000
0100
0000
0000
0000
0000
0000
0000
0000
1000
0000
0000
0001
0000
0000
0000
0000
0000
0000
0000
,
1001
0000
0000
0000
0000
0000
0000
0000
0100
0000
0000
0000
0000
0000
0000
0000
0001
0000
0000
0000
0000
0000
0000
0000
0100
0000
0000
0000
0000
0000
0000
0000
0010
0000
0000
0000
0000
0001
0000
0000
0010
0000
0000
0000
0000
0000
0000
0000
0022
0000
0000
0000
0033
0000
0000
0000
0000
0000
0000
0000
0000
0000
0000
0000
,
1001
0000
0001
1000
0000
0010
1000
0000
0100
1000
0000
0001
1000
0100
1000
0100
,
1000
0000
0010
0001
0000
0010
0100
0000
0010
1000
0000
0010
0100
0001
0100
0001
,
0100
0000
0010
1000
0000
0100
1000
0000
0001
1000
0000
0100
0010
0100
1000
0100
,
0010
0000
0000
0000
0000
0000
0000
0000
0001
0000
0000
0000
0000
0000
0000
0000
0100
0000
0000
0000
0000
0000
0000
0000
0010
0000
0000
0000
0000
1000
0000
0000
0000
0000
0000
0000
0000
1000
0000
0000
0001
0000
0000
0000
0000
0000
0000
0000
1001
0000
0000
0000
0000
0000
0000
0000
0001
0000
0000
0000
0000
0000
0000
0000
,
0101
0000
0001
0100
0000
0010
1000
0000
0010
0100
0000
0001
0010
0001
0100
0001
,
1000
0000
0100
0010
0000
0100
0001
0000
0100
0010
0000
0100
1000
0010
1000
0001
,
1000
0000
0010
0100
0000
0010
0001
0000
0010
0100
0000
0010
1000
0100
1000
0010
,
1000
0000
0000
0000
0000
0000
0000
0000
0100
0000
0000
0000
0000
0000
0000
0000
0010
0000
0000
0000
0000
0000
0000
0000
0001
0000
0000
0000
0000
0100
0000
0000
0000
0000
0000
0000
0000
0010
0000
0000
1000
0000
0000
0000
0000
0000
0000
0000
1100
0000
0000
0000
0000
0000
0000
0000
1100
0000
0000
0000
0000
0000
0000
0000
,
0120
0000
0000
0000
0130
1000
0100
1000
0010
0100
0001
0010
0100
1000
0100
0010
,
0001
0100
0001
0100
0010
0100
0010
0100
0010
1000
0100
1000
0010
0100
0001
0010
,
0001
0100
0001
0100
0001
1000
0001
1000
0100
0010
0001
0100
0001
0010
0100
1000
,
0020
0000
0000
0000
0000
0000
0000
0000
0032
0000
0000
0000
0000
0000
0000
0000
0023
0000
0000
0000
0000
0000
0000
0000
2030
0000
0000
0000
0000
0000
0000
0000
3001
0000
0000
0000
0000
1000
0000
0000
0100
0000
0000
0000
0000
0000
0000
0000
1100
0000
0000
0000
0000
0000
0000
0000
1000
0000
0000
0000
0000
0000
0000
0000
,
2010
0000
0000
0000
3100
1000
0100
1000
0001
0010
0100
1000
0010
1000
0100
0010
,
0001
0100
0001
0100
0001
1000
0001
1000
0100
0010
0001
0100
0001
0010
0100
1000
,
0010
0100
0010
0100
0001
0100
0001
0100
0010
1000
0100
0010
0001
0100
0010
1000
,
0200
0000
0000
0000
0000
0000
0000
0000
2300
0000
0000
0000
0000
0000
0000
0000
3020
0000
0000
0000
0000
0000
0000
0000
0032
0000
0000
0000
0000
0000
0000
0000
0013
0000
0000
0000
0000
1000
0000
0000
0001
0000
0000
0000
0000
0000
0000
0000
1001
0000
0000
0000
0000
0000
0000
0000
0001
0000
0000
0000
0000
0000
0000
0000
,
0201
0000
0000
0000
0000
0000
0000
0000
0301
0000
0000
0000
0000
1000
0000
0000
0001
0000
0000
0000
0000
1000
0000
0000
0100
0000
0000
0000
0000
1000
0000
0000
0100
0000
0000
0000
0000
1000
0000
0000
0000
0000
0000
0000
0000
1000
0000
0000
0010
0000
0000
0000
0000
1000
0000
0000
0000
0000
0000
0000
0000
1000
0000
0000
,
0002
0000
0000
0000
0000
0000
0000
0000
0103
0000
0000
0000
0000
0010
0000
0000
0100
0000
0000
0000
0000
0001
0000
0000
0100
0000
0000
0000
0000
0001
0000
0000
1000
0000
0000
0000
0000
0001
0000
0000
0000
0000
0000
0000
0000
0001
0000
0000
0100
0000
0000
0000
0000
0001
0000
0000
0000
0000
0000
0000
0000
0001
0000
0000
,
2000
0000
0000
0000
0000
0000
0000
0000
3100
0000
0000
0000
0000
0010
0000
0000
0001
0000
0000
0000
0000
0010
0000
0000
0001
0000
0000
0000
0000
0010
0000
0000
0100
0000
0000
0000
0000
1000
0000
0000
0000
0000
0000
0000
0000
1000
0000
0000
0100
0000
0000
0000
0000
1000
0000
0000
0000
0000
0000
0000
0000
1000
0000
0000
,
0020
0000
0000
0000
0000
0000
0000
0000
0230
0000
0000
0000
0000
0000
0000
0000
0302
0000
0000
0000
0000
0000
0000
0000
0023
0000
0000
0000
0000
0000
0000
0000
0130
0000
0000
0000
0000
1000
0000
0000
0001
0000
0000
0000
0000
0000
0000
0000
0101
0000
0000
0000
0000
0000
0000
0000
0010
0000
0000
0000
0000
0000
0000
0000
,
2010
0000
0000
0000
0000
0000
0000
0000
3100
0000
0000
0000
0000
0010
0000
0000
0100
0000
0000
0000
0000
1000
0000
0000
0100
0000
0000
0000
0000
0010
0000
0000
0001
0000
0000
0000
0000
1000
0000
0000
0000
0000
0000
0000
0000
1000
0000
0000
0001
0000
0000
0000
0000
1000
0000
0000
0000
0000
0000
0000
0000
1000
0000
0000
,
0020
0000
0000
0000
0000
0000
0000
0000
1030
0000
0000
0000
0000
0010
0000
0000
0100
0000
0000
0000
0000
0001
0000
0000
0100
0000
0000
0000
0000
0010
0000
0000
1000
0000
0000
0000
0000
0100
0000
0000
0000
0000
0000
0000
0000
0100
0000
0000
0010
0000
0000
0000
0000
0001
0000
0000
0000
0000
0000
0000
0000
0001
0000
0000
,
2000
0000
0000
0000
0000
0000
0000
0000
3001
0000
0000
0000
0000
0010
0000
0000
0100
0000
0000
0000
0000
0010
0000
0000
0001
0000
0000
0000
0000
0100
0000
0000
0010
0000
0000
0000
0000
1000
0000
0000
0000
0000
0000
0000
0000
1000
0000
0000
0001
0000
0000
0000
0000
0100
0000
0000
0000
0000
0000
0000
0000
0001
0000
0000
,
2000
0000
0000
0000
0000
0000
0000
0000
3002
0000
0000
0000
0000
0000
0000
0000
0203
0000
0000
0000
0000
0000
0000
0000
0320
0000
0000
0000
0000
0000
0000
0000
1030
0000
0000
0000
0000
0100
0000
0000
0010
0000
0000
0000
0000
0000
0000
0000
0110
0000
0000
0000
0000
0000
0000
0000
0010
0000
0000
0000
0000
0000
0000
0000
,
2001
0000
0000
0000
0000
0000
0000
0000
0000
0000
0000
0000
3000
0001
0000
0000
0010
0000
0000
0000
0000
0000
0000
0000
0001
0000
0000
0000
0000
0000
0000
0000
0100
0000
0000
0000
0000
0000
0000
0000
0010
0000
0000
0000
0000
0000
0000
0000
1000
0000
0000
0000
0000
0010
0000
0000
0000
0000
0000
0000
0000
0100
0000
0000
,
0010
0000
0000
0000
0000
0000
0000
0000
1000
0000
0000
0000
0000
0100
0000
0000
1000
0000
0000
0000
0000
0000
0000
0000
0010
0000
0000
0000
0000
0100
0000
0000
0001
0000
0000
0000
0000
0000
0000
0000
1000
0000
0000
0000
0000
0000
0000
0000
0001
0000
0000
0000
0000
1000
0000
0000
0000
0000
0000
0000
0000
0000
0000
0000
,
2100
0000
0000
0000
0000
0000
0000
0000
3000
0000
0000
0000
0000
0100
0000
0000
1000
0000
0000
0000
0000
0000
0000
0000
2010
0000
0000
0000
0000
0000
0000
0000
0M00
0000
0000
0000
0000
0000
0000
0000
3001
0000
0000
0000
0000
0000
0000
0000
0010
0000
0000
0000
0000
0000
0000
0000
0100
0000
0000
0000
0000
0000
0000
0000
,
1000
0000
0000
0000
0000
0000
0000
0000
0001
0000
0000
0000
0000
0000
0000
0000
0100
0000
0000
0000
0000
0000
0000
0000
0010
0000
0000
0000
0000
1000
0000
0000
0000
0000
0000
0000
0000
0100
0000
0000
0010
0000
0000
0000
0000
0100
0000
0000
1000
0000
0000
0000
0000
0100
0000
0000
1000
0000
0000
0000
0000
0100
0000
0000
,
2000
0000
0000
0000
0000
0000
0000
0000
0000
0000
0000
0000
0000
3001
0000
0000
0100
0000
0000
0000
0000
0000
0000
0000
0010
0000
0000
0000
0000
0000
0000
0000
2000
0000
0000
0000
0000
0000
0000
0000
0000
0000
0000
0000
0000
3100
0000
0000
0010
0000
0000
0000
0000
0000
0000
0000
0001
0000
0000
0000
0000
0000
0000
0000
,
0020
0000
0000
0000
0000
0000
0000
0000
0000
0000
0000
0000
0000
0031
0000
0000
0100
0000
0000
0000
0000
0000
0000
0000
0010
0000
0000
0000
0000
0000
0000
0000
2000
0000
0000
0000
0000
0000
0000
0000
3100
0000
0000
0000
0000
0010
0000
0000
0001
0000
0000
0000
0000
0000
0000
0000
0100
0000
0000
0000
0000
0000
0000
0000
,
0101
0000
0000
0000
0000
0000
0000
0000
0000
0000
0000
0000
0000
1001
0000
0000
0000
0000
0000
0000
0000
0000
0000
0000
1100
0000
0000
0000
0000
0000
0000
0000
0010
0000
0000
0000
0000
0000
0000
0000
0001
0000
0000
0000
0000
0000
0000
0000
0100
0000
0000
0000
0000
0000
0000
0000
0010
0000
0000
0000
0000
0000
0000
0000
,
2000
0000
0000
0000
0000
0000
0000
0000
0000
0000
0000
0000
3000
0200
0000
0000
0000
0000
0000
0000
0000
0000
0000
0000
0310
0000
0000
0000
0000
0000
0000
0000
0001
0000
0000
0000
0000
1000
0000
0000
0001
0000
0000
0000
0000
0000
0000
0000
1001
0000
0000
0000
0000
0000
0000
0000
0001
0000
0000
0000
0000
0000
0000
0000
,
0101
0100
0010
0100
0001
0100
0010
0100
,
0001
0010
0100
0010
0001
0010
0100
0010
,
0001
1000
0010
1000
0001
1000
0100
1000
,
0010
0000
0000
0000
0000
0000
0000
0000
1000
0000
0000
0000
0000
0000
0000
0000
0001
0000
0000
0000
0000
0000
0000
0000
0100
0000
0000
0000
0000
0000
0000
0000
0010
0000
0000
0000
0000
1000
0000
0000
0001
0000
0000
0000
0000
0000
0000
0000
1001
0000
0000
0000
0000
0000
0000
0000
1000
0000
0000
0000
0000
0000
0000
0000
,
1010
0000
0000
0000
0000
0000
0000
0000
0010
0000
0000
0000
0000
0000
0000
0000
0100
0000
0000
0000
0000
0001
0000
0000
0010
0000
0000
0000
0000
0000
0000
0000
0100
0000
0000
0000
0000
0000
0000
0000
0100
0000
0000
0000
0000
1000
0000
0000
0000
0000
0000
0000
0000
1000
0000
0000
0010
0000
0000
0000
0000
0000
0000
0000
,
0011
0000
0000
0000
0000
0000
0000
0000
0010
0000
0000
0000
0000
1000
0000
0000
0000
0000
0000
0000
0000
0000
0000
0000
0100
0000
0000
0000
0000
0000
0000
0000
0010
0000
0000
0000
0000
0000
0000
0000
0001
0000
0000
0000
0000
0000
0000
0000
0100
0000
0000
0000
0000
0010
0000
0000
0000
0000
0000
0000
0000
0000
0000
0000
,
0110
0000
0000
0000
0000
0000
0000
0000
0000
0000
0000
0000
0000
0010
0000
0000
1000
0000
0000
0000
0000
0100
0000
0000
0010
0000
0000
0000
0000
0000
0000
0000
0110
0000
0000
0000
0000
0000
0000
0000
0001
0000
0000
0000
0000
0100
0000
0000
0000
0000
0000
0000
0000
0100
0000
0000
0010
0000
0000
0000
0000
0000
0000
0000
,
0120
0000
0000
0000
0000
0000
0000
0000
0130
0000
0000
0000
0000
0000
0000
0000
0001
0000
0000
0000
0000
0000
0000
0000
0001
0000
0000
0000
0000
0000
0000
0000
1000
0000
0000
0000
0000
0100
0000
0000
0010
0000
0000
0000
0000
0000
0000
0000
0110
0000
0000
0000
0000
0100
0000
0000
1000
0000
0000
0000
0000
0000
0000
0000
,
2010
0000
3002
0000
0023
0000
2030
3020
,
0032
0000
0003
2000
0000
0000
3100
0000
0000
0000
0100
0000
1000
0000
0010
0000
,
000M
0010
0001
0010
2000
3200
0302
0203
,
0320
0000
0000
0032
0000
0000
2003
0000
0000
0000
3010
0000
0110
0000
0000
0000
,
2000
0000
0000
0000
0000
0000
0000
0000
3001
0000
0000
0000
0000
0100
0000
0000
0010
0000
0000
0000
0000
0000
0000
0000
0010
0000
0000
0000
0000
1000
0000
0000
0100
0000
0000
0000
0000
0000
0000
0000
0100
0000
0000
0000
0000
1000
0000
0000
0010
0000
0000
0000
0000
0000
0000
0000
0010
0000
0000
0000
0000
0100
0000
0000
,
0001
0000
0000
0000
0000
0000
0000
0000
0001
0000
0000
0000
0000
0010
0000
0000
0100
0000
0000
0000
0000
0000
0000
0000
0100
0000
0000
0000
0000
0010
0000
0000
0001
0000
0000
0000
0000
0000
0000
0000
0001
0000
0000
0000
0000
0100
0000
0000
0010
0000
0000
0000
0000
0000
0000
0000
0010
0000
0000
0000
0000
1000
0000
0000
,
0001
0000
0000
0000
0000
0000
0000
0000
0001
0000
0000
0000
0000
0100
0000
0000
1000
0000
0000
0000
0000
0000
0000
0000
1000
0000
0000
0000
0000
0100
0000
0000
0010
0000
0000
0000
0000
0000
0000
0000
0010
0000
0000
0000
0000
1000
0000
0000
0100
0000
0000
0000
0000
0000
0000
0000
0010
0000
0000
0000
0000
0000
0000
0000
,
1001
0000
0000
0100
0000
0000
0010
0000
0000
0001
0000
0000
1001
0000
0000
0001
0010
0100
2000
0000
0000
3000
0000
0000
,
1001
0000
0001
1000
0000
1000
0010
0000
0010
1000
0000
1000
0100
0001
0100
0010
,
0001
0000
0001
0100
0000
0100
0010
0000
0010
0001
0000
0001
0010
1000
0100
1000
,
0010
0000
0010
1000
0000
1000
0001
0000
0001
0100
0000
0100
1000
0100
0010
0001
,
0010
0000
0000
0000
0000
1000
0000
0000
0100
0000
0000
0000
0000
1000
0000
0000
0010
0000
0000
0000
0000
1000
0000
0000
0100
0000
0000
0000
0000
1000
0000
0000
0010
0000
0000
0000
0000
1000
0000
0000
0100
0000
0000
0000
0000
0010
0000
0000
0100
0000
0000
0000
0000
0001
0000
0000
0M00
0000
0000
0000
0000
0000
0000
0000
,
2002
0000
0000
0000
,
0000
0000
0000
0000
,
3003
0000
0000
0000
;

//---------------dance-single - DDRDAIKENKAI----------------
#NOTES:
     dance-single:
     DDRDAIKENKAI:
     Beginner:
     1:
     0.121,0.190,0.082,0.041,0.000:
0000
0000
0000
0000
,
0000
0000
0000
0000
,
0000
0000
0000
0000
,
0000
0000
0000
0000
,
0110
0000
0000
0000
,
0010
0000
0000
0000
,
1000
0000
0001
0000
,
0100
0100
0100
0100
,
0100
0000
0000
0000
,
0001
0000
0000
0000
,
1000
0000
0000
0000
,
0100
0100
0100
0100
,
0100
0000
0000
0000
,
0010
0000
0000
0000
,
0001
0000
0000
0000
,
1000
0000
0001
0000
,
1001
0000
0001
0000
,
1000
0000
0001
0000
,
1001
0000
1000
0000
,
0001
0000
0100
0000
,
0110
0000
0010
0000
,
0100
0000
0010
0000
,
0110
0000
0010
0000
,
0100
0000
0001
0000
,
1001
0000
0000
0000
,
1000
0000
0000
0000
,
0001
0000
0001
0000
,
0100
0100
0100
0100
,
0100
0000
0000
0000
,
0010
0000
0000
0000
,
1000
0000
0001
0000
,
2002
0000
3003
0000
,
1001
0000
0100
0000
,
0010
0000
1000
0000
,
0001
0000
1000
0000
,
0100
0100
0100
0000
,
0010
0000
0010
0000
,
0001
0000
0001
0000
,
0100
0000
0100
0000
,
1000
1000
1000
0000
,
1001
0000
0000
0000
,
0000
0000
0000
0000
,
0110
0000
0000
0000
,
0000
0000
0000
0000
,
1000
0000
1000
0000
,
0001
0000
0001
0000
,
0100
0000
0100
0000
,
0010
0010
0010
0010
,
0010
0000
0000
0000
,
0000
0000
0000
0000
,
0100
0000
0000
0000
,
0001
0000
0001
0000
,
1000
1000
1000
1000
,
1000
1000
1000
1000
,
1000
0000
0001
0000
,
2002
0000
3003
0000
,
0100
0100
0100
0100
,
0100
0000
0100
0000
,
0010
0010
0010
0010
,
0010
0000
1000
0000
,
2002
0000
0000
0000
,
0000
0000
0000
0000
,
3003
0000
0000
0000
;
