#TITLE:Movin' on without you;
#SUBTITLE:;
#ARTIST:宇多田ヒカル;
#TITLETRANSLIT:;
#SUBTITLETRANSLIT:;
#ARTISTTRANSLIT:Utada Hikaru;
#GENRE:J-POP;
#CREDIT:;
#MENUCOLOR:;
#NEWMETERSYSTEM:NO;
#BANNER:Movin on without you.png;
#BACKGROUND:Movin on without you-bg.png;
#LYRICSPATH:;
#CDTITLE:;
#MUSIC:Movin' on without you.ogg;
#OFFSET:-0.987;
#SAMPLESTART:79.680;
#SAMPLELENGTH:15.700;
#SELECTABLE:YES;
#LISTSORT:;
#BPMS:0.000=122.000;
#STOPS:;
#BGCHANGES:-1.840=Movin' on without you.avi=1.000=0=0=1,
99999=-nosongbg-=1.000=0=0=0 // don't automatically add -songbackground-
;
#ATTACKS:;

//---------------dance-single - DDRDAIKENKAI----------------
#NOTES:
     dance-single:
     DDRDAIKENKAI:
     Hard:
     7:
     0.481,0.447,0.328,0.403,0.046:
0000
0000
0000
0000
,
0000
0000
0000
0000
,
0000
0000
0000
0000
,
0000
0000
0000
0000
,
1000
0000
0000
1000
0000
0000
1000
0000
0000
0000
0001
0000
0000
0100
0000
0000
,
0010
0000
0000
0010
0000
0000
0020
0000
0000
0000
0030
0000
0000
0000
0000
0000
,
0100
0000
0000
0100
0000
0000
0100
0000
0000
0000
0001
0000
0000
1000
0000
0000
,
0100
0010
0100
0010
0001
1000
0001
1000
,
1001
0000
0001
1000
0001
0100
0010
0000
,
1000
0000
0100
1000
0010
0100
0001
0000
,
0010
0000
0100
0010
0001
0100
0010
0000
,
1000
0100
0010
0001
2000
0001
0001
0001
,
3001
0000
0100
0001
0100
0001
0010
0000
,
0100
0000
0010
0001
0100
0010
0100
0000
,
0010
0000
1000
0100
0001
0100
1000
0000
,
0001
0100
0010
1000
0002
1000
1000
1000
,
1003
0000
0001
0100
0010
0000
2001
0100
,
3100
0000
0010
0001
0100
0000
0210
0001
,
0301
0000
1000
0100
1000
0000
2010
0001
,
3001
0100
0010
1000
1002
0000
0103
0000
,
1100
0000
0100
0010
0001
0000
0012
0010
,
0013
0000
0001
0100
0010
0000
1020
1000
,
1030
0000
0001
1000
0010
0000
0120
0100
,
0130
0001
0010
1000
0010
0001
1001
0000
,
0102
0000
1003
0100
0010
0100
1000
0001
,
0200
0000
0302
0000
1003
0001
0100
0010
,
0100
0001
1000
0100
0001
0100
1000
0000
,
0002
0000
2003
0000
3100
0010
0001
0000
,
2000
0000
3001
0100
0010
0000
0110
0010
,
1000
0100
0001
0100
1000
0010
0200
0000
,
0320
0000
2030
0000
3001
0010
0001
1000
,
0200
0000
0320
0000
0031
0000
0100
0010
,
1002
0000
2003
0000
3001
0100
0010
1000
,
0100
1000
0010
0100
0001
1000
2001
0000
,
3001
1000
1100
0000
1000
0001
0010
0001
,
0200
0000
0320
0000
1030
0001
1001
0000
,
0012
0000
1003
0000
2100
0000
3001
0100
,
0020
0000
1030
0000
1002
0000
1003
0001
,
0200
0000
0301
0010
1000
0010
0001
1000
,
0200
0000
2300
0000
3001
0100
0110
0000
,
1020
0000
2030
0000
3001
0010
0001
1000
,
0100
1000
0010
0100
0001
0010
0021
0000
,
0031
1000
1100
0000
1000
0010
0100
0001
,
0012
0000
2003
0000
3001
1000
1100
0000
,
2010
0000
3001
0000
0021
0000
0031
0100
,
0020
0000
0130
0000
0201
0000
0310
1000
,
1010
0000
0011
0001
0100
0010
1000
0100
,
2000
0000
3020
0000
0130
0001
1001
0000
,
0102
0000
0000
0100
0000
0000
0103
0000
0000
0000
0001
0000
0000
0010
0000
0000
,
0200
0000
0000
1000
0000
0000
1300
0000
0000
0000
0010
0000
0000
1000
0000
0000
,
0200
0000
0000
0010
0000
0000
0310
0000
0000
0000
0001
0000
0000
1000
0000
0000
,
0010
1000
0001
0100
0010
1000
1001
0000
,
0102
0000
1003
0001
0100
0010
1000
0000
,
1001
0000
1000
0010
0100
0001
0010
0000
,
0110
0000
0010
0001
1001
0000
0010
1000
,
1100
0100
1000
1000
0001
0100
0010
1000
,
1001
0000
0000
0000
;

//---------------dance-single - DDRDAIKENKAI----------------
#NOTES:
     dance-single:
     DDRDAIKENKAI:
     Medium:
     5:
     0.382,0.400,0.034,0.471,0.000:
0000
0000
0000
0000
,
0000
0000
0000
0000
,
0000
0000
0000
0000
,
0000
0000
0000
0000
,
0020
2030
3002
0023
,
0130
0000
0000
2000
0000
3000
0000
0000
,
0020
2030
3002
0203
,
0310
0000
1000
0000
0001
0100
0001
0100
,
0002
0000
1003
0000
0001
0010
0001
0000
,
1000
0000
0001
0000
1000
0100
1000
0000
,
0010
0000
0100
0000
0001
0010
0001
0000
,
2000
0000
3002
0000
0103
0010
1000
0010
,
1000
0000
0001
0000
1000
0100
1000
0000
,
0001
0000
1000
0000
0001
0100
0001
0000
,
0010
0000
0100
0000
1000
0010
1000
0000
,
1000
0100
0010
0000
0001
0100
0010
0000
,
1001
0000
0001
1000
0100
0000
0010
0000
,
0100
0000
1000
0010
0100
0000
0001
0000
,
0010
0000
0100
0010
0001
0000
1000
0000
,
0020
2030
3002
0013
,
0001
0000
0100
0010
1000
0000
0001
0000
,
1000
0000
0010
0100
0001
0000
0010
0000
,
0001
0000
0100
0010
1000
0000
0100
0000
,
0010
0001
0010
0000
0001
1000
0001
0000
,
2000
0000
3001
0000
1000
0001
0100
0000
,
0020
0000
2030
0000
3001
1000
0100
0000
,
0010
0100
0010
0000
0001
0100
0001
0000
,
0020
0230
2300
3001
,
0100
0000
0010
1000
0010
0000
0100
0000
,
0001
1000
0001
0000
1000
0100
1000
0000
,
0200
0000
2300
0000
3001
0100
0010
1000
,
0200
2300
3020
0130
,
1001
0000
0002
0000
2003
0000
3001
1000
,
0100
0000
1000
0000
0001
0100
0010
0000
,
1000
0100
0010
0000
0001
0100
0010
0000
,
2000
0000
3002
0000
1003
0010
1000
0000
,
0002
0103
2000
3100
,
0002
0013
2000
3010
,
0001
0000
1000
0000
0001
1000
0100
0010
,
0001
0000
0001
0100
0001
0100
0001
0000
,
0020
0000
0032
0000
0103
0010
0100
0000
,
0020
0000
2030
0000
3100
1000
0100
0000
,
1000
0001
0100
0000
0001
1000
0100
0000
,
0020
0000
0032
0000
0103
0010
1000
0000
,
0020
0130
0002
0013
,
0200
1300
0002
0103
,
0010
0000
1000
0000
0100
0010
0100
0010
,
0002
0000
2003
0000
3100
1000
0001
0000
,
1002
2003
3200
0320
,
0031
0000
0000
0200
0000
0300
0000
0000
,
0020
2030
3002
0203
,
0310
0000
0000
2000
0000
3001
1000
0001
,
1000
0000
0001
0000
1000
0001
0100
0000
,
0010
0000
1000
0000
0010
1000
0100
0000
,
1000
0100
0010
0000
0001
0100
0010
0000
,
1000
0001
1000
0000
0001
0100
0010
0000
,
1001
0000
0000
0000
;

//---------------dance-single - DDRDAIKENKAI----------------
#NOTES:
     dance-single:
     DDRDAIKENKAI:
     Easy:
     3:
     0.225,0.235,0.025,0.067,0.000: // measure 1
0000
0000
0000
0000
,  // measure 2
0000
0000
0000
0000
,  // measure 3
0000
0000
0000
0000
,  // measure 4
0000
0000
0000
0000
,  // measure 5
1000
0100
0010
0001
,  // measure 6
1000
0000
0000
0001
0000
0000
0000
0000
,  // measure 7
1000
0001
0100
0010
,  // measure 8
1000
0001
1000
0001
,  // measure 9
0100
0010
0000
1000
,  // measure 10
0010
0100
0000
0001
,  // measure 11
0010
0001
0000
0010
,  // measure 12
1000
0100
0001
0010
,  // measure 13
1000
0100
0000
1000
,  // measure 14
0010
0100
0000
0001
,  // measure 15
0100
0010
0000
1000
,  // measure 16
0010
0001
0100
1000
,  // measure 17
0001
0000
1000
0001
,  // measure 18
1000
0000
0001
1000
,  // measure 19
0100
0000
1000
0001
,  // measure 20
0100
0010
1000
0001
,  // measure 21
0100
0000
0010
0010
,  // measure 22
0100
0000
0100
0100
,  // measure 23
0001
0000
1000
1000
,  // measure 24
0100
0001
0010
1000
,  // measure 25
0001
1000
0100
0010
,  // measure 26
0001
1000
0010
0100
,  // measure 27
0010
0010
1000
1000
,  // measure 28
0001
0001
0010
0001
,  // measure 29
1000
0001
0100
0001
,  // measure 30
1000
0010
0100
0010
,  // measure 31
2000
0000
0000
3000
,  // measure 32
0001
0001
0001
1000
,  // measure 33
1001
0001
0100
0010
,  // measure 34
0100
0100
0001
0000
,  // measure 35
0010
0000
0001
0000
,  // measure 36
0100
0010
1000
0000
,  // measure 37
0020
0030
1000
1000
,  // measure 38
0002
0003
0100
0100
,  // measure 39
0020
0030
1000
0100
,  // measure 40
1000
0001
1000
0000
,  // measure 41
1001
0001
0100
0010
,  // measure 42
1000
0001
0100
0000
,  // measure 43
0010
0010
1000
1000
,  // measure 44
0001
0010
0001
0000
,  // measure 45
2000
3000
0010
0100
,  // measure 46
0002
0003
0010
0100
,  // measure 47
2000
3000
0010
1000
,  // measure 48
0100
0001
0020
0030
,  // measure 49
1000
0100
0010
0001
,  // measure 50
1000
0000
0000
0001
0000
0000
0000
0000
,  // measure 51
1000
0001
0100
0010
,  // measure 52
1000
0010
0100
0001
,  // measure 53
0010
0010
0001
0001
,  // measure 54
0100
0100
1000
1000
,  // measure 55
0010
0010
1000
1000
,  // measure 56
0100
0100
0001
0001
,  // measure 57
1001
0000
0000
0000
;
