#TITLE:Merry Christmas Mr. Lawrence;
#SUBTITLE:-FYI-;
#ARTIST:Utada;
#TITLETRANSLIT:;
#SUBTITLETRANSLIT:;
#ARTISTTRANSLIT:Utada Hikaru;
#GENRE:R&B;
#CREDIT:;
#MENUCOLOR:;
#NEWMETERSYSTEM:NO;
#BANNER:Merry Christmas-FYI.png;
#BACKGROUND:Merry Christmas-FYI-bg.png;
#LYRICSPATH:Merry Christmas-FYI.lrc;
#CDTITLE:CDTitle.png;
#MUSIC:Merry Christmas-FYI.ogg;
#OFFSET:0.000;
#SAMPLESTART:65.800;
#SAMPLELENGTH:18.900;
#SELECTABLE:YES;
#LISTSORT:;
#BPMS:0.000=102.000;
#STOPS:;
#BGCHANGES:;
#ATTACKS:;

//---------------dance-single - DDRDAIKENKAI----------------
#NOTES:
     dance-single:
     DDRDAIKENKAI:
     Easy:
     3:
     0.246,0.340,0.007,0.333,0.000:
0000
0000
0000
0000
,
0000
0000
0000
0000
,
0000
0000
0000
0000
,
0000
0000
0000
0000
,
1000
0001
0100
0010
,
0100
0001
1000
1000
,
0001
1000
0010
0100
,
0001
0010
0100
0100
,
0010
0001
0100
0010
,
1000
0100
0010
0010
,
0001
1000
0010
0100
,
0001
1000
0100
0100
,
1000
0001
1000
0001
,
0100
0010
0200
0300
,
0001
1000
0001
1000
,
0010
0100
0020
0030
,
0010
1000
0100
0100
,
0010
0001
0100
0100
,
0010
1000
0001
0001
,
1000
0001
0010
0001
,
0100
0100
0020
0000
,
1030
1000
0002
0000
,
1003
0100
2000
0000
,
3010
2000
3002
0203
,
0310
1000
0200
0000
,
0310
0001
0200
0000
,
0310
1000
0002
1003
,
2000
3001
2002
3003
,
0001
0001
0001
0000
0000
0000
1000
0000
,
0100
0100
0100
0000
0000
0000
0010
0000
,
0200
2300
3020
0230
,
0302
0023
0230
2300
,
3001
0001
0001
0000
0000
0000
1000
0000
,
0100
0100
0100
0000
0000
0000
0010
0000
,
0001
0001
0000
0000
0100
0000
0010
0010
,
0000
2000
3100
0100
,
0020
0031
0100
0001
,
0010
0100
2000
3020
,
1030
0100
1000
0010
,
0100
0001
0020
0032
,
0103
0010
0100
0001
,
1000
0010
0200
0300
,
0010
1000
0001
0010
,
0002
0203
0320
2030
,
3001
1000
0200
0000
,
0300
0010
0001
0100
,
0010
1000
0200
0000
,
2300
0000
0002
3003
,
0001
0001
0001
0000
0000
0000
0100
0000
,
0010
0010
0010
0000
0000
0000
1000
0000
,
0200
2300
3020
0230
,
0302
0023
0230
2300
,
3001
0001
0001
0000
0000
0000
0100
0000
,
0010
0010
0010
0000
0000
0000
1000
0000
,
0001
0001
0000
0000
0100
0000
1000
1000
,
0000
0100
0001
2000
,
0002
0000
3003
0000
;

//---------------dance-single - DDRDAIKENKAI----------------
#NOTES:
     dance-single:
     DDRDAIKENKAI:
     Medium:
     5:
     0.350,0.340,0.007,0.468,0.000:
0000
0000
0000
0000
,
0000
0000
0000
0000
,
0000
0000
0000
0000
,
0000
0000
0000
0000
,
0000
0010
0000
0010
0000
1000
0000
0001
,
0000
1000
0000
1000
0000
0001
1000
0100
,
0000
0010
0000
0010
0000
0001
0000
0100
,
0000
0010
0000
0010
0000
0100
0001
1000
,
0000
0100
0000
1000
0000
0001
0000
1000
,
0000
0010
0000
0100
0000
0010
0100
0001
,
0000
0010
0000
0100
0000
1000
0000
0100
,
0000
0010
0000
0001
0000
0100
0010
0100
,
0010
0000
1000
0100
0000
1000
0001
0000
,
0100
0000
0001
0010
0000
0001
1000
0000
,
0001
0000
1000
0010
0000
1000
0100
0000
,
0010
0000
0001
0100
0000
0001
0010
0000
,
0100
0000
1000
0000
0001
0001
0001
0000
,
0100
0000
0010
0000
1000
1000
1000
0000
,
0100
0000
1000
0000
0001
0001
1000
0000
,
0001
0001
0100
0000
0010
1000
0100
0000
,
2000
0000
3020
0000
0130
0001
1000
0000
,
0200
0000
0320
0000
0031
1000
0100
0000
,
2000
0000
3020
0000
0130
0001
0010
0000
,
0100
1000
0010
0000
0100
0001
1000
0000
,
0002
0000
2003
0000
3100
0010
0001
0000
,
2000
0000
3002
0000
0013
0100
1000
0000
,
0002
0000
0203
0000
0310
1000
0200
0000
,
0310
0001
0200
0000
0310
1000
2000
0000
,
3001
1000
0200
0000
0010
0010
0310
0000
,
0001
0100
0020
0000
1000
1000
1030
0000
,
0100
1000
0200
0000
2300
0000
3200
0000
,
0320
0230
0320
0032
,
1003
0010
2000
0000
0001
0001
3001
0000
,
0100
0010
0200
0000
0001
0001
0301
0000
,
0010
0100
0000
1000
0100
0000
0010
0001
,
0000
0100
0010
0000
1000
0001
1000
1000
,
0001
0100
0001
0100
0020
0000
1030
0100
,
0020
0000
0031
0100
0020
0000
0230
0000
,
0301
0000
0010
0100
2000
0000
3100
0010
,
0002
0000
0103
0010
0200
0000
0320
0000
,
1030
0100
1000
0100
0020
0000
0130
1000
,
0020
0000
1030
0100
0020
0000
0031
0000
,
0100
0010
0100
0010
0200
0000
0301
0010
,
2000
3020
0032
0203
,
0310
1000
0100
1000
0002
0000
1000
0000
,
0103
0000
0001
0010
0001
0100
0010
0010
,
1000
0100
1000
0010
0200
0000
0010
0000
,
0302
1003
2200
3300
,
0010
0001
0200
0000
0010
0010
0320
0000
,
1030
0100
0020
0000
0100
0100
0230
0000
,
1300
0001
0200
0000
0320
0000
0230
0000
,
0320
2030
3002
2003
,
3001
0010
0200
0000
0010
0010
0320
0000
,
0031
0100
0020
0000
1000
1000
2030
0000
,
3001
1000
0100
1000
0200
0000
0310
0001
,
0100
0000
0020
0000
1030
0100
0010
0002
,
2000
0000
3003
0000
;

//---------------dance-single - DDRDAIKENKAI----------------
#NOTES:
     dance-single:
     DDRDAIKENKAI:
     Hard:
     8:
     0.514,0.621,0.156,0.503,0.113: // measure 1
0000
0000
0000
0000
,  // measure 2
0000
0000
0000
0000
,  // measure 3
0000
0000
0000
0000
,  // measure 4
0000
0000
0000
0000
,  // measure 5
1000
0000
0001
0000
1000
0000
0001
0000
0100
0000
0010
0000
0100
0000
0010
0100
,  // measure 6
0001
1000
0001
1000
0100
0010
0100
0010
,  // measure 7
0001
0000
0100
0000
0001
0000
0100
0000
0010
0000
1000
0000
0010
0000
1000
0010
,  // measure 8
1000
0100
1000
0100
0010
0001
0010
0001
,  // measure 9
1000
0000
0100
0000
0001
0000
0100
0000
1000
0000
0001
0000
1001
0000
0001
1000
,  // measure 10
0001
0100
1000
0100
0001
1000
1001
0001
,  // measure 11
1000
0000
0010
0000
0001
0000
0010
0000
1000
0000
0001
0000
1001
0000
0001
1000
,  // measure 12
0001
0010
1000
0010
0001
1000
2001
0001
,  // measure 13
3001
0100
0010
2000
0010
3010
0110
0100
,  // measure 14
0010
0100
0001
0010
0001
1000
1001
1000
,  // measure 15
0001
0100
0010
2000
0100
3100
0110
0100
,  // measure 16
1000
0010
0001
0010
0100
0010
0110
0200
,  // measure 17
0310
0000
1000
0001
1000
0000
0001
0000
1000
0100
1000
0000
0200
0000
0000
0000
,  // measure 18
1300
0000
0001
1000
0001
0000
0100
0000
0001
0010
0001
0000
0020
0000
0000
0000
,  // measure 19
0031
0100
0010
1000
0001
0001
0100
0100
,  // measure 20
0001
0010
1000
0010
0100
0100
0010
0010
,  // measure 21
0002
0000
1003
0001
2000
0000
3001
1000
0002
0000
0203
0000
0310
0000
0020
0000
,  // measure 22
0230
0000
0301
1000
0002
0000
1003
0001
2000
0000
3020
0000
0130
0000
0200
0000
,  // measure 23
0320
0000
0130
0001
0200
0000
0301
0100
0002
0000
0103
0001
0020
0000
0031
0000
,  // measure 24
1000
0000
0100
1000
0020
0000
1030
0000
0100
0000
0010
0000
0110
0000
0000
0000
,  // measure 25
0200
0000
1300
0010
2000
0000
3010
1000
0020
0000
2030
0000
3010
0000
0020
0000
,  // measure 26
2030
0000
3001
0010
0002
0000
0013
0001
0020
0000
0032
0000
0013
0000
0020
0000
,  // measure 27
0032
0000
1003
0001
1000
0000
1000
0001
1000
0000
0200
0000
0320
0000
0230
0000
,  // measure 28
1300
0200
0320
0230
1300
0010
0120
0000
,  // measure 29
0130
0000
0001
0000
0011
0000
0000
0000
0001
0000
0100
0000
0010
0100
0010
0000
,  // measure 30
0100
0001
1001
0000
0001
0001
1000
0100
,  // measure 31
0001
0100
2000
0000
3010
0001
0200
0000
,  // measure 32
0302
0023
2030
3002
,  // measure 33
1003
0000
0010
0000
1010
0000
0000
0000
0010
0000
0010
0000
1000
0001
1000
0000
,  // measure 34
0001
0000
0010
0000
0011
0000
0000
0000
0001
0100
0001
0000
0100
0000
0100
0000
,  // measure 35
0001
0010
1000
0010
0200
0000
1300
0010
,  // measure 36
0100
0001
1001
0000
0001
0010
0100
0010
,  // measure 37
1000
0010
0001
0010
1000
0010
0001
0010
,  // measure 38
0100
1000
0100
0010
0200
1000
2300
0010
,  // measure 39
3010
0001
0010
1000
0010
0001
0010
1000
,  // measure 40
0010
0100
0001
0100
0020
0100
0230
0001
,  // measure 41
0301
0100
1000
0100
0001
0100
1000
0100
,  // measure 42
0001
0010
0100
0010
0002
1000
2003
0100
,  // measure 43
3100
0001
0100
1000
0100
0001
0100
1000
,  // measure 44
0100
0010
0100
1000
0020
1000
2030
0000
,  // measure 45
3001
0000
0100
0000
0010
0000
1000
0001
1000
0000
0001
0000
1001
0000
0000
0000
,  // measure 46
0001
0000
0010
0000
0001
0000
0100
0010
0100
0000
0010
0000
0220
0000
0330
0000
,  // measure 47
0100
0000
0001
0000
1000
0000
0100
1000
0100
0000
1000
0000
1010
0000
0000
0000
,  // measure 48
0010
0000
0100
0000
0010
0000
1000
0001
2000
0000
0002
0000
3003
0000
0000
0000
,  // measure 49
0001
0000
0010
0000
1200
0000
0000
0000
1300
0000
0010
0000
0001
0010
0001
0000
,  // measure 50
0010
1000
1200
0000
0301
0100
1000
0001
,  // measure 51
1000
0100
0002
0000
0203
0000
2300
0000
,  // measure 52
3020
0032
0203
2300
,  // measure 53
3010
0000
1000
0000
0102
0000
0003
0000
1000
0000
0010
0000
1000
0100
1000
0000
,  // measure 54
0100
0000
0010
0000
0001
0100
0001
0000
1000
0000
0001
0000
0100
0000
0010
0000
,  // measure 55
0100
0001
1000
0010
0100
0100
0001
1000
,  // measure 56
0100
0000
2100
3000
0001
0010
0100
2000
,  // measure 57
0002
0000
3003
0000
;
