#TITLE:Kiss & Cry;
#SUBTITLE:;
#ARTIST:宇多田ヒカル;
#TITLETRANSLIT:;
#SUBTITLETRANSLIT:;
#ARTISTTRANSLIT:Utada Hikaru;
#GENRE:R&B;
#CREDIT:;
#MENUCOLOR:;
#NEWMETERSYSTEM:NO;
#BANNER:Kiss & Cry.png;
#BACKGROUND:Kiss & Cry-bg.png;
#LYRICSPATH:Kiss & Cry.lrc;
#CDTITLE:;
#MUSIC:Kiss & Cry.ogg;
#OFFSET:0.000;
#SAMPLESTART:55.400;
#SAMPLELENGTH:12.000;
#SELECTABLE:YES;
#LISTSORT:;
#BPMS:0.000=104.000;
#STOPS:;
#BGCHANGES:0.000=Kiss & Cry.avi=1.000=1=1=0,
99999=-nosongbg-=1.000=0=0=0 // don't automatically add -songbackground-
;
#ATTACKS:;

//---------------dance-single - DDRDAIKENKAI----------------
#NOTES:
     dance-single:
     DDRDAIKENKAI:
     Hard:
     8:
     0.472,0.467,0.253,0.280,0.411: // measure 1
0000
0000
0000
0000
,  // measure 2
0000
0000
0000
0000
,  // measure 3
0000
0000
0000
0000
,  // measure 4
0000
0000
0000
0000
,  // measure 5
2000
0000
0000
0000
3001
0000
0100
0010
0100
0010
1000
0000
0001
1000
0000
0000
,  // measure 6
0002
0000
0000
0000
1003
0000
0010
0100
0010
0100
0001
0000
1000
0000
0000
0001
,  // measure 7
2000
0000
0000
0000
3001
0000
0100
0010
0100
0010
1000
0000
0001
0000
0000
1000
,  // measure 8
0020
0000
0000
0000
1030
0000
0100
1000
0001
1000
0000
0000
1001
0000
0000
0001
,  // measure 9
2000
0000
0000
3000
0001
0000
1000
0100
1000
0100
1000
0000
0020
0000
0000
0000
,  // measure 10
1030
0000
0000
0001
0200
0000
0000
0000
0310
1000
0001
0000
1001
0000
0000
0001
,  // measure 11
2000
0000
0000
3000
0001
0000
1000
0010
1000
0010
0100
0010
0100
0000
0010
1000
,  // measure 12
0000
0000
0001
0000
1002
0000
1003
0100
0010
0200
0000
0000
0310
0000
0000
0010
,  // measure 13
0002
0000
0000
0003
1000
0000
0001
0010
0001
0010
0001
0000
0200
0000
0000
0000
,  // measure 14
0301
0000
0000
1000
0020
0000
0000
0000
0130
0001
1000
0000
1001
0000
0000
0001
,  // measure 15
0020
0000
0000
0000
0031
0000
1000
0100
1000
0100
1000
0001
1000
0001
0000
0200
,  // measure 16
0000
0000
0310
0000
0120
0000
0130
0001
0100
0020
0000
0000
1030
0000
0000
1000
,  // measure 17
0001
1000
0001
1000
0100
1000
0100
1000
0010
0000
0100
0001
0000
0000
0010
0000
,  // measure 18
0001
0100
0001
0100
0010
0100
0010
0100
0010
0000
1000
0100
0000
0000
1000
0000
,  // measure 19
0001
0010
0001
0010
0100
0010
0100
0010
0002
0000
0000
1003
0000
0100
0000
0000
,  // measure 20
0020
0000
0000
0130
0000
1000
0000
0000
0002
0000
0000
1003
0000
0100
0000
0000
,  // measure 21
1000
0001
0100
0001
0100
0010
0100
0010
1000
0000
0001
0100
0000
0000
0001
0000
,  // measure 22
1000
0100
1000
0100
0010
0100
0010
0100
1000
0000
0001
1000
0000
0000
0001
0000
,  // measure 23
0000
0100
0010
0100
0010
0100
0001
1000
0020
0000
0000
1030
0000
0100
0000
0000
,  // measure 24
0020
0000
0000
0031
0000
0100
0000
0000
0020
0000
0000
1030
0000
0100
1000
0100
,  // measure 25
1000
0010
1000
0100
0010
0001
0100
0001
,  // measure 26
0010
0100
1100
0000
1010
0000
0120
0100
,  // measure 27
0130
0001
0010
1000
0010
0001
0100
1000
,  // measure 28
0100
0000
0010
1000
0010
0000
0000
0000
0110
0000
0000
0000
0101
0000
0001
0000
,  // measure 29
0100
0000
0000
0100
0001
0000
0000
0001
1000
0000
0010
0000
1000
0000
0100
0000
,  // measure 30
0001
0100
1100
0000
1010
0010
0110
0200
,  // measure 31
0000
0301
0011
0002
0000
0103
0110
0020
,  // measure 32
0000
0000
1030
0000
1010
0000
1000
0100
0000
1000
0001
1000
0001
0000
0000
0001
,  // measure 33
0200
0301
0010
1000
0010
0100
0010
0001
,  // measure 34
0100
0010
0110
0000
1010
0000
1100
0100
,  // measure 35
1000
0010
0001
0010
1000
0001
0010
0100
,  // measure 36
0010
0000
0001
0100
0001
0000
0000
0000
1001
0000
0000
0000
1100
0000
0100
0000
,  // measure 37
1000
0000
0000
1000
0010
0000
0000
0010
0100
0000
0001
0000
0010
0000
1000
0000
,  // measure 38
0010
0001
0101
0000
1100
0100
1000
1010
,  // measure 39
0000
0100
0001
0011
0000
0100
1000
1010
,  // measure 40
0000
0000
1000
0000
1001
0000
0001
1000
0001
1000
0100
0020
0000
0000
0031
0000
,  // measure 41
2002
0000
0000
0000
,  // measure 42
0000
0000
0000
3003
0000
0000
0000
0000
;

//---------------dance-single - DDRDAIKENKAI----------------
#NOTES:
     dance-single:
     DDRDAIKENKAI:
     Medium:
     4:
     0.308,0.299,0.090,0.298,0.000:
0000
0000
0000
0000
,
0000
0000
0000
0000
,
0000
0000
0000
0000
,
0000
0000
0000
0000
,
1000
0000
1001
0000
0000
0100
0001
0000
,
0100
0000
0110
0000
0000
0100
0010
0000
,
1000
0000
1001
0000
0000
0100
1000
0000
,
0001
0000
1001
0001
0100
0000
0110
0000
,
0100
1001
0010
1100
,
0010
0001
0100
0000
0010
1000
0100
0000
,
0010
0000
0001
1000
0010
0100
0100
0000
,
0010
0120
0000
0130
,
0010
0000
1001
0000
0100
1000
0001
0000
,
0010
0001
0100
0000
0001
1000
0001
0000
,
1000
0000
0001
0100
0010
0100
0001
0000
,
0010
0210
0000
0310
,
0001
0100
0001
0100
0010
1000
0010
0000
,
1000
0100
1000
0100
0010
0001
0010
0000
,
0001
1000
0001
1000
0200
0000
1300
0000
,
0200
1300
0200
1300
,
0010
0100
0001
0010
0100
1000
1000
0000
,
0001
0100
0010
1000
0100
0010
0010
0000
,
0001
1000
0010
0100
0002
0000
1003
0000
,
0002
1003
0002
1003
,
0001
0100
0001
0100
0020
0000
1030
0200
,
0000
1300
0002
0000
0100
0000
0103
0000
,
0010
1000
0010
0100
0002
0000
0103
0020
,
0000
1030
0200
0000
1000
0000
1300
0000
,
0200
0000
0320
0000
0031
0100
0001
0100
,
0010
1000
0001
0000
1000
1000
1000
0010
,
0000
0010
0100
0010
0000
0010
0100
0002
,
0000
1000
2003
0000
0010
0000
3010
0000
,
0001
1000
0100
1000
0200
0000
1300
0020
,
0000
1030
0002
0000
0100
0000
0103
0000
,
0010
1000
0100
1000
0002
0000
0013
0200
,
0000
0310
0002
0000
1000
0000
1003
0000
,
0020
0000
2030
0000
3100
1000
0010
0100
,
0010
1000
0200
0000
0310
0001
0010
0002
,
0000
1003
0100
2000
0000
3010
0100
0020
,
0000
0100
0230
0000
0301
1000
0200
0000
,
2000
0000
0000
0000
,
0000
0000
0000
3300
0000
0000
0000
0000
;

//---------------dance-single - DDRDAIKENKAI----------------
#NOTES:
     dance-single:
     DDRDAIKENKAI:
     Easy:
     3:
     0.192,0.206,0.081,0.135,0.000:
0000
0000
0000
0000
,
0000
0000
0000
0000
,
0000
0000
0000
0000
,
0000
0000
0000
0000
,
1000
0001
0000
0001
,
0100
0010
0000
0010
,
0100
0001
0000
0001
,
1000
0100
0000
0110
,
0010
0001
0100
0010
,
0200
0301
0020
0031
,
0000
0100
0000
0010
,
0010
0020
0000
0030
,
1000
0100
1000
0010
,
0200
0301
0010
0110
,
0100
1000
0000
1000
,
0001
0200
0000
0300
,
0010
0010
1000
0100
,
0001
0001
0100
1000
,
0010
0010
1000
0100
,
1000
0100
0010
0001
,
1000
0010
0100
0001
,
0001
0100
0010
1000
,
1000
0100
0010
0100
,
0010
0100
0000
0110
,
0010
0001
0100
0010
,
0100
0002
1000
1003
,
0001
1000
0100
0010
,
0100
2000
0010
3010
,
0100
0010
1000
0001
,
1000
0010
0000
0010
,
0100
0001
0100
0010
,
1000
2002
0000
3003
,
0000
0001
1000
0100
,
0010
0100
1000
1001
,
0000
1000
0001
0100
,
0010
0100
0001
1001
,
2000
3020
1030
0100
,
0010
1001
0000
0100
,
0001
0010
0100
1000
,
0010
0220
0000
0330
,
2002
0000
0000
0000
,
0000
0000
0000
3003
0000
0000
0000
0000
;
