#TITLE:蹴っ飛ばせ!;
#SUBTITLE:;
#ARTIST:宇多田ヒカル;
#TITLETRANSLIT:Kettobase!;
#SUBTITLETRANSLIT:;
#ARTISTTRANSLIT:Utada Hikaru;
#GENRE:J-ROCK;
#CREDIT:;
#MENUCOLOR:;
#NEWMETERSYSTEM:NO;
#BANNER:Kettobase.png;
#BACKGROUND:Kettobase-bg.png;
#LYRICSPATH:Kettobase.lrc;
#CDTITLE:CDTitle.png;
#MUSIC:Kettobase!.ogg;
#OFFSET:0.000;
#SAMPLESTART:63.620;
#SAMPLELENGTH:12.000;
#SELECTABLE:YES;
#LISTSORT:;
#BPMS:0.000=150.000;
#STOPS:;
#BGCHANGES:;
#ATTACKS:;

//---------------dance-single - DDRDAIKENKAI----------------
#NOTES:
     dance-single:
     DDRDAIKENKAI:
     Hard:
     9:
     0.687,0.644,0.470,0.359,0.145: // measure 1
0000
0000
0000
0000
,  // measure 2
0000
0000
0000
0000
,  // measure 3
0000
0000
0000
0000
,  // measure 4
0000
0000
0000
0000
,  // measure 5
0020
0000
0000
0030
,  // measure 6
2000
0000
0000
3000
,  // measure 7
0002
0000
0000
0000
0203
0000
0000
0310
,  // measure 8
0000
1000
1001
0000
1001
0100
0001
0100
,  // measure 9
1000
0001
1000
0100
0010
0001
1000
0000
,  // measure 10
0001
1000
0100
0010
0002
0000
2003
0000
,  // measure 11
3001
0010
0100
0001
0100
1000
0010
0100
,  // measure 12
0000
0001
1001
0001
1001
1000
1001
0001
,  // measure 13
0100
0010
0001
0010
1000
0100
0010
0000
,  // measure 14
0001
0010
1000
0010
0200
0000
1300
0010
,  // measure 15
1000
0100
1000
0010
0100
1000
0100
0002
,  // measure 16
0000
1003
0001
0100
0110
0010
0110
0000
,  // measure 17
0010
0000
1000
0100
1000
0000
0010
0000
0100
0000
0001
0000
0010
0000
1000
0000
,  // measure 18
0010
0001
0010
0100
1000
0100
0001
0100
,  // measure 19
0020
0000
0031
0002
0000
0103
0010
2000
,  // measure 20
0000
3001
0100
0001
0010
0001
0100
0001
,  // measure 21
1000
0100
1000
0010
0100
1000
0100
0002
,  // measure 22
0000
1003
0001
0010
0100
1000
0010
0100
,  // measure 23
0001
0000
0101
0000
0020
0000
1000
2030
,  // measure 24
0000
3001
0100
0001
0100
0010
0110
0000
,  // measure 25
0010
0000
1000
0100
1000
0000
0010
0000
0001
0000
0010
0000
0100
0000
0010
0000
,  // measure 26
1000
0100
0001
0100
1000
0010
0001
0010
,  // measure 27
1000
0000
1000
0100
0001
0001
0100
2000
,  // measure 28
0000
3001
0010
1000
0010
1000
0010
0001
,  // measure 29
0100
0010
1000
0100
0001
0100
1000
0002
,  // measure 30
0000
1003
0001
0010
0001
0100
0010
1000
,  // measure 31
0100
0000
1000
0010
0120
0000
1030
2000
,  // measure 32
0000
3010
0100
0001
0101
0000
0012
0000
,  // measure 33
1003
0100
1000
1000
0001
0010
0100
0010
,  // measure 34
2000
0000
3010
0001
0100
0010
1010
0000
,  // measure 35
1000
0001
0010
0000
0001
0100
0010
1000
,  // measure 36
0100
1000
1100
0000
1010
0010
0210
0000
,  // measure 37
0301
0010
0001
0001
1000
0001
0100
0010
,  // measure 38
2000
0000
3001
1000
0020
0000
0130
0000
,  // measure 39
0001
0010
0100
0010
0100
1000
0001
2000
,  // measure 40
0000
3100
0010
0100
0110
0000
0011
0000
,  // measure 41
2100
0000
3001
1000
0010
0000
0110
0000
,  // measure 42
0102
0000
1003
0001
0200
0000
0310
0000
,  // measure 43
1000
0100
1000
0010
0001
0010
1000
0100
,  // measure 44
1000
1000
0001
0001
0011
1000
2010
0000
,  // measure 45
3010
0000
0100
0000
0010
0000
1000
0001
0000
0010
0000
0001
2000
0000
0000
0000
,  // measure 46
3100
0000
0010
0000
0001
0000
0010
0100
0000
0010
0000
0100
2000
0000
0000
0000
,  // measure 47
3010
1000
0100
1000
0010
0001
0010
1000
,  // measure 48
0100
0010
0100
0010
0001
0010
0011
0000
,  // measure 49
0102
0000
1003
0001
0100
0000
0110
0000
,  // measure 50
1020
0000
0130
0001
0020
0000
0130
0000
,  // measure 51
1000
0100
1000
0100
0010
0100
1000
0001
,  // measure 52
0100
0001
1000
0000
1001
0000
1020
0000
,  // measure 53
1030
0100
1100
0000
1010
0010
0110
0000
,  // measure 54
0101
0001
0011
0000
0110
0100
1100
0000
,  // measure 55
1010
0011
1010
0011
,  // measure 56
1001
0001
0101
0000
2001
0010
0010
3010
,  // measure 57
1000
0000
0100
0000
2000
0000
0000
0000
3001
0010
0000
0010
0001
0000
0100
0000
,  // measure 58
0010
0100
0001
1000
0020
0000
2030
0000
,  // measure 59
3001
0000
1000
0000
0100
0000
1000
0000
0001
0100
0000
0100
0010
0000
0100
0000
,  // measure 60
0010
1000
1001
1000
1100
0100
0120
0000
,  // measure 61
0031
0000
0010
0000
0100
0000
0010
0000
0100
1000
0000
1000
0001
0000
0100
0000
,  // measure 62
0010
1000
0100
1000
0200
0000
2300
0000
,  // measure 63
3001
0000
0010
0000
0001
0000
0100
0000
0010
1000
0000
1000
0001
0000
1000
0000
,  // measure 64
0010
1000
1100
0100
0110
0010
1002
0000
,  // measure 65
1003
0000
0100
0000
1000
0000
0010
0100
0000
0001
0000
0010
0100
0000
1000
0000
,  // measure 66
0001
0000
0100
0000
0010
0000
1000
0100
0000
0010
0000
0001
1000
0000
0001
0000
,  // measure 67
1000
0000
0100
0000
1000
0000
0001
0100
0000
0010
0000
0100
0001
0000
1000
0000
,  // measure 68
0100
1000
1100
0100
0110
0010
0011
0001
,  // measure 69
1000
0000
0001
0000
0010
0000
0001
0100
0000
0010
0000
0100
0010
0000
1000
0000
,  // measure 70
0100
0000
1000
0000
0010
0000
0100
0001
0000
0010
0000
0100
0010
0000
0100
0000
,  // measure 71
1000
0000
0001
0000
0100
0000
0010
0100
0000
0010
0000
1000
0100
0000
1000
0000
,  // measure 72
0001
0100
0110
0010
1010
1000
1001
0001
;

//---------------dance-single - DDRDAIKENKAI----------------
#NOTES:
     dance-single:
     DDRDAIKENKAI:
     Medium:
     6:
     0.478,0.551,0.222,0.222,0.000:
0000
0000
0000
0000
,
0000
0000
0000
0000
,
0000
0000
0000
0000
,
0000
0000
0000
0000
,
0000
0000
0000
0000
,
0000
0000
0000
0000
,
0000
0000
0000
0000
,
0000
1001
1001
1001
,
2000
0000
3001
0100
0000
0001
1000
0000
,
0100
0000
0010
0100
0000
0010
0001
0000
,
1000
0000
0001
0100
0000
0001
0100
0000
,
0010
1000
0010
1000
0010
1000
0010
1000
,
0010
0000
0100
0001
0000
0100
0001
0000
,
1000
0000
0100
0010
0000
0100
0010
0000
,
0001
0000
1000
0100
0000
1000
0001
0000
,
1000
0100
1000
0100
1000
0001
0000
0000
,
0001
1000
0001
1000
0001
0100
0001
0100
,
0001
0010
0001
0010
0001
1000
0001
1000
,
0010
0000
1000
0001
0000
0000
0100
0002
,
0000
0100
0100
0103
,
1000
0100
0001
0100
,
1000
0010
0001
0010
,
1000
0010
0100
0001
,
0010
0001
0010
0001
0010
0001
0000
0000
,
1000
0010
1000
0010
1000
0001
1000
0001
,
1000
0100
1000
0100
1000
0001
1000
0001
,
0000
0000
1000
1000
0001
0000
1000
2000
,
0000
0100
0100
3100
,
0001
0010
0001
0100
,
0010
1000
0001
0100
,
0001
0001
1000
1000
,
0010
1000
0010
0010
2000
0000
3001
0000
,
2000
0000
3002
0000
1003
0001
0100
0000
,
0002
0000
2003
0000
3001
1000
0100
0000
,
0020
0000
0032
0000
0103
0001
0010
0000
,
0100
1100
1001
0101
,
0020
0000
2030
0000
3010
0100
0001
0000
,
2000
0000
3002
0000
0103
0010
1000
0000
,
0002
0000
0023
0000
0130
1000
0001
0000
,
0100
0001
0100
0001
0100
0000
0101
0000
,
1001
0000
1000
0001
0100
0000
0010
0000
,
0110
0000
0010
1000
0100
0000
1000
0000
,
0100
0010
0001
0000
0010
0100
1000
0000
,
0020
0000
0230
0000
0301
1000
0002
0000
,
1003
0001
1000
0001
,
0100
0010
1000
0100
,
0010
0001
0010
0000
0100
0010
0100
0000
,
1000
0010
1000
0000
0010
0100
0020
0000
,
1030
0000
0001
1000
0001
0000
0100
0000
,
0010
0000
1000
0001
1000
0000
0010
0000
,
0100
0001
0100
0000
0001
0010
0001
0000
,
2000
0000
3001
0000
0100
0010
1000
0000
,
1010
0110
0101
1001
,
0011
0110
1100
1001
,
1010
0011
1010
0011
,
1100
0101
1100
1002
,
1003
0000
0001
0100
0001
0100
0010
0000
,
1000
0100
1000
0100
0020
0000
0030
0000
,
0001
0000
1000
0010
1000
0010
0100
0000
,
0001
0010
0001
0010
0100
0000
1000
0000
,
0001
0000
0100
0010
0100
0010
1000
0000
,
0010
0100
0010
0100
0002
0000
2003
0000
,
3001
0100
0001
0000
1000
0100
1000
0000
,
0010
0100
0010
0000
1000
0001
1000
0000
,
0001
0000
1000
0100
0000
0010
0100
0000
,
1000
0000
0001
0100
0000
0010
0100
0000
,
0001
0000
1000
0100
0000
0010
0001
0000
,
1000
0001
1000
0001
1000
0001
1000
0001
,
1000
0000
0001
0100
0000
0010
1000
0000
,
0001
0000
1000
0010
0000
0100
0001
0000
,
0010
0000
0100
1000
0000
1000
0001
0200
,
0000
0310
1000
0001
1000
0000
1001
0000
;

//---------------dance-single - DDRDAIKENKAI----------------
#NOTES:
     dance-single:
     DDRDAIKENKAI:
     Easy:
     4:
     0.299,0.398,0.094,0.128,0.000:
0000
0000
0000
0000
,
0000
0000
0000
0000
,
0000
0000
0000
0000
,
0000
0000
0000
0000
,
0000
0000
0000
0000
,
0000
0000
0000
0000
,
0000
0000
0000
0000
,
0000
1001
1001
1001
,
1001
0000
0001
0000
,
0100
0010
0200
0300
,
0010
1000
0010
0000
,
0100
0001
0001
0001
,
1000
0000
0001
0000
,
1000
0100
2000
3000
,
0010
0010
0010
0000
,
0100
0100
0200
0300
,
0001
1000
0001
1000
,
0010
0100
0010
0100
,
0001
0001
1000
1000
,
0200
0000
0300
0000
,
1000
0100
1000
0100
,
1000
0001
1000
0001
,
0200
0300
0001
0000
,
0020
0000
0030
0000
,
0001
0100
0001
0100
,
0010
1000
0010
1000
,
0100
1000
0100
1000
,
0002
0000
0003
0000
,
0100
0000
0001
1000
,
0100
1000
0100
0010
,
0002
0003
1000
0000
,
0010
0010
0020
0030
,
0100
0001
1000
0100
,
2000
0000
3001
0000
,
0100
0001
1000
0100
,
0010
0010
0010
0001
,
0001
1000
0100
1000
,
0002
0000
1003
0000
,
0001
0100
0010
1000
,
0001
1000
1000
1000
,
0100
0000
1000
0001
,
0100
0000
0010
0000
,
0100
0001
1000
0100
,
0010
0010
0010
0001
,
0001
0001
0000
0001
,
0100
0010
0000
0010
,
1000
0001
0000
0001
,
0000
0001
0001
0001
,
0010
0000
0001
0100
,
0010
0000
1000
0100
,
0010
0001
0010
0001
,
0100
0100
0100
0010
,
1000
1000
0001
0001
,
1000
1000
0001
0001
,
0100
0100
0100
0100
,
0110
0110
0110
0110
,
0010
1000
0100
1000
,
0010
0100
0002
0003
,
0010
0100
1000
0001
,
0100
0001
0001
0001
,
1000
0100
0010
0001
,
0100
0010
2000
3000
,
0001
0010
0001
1000
,
0001
0001
0001
0001
,
1000
0100
1000
0010
,
0100
0001
0020
0030
,
0100
1000
0100
0010
,
0001
1000
1000
1000
,
0001
0100
0010
1000
,
0100
0010
0002
1003
,
0001
0100
0010
1000
,
0100
0110
0110
1001
;
