#TITLE:Keep Tryin';
#SUBTITLE:;
#ARTIST:宇多田ヒカル;
#TITLETRANSLIT:;
#SUBTITLETRANSLIT:;
#ARTISTTRANSLIT:Utada Hikaru;
#GENRE:ETHEREAL;
#CREDIT:;
#MENUCOLOR:;
#NEWMETERSYSTEM:NO;
#BANNER:Keep Tryin'.png;
#BACKGROUND:Keep Tryin'-bg.png;
#LYRICSPATH:Keep Tryin'.lrc;
#CDTITLE:;
#MUSIC:Keep Tryin'.ogg;
#OFFSET:0.002;
#SAMPLESTART:19.202;
#SAMPLELENGTH:19.202;
#SELECTABLE:YES;
#LISTSORT:;
#BPMS:0.000=100.000;
#STOPS:;
#BGCHANGES:0.250=Keep Tryin'.avi=1.000=1=0=1,
220.000=Keep Tryin'-bg.png=1.000=1=0=1,
99999=-nosongbg-=1.000=0=0=0 // don't automatically add -songbackground-
;
#ATTACKS:;

//---------------dance-single - DDRDAIKENKAI----------------
#NOTES:
     dance-single:
     DDRDAIKENKAI:
     Hard:
     8:
     0.475,0.475,0.089,0.179,0.595: // measure 1
0000
0000
0000
0000
,  // measure 2
0000
0000
0000
0000
,  // measure 3
0000
0000
0000
0000
,  // measure 4
0000
0000
0000
0000
,  // measure 5
0000
0000
0000
0000
,  // measure 6
0000
0000
0000
0000
,  // measure 7
0000
0000
0000
0000
,  // measure 8
0000
0000
0000
0000
,  // measure 9
1000
0001
0000
1000
0000
0000
0001
0100
0000
0100
0001
0000
0010
0100
0010
0000
,  // measure 10
0100
0000
0100
1000
0010
0000
0010
1000
0000
1000
0001
0000
0010
0000
0001
0000
,  // measure 11
0200
0000
0000
0310
0000
0000
2000
0000
0000
3001
0000
0000
1002
0000
0000
1003
,  // measure 12
0100
0010
0100
0010
0001
0100
0110
0000
,  // measure 13
0010
1000
0000
1000
0000
0000
0001
0100
0000
0100
0001
0000
0010
0000
0100
0000
,  // measure 14
1000
0000
0001
1000
0001
0000
0001
1000
0000
1000
0100
0000
0010
0000
0001
0000
,  // measure 15
2000
0000
0000
3001
0000
0000
0200
0000
0000
0310
0000
0000
0120
0000
0000
0130
,  // measure 16
0001
1000
0001
1000
0010
0100
0210
0000
,  // measure 17
0310
0000
1000
0000
0100
0000
0010
0000
0001
0100
0001
0000
1000
0000
0000
1000
,  // measure 18
0001
0000
0010
0000
0100
0000
1000
0000
0010
0100
0010
0000
0100
0000
0000
0100
,  // measure 19
0001
0000
0010
0000
0001
0000
0100
0000
0010
1000
0010
0000
1000
0000
0000
0010
,  // measure 20
1000
0000
0100
0000
0001
0000
0100
0000
1000
0001
1000
0000
0020
0000
0100
0000
,  // measure 21
0130
0000
0001
0000
0010
0000
0001
0000
0100
0010
0100
0000
0001
0000
1000
0000
,  // measure 22
0100
0000
0010
0000
0100
0000
1000
0000
0001
0010
0001
0000
0200
0000
0001
0000
,  // measure 23
0301
0000
1000
0000
0010
0000
0100
0001
0000
0100
0001
0000
1000
0000
0000
1000
,  // measure 24
0100
0000
1000
0000
0010
0000
1000
0000
0100
0010
0100
0000
2000
0000
3001
0000
,  // measure 25
1001
0000
1000
0001
0000
1000
0001
0000
0000
0000
1000
0000
0100
0010
0000
0100
,  // measure 26
1000
0000
0010
0100
0000
0010
0100
0000
0000
0000
0001
0000
1000
0010
0000
1000
,  // measure 27
0001
0000
0100
0010
0000
0100
0010
0000
0100
0000
0001
0000
1000
0000
0100
0000
,  // measure 28
1000
0000
0010
0100
0000
0010
2000
0000
0000
0000
3001
0000
1000
0001
0000
0001
,  // measure 29
0010
0001
1000
0100
0001
0100
2000
0000
,  // measure 30
3010
0001
0010
1000
0001
0010
0100
1000
,  // measure 31
0001
0010
0100
0000
1000
0000
0100
0000
1000
0010
0100
0000
0010
0000
1000
0000
,  // measure 32
0001
0010
0001
0000
1000
0100
1000
0000
0010
0100
0010
0000
0120
0000
0000
0000
,  // measure 33
1030
0100
0000
0100
0000
0000
0010
0001
0000
0001
0100
0000
0001
0010
0001
0000
,  // measure 34
0100
0000
0010
1000
0100
0000
0100
1000
0000
1000
0001
0000
0100
0000
0010
0000
,  // measure 35
0200
0000
0000
0001
0000
0000
0010
0000
0000
0301
0000
0000
1002
0000
0000
1003
,  // measure 36
0100
0010
0001
0100
0010
1000
2001
0001
,  // measure 37
3001
0000
0100
0000
0010
0000
1000
0020
0000
0000
1030
0000
1000
0000
0100
0000
,  // measure 38
0020
0000
0031
0100
0010
1000
1001
0001
,  // measure 39
1000
0001
0101
0100
0001
1000
1100
0100
,  // measure 40
0020
0000
0000
0000
0031
0000
0100
0000
0010
0000
1000
0100
1000
0100
1000
0010
,  // measure 41
0000
1000
0000
0001
0000
1000
0000
0100
0000
0010
0000
0001
0100
0001
0100
0001
,  // measure 42
0000
0010
0000
0001
0000
0010
0000
0100
0000
1000
0000
0001
0100
0001
0100
0010
,  // measure 43
0000
0000
0000
1000
0100
1000
0100
0010
0000
0000
0000
0001
1000
0001
1000
0100
,  // measure 44
0000
1000
0000
0010
0000
0001
0000
0010
0000
1000
0000
0001
0100
0001
0020
0000
,  // measure 45
0000
0031
0000
1000
0000
0010
0000
0100
0000
0001
0000
1000
0100
1000
0020
0000
,  // measure 46
0000
1030
0000
0010
0000
0100
0000
0001
0000
0010
0000
0100
1000
0001
2000
0000
,  // measure 47
3001
0000
0000
1000
0100
1000
0010
0000
1000
0000
0000
1000
0001
0010
0001
0000
,  // measure 48
1000
0100
0000
1000
0000
0100
0000
1000
0000
0100
0000
0010
0001
0000
1000
0001
,  // measure 49
0000
0010
0000
0001
0000
0010
0000
0100
0000
1000
0000
0001
0100
0000
0010
0100
,  // measure 50
0000
0001
0000
0100
0000
0001
0000
1000
0000
0010
0000
0100
0001
0000
1000
0100
,  // measure 51
0000
0000
0000
1000
0001
0000
0010
0100
0000
0000
0000
0010
0001
0000
1000
0100
,  // measure 52
0000
1000
0000
0010
0000
0100
0000
0001
0000
0010
0000
0100
1000
0000
0001
0000
,  // measure 53
0000
0010
0000
0100
0000
1000
0000
0010
0000
0100
0000
0001
0100
0000
0010
0000
,  // measure 54
0000
1000
0000
0100
0000
1000
0000
0100
0000
0010
0000
0001
0100
0000
0010
0000
,  // measure 55
0100
0000
0000
0001
1000
0000
0010
0000
0100
0000
0000
0001
0010
0000
0100
0000
,  // measure 56
2200
0000
0000
0000
0000
0000
0000
0000
0000
3300
0000
0000
0000
0000
0000
0000
;

//---------------dance-single - DDRDAIKENKAI----------------
#NOTES:
     dance-single:
     DDRDAIKENKAI:
     Medium:
     5:
     0.325,0.331,0.037,0.342,0.011:
0000
0000
0000
0000
,
0000
0000
0000
0000
,
0000
0000
0000
0000
,
0000
0000
0000
0000
,
0000
0000
0000
0000
,
0000
0000
0000
0000
,
0000
0000
0000
0000
,
0000
0000
0000
0000
,
0010
0000
0000
0010
0000
0000
1000
0000
0000
0000
0001
0000
0100
0000
0000
0000
,
0001
0010
0001
0000
0100
0010
1000
0000
,
0200
0000
0000
0320
0000
0000
0032
0000
,
1003
0001
0100
0010
1000
0000
1001
0000
,
0010
0000
0000
0010
0000
0000
0001
0000
0000
0000
0100
0000
0010
0000
0000
0000
,
0010
1000
0100
0000
0100
1000
0010
0000
,
0200
0000
0000
0302
0000
0000
2003
0000
,
3100
0010
0001
0010
0100
0000
0110
0000
,
0010
0001
0100
0010
1000
0000
0100
0000
,
1000
0010
0100
0002
0000
0203
0000
0000
,
0310
1000
0010
1000
0200
0000
0310
0000
,
0001
0100
0001
0020
0000
0100
0230
0000
,
1300
0010
1000
0010
1000
0000
0001
0100
,
0001
0100
0001
0020
0000
0230
0000
0310
,
0000
0001
0100
0010
1000
0001
1000
0000
,
1000
0001
0100
0010
1000
0000
1001
0000
,
0002
0000
2003
0000
3010
0100
0010
0000
,
0200
0000
0302
0000
0103
0001
1000
0000
,
0200
0000
0320
0000
0031
1000
0100
0010
,
0002
1000
1000
0003
,
0001
0000
1000
0100
1000
0000
0010
0000
,
0100
0000
0001
0010
0001
0000
0100
0000
,
0010
1000
0100
0000
0010
0001
0100
0000
,
0020
2030
3200
0320
,
0031
0000
0000
0001
0000
0000
1000
0000
0000
0000
0001
0000
0100
0000
0000
0000
,
0010
1000
0100
0000
1000
0010
0001
0000
,
0020
0000
0030
2000
0000
0100
3200
0000
,
0320
0001
0100
1030
,
0001
0100
0001
0000
0010
0100
1000
0000
,
0020
0000
0130
0000
0001
1000
0100
0000
,
0010
0001
0100
0000
0010
1000
0100
0000
,
0020
0032
0203
0320
,
1030
0100
1000
0000
0010
0100
0001
0000
,
0010
0100
0010
0000
0001
1000
0100
0000
,
0010
0001
0100
0000
0010
1000
0100
0000
,
2000
0000
3020
0000
0130
0001
1000
1000
,
0200
0000
0320
0000
0031
0010
0100
0100
,
2000
0000
3002
0000
0103
0010
1000
0000
,
0100
0010
0001
0000
0100
0010
1000
0000
,
0100
0010
0001
0100
0010
0000
0110
0000
,
0010
1000
0010
0000
0200
0000
0301
0000
,
1000
0100
0010
0000
0200
0000
1300
0000
,
0010
1000
0100
0000
0010
0001
0100
0000
,
0001
0010
0100
1000
0002
0000
1003
0000
,
0001
0100
0001
0100
0020
0000
1030
0000
,
0100
0010
0100
0010
0002
0000
1003
0000
,
0001
1000
0100
0000
1000
0001
0100
0000
,
0220
0000
0000
0000
0000
0000
0000
0000
0000
0330
0000
0000
0000
0000
0000
0000
;

//---------------dance-single - DDRDAIKENKAI----------------
#NOTES:
     dance-single:
     DDRDAIKENKAI:
     Easy:
     2:
     0.193,0.207,0.060,0.275,0.000:
0000
0000
0000
0000
,
0000
0000
0000
0000
,
0000
0000
0000
0000
,
0000
0000
0000
0000
,
0000
0000
0000
0000
,
0000
0000
0000
0000
,
0000
0000
0000
0000
,
0000
0000
0000
0000
,
1000
0001
0000
0001
,
0100
0010
1000
0100
,
0020
0000
0000
0032
0000
0000
0103
0000
,
0200
0000
0010
0310
,
1000
0100
0000
1000
,
0010
0100
0001
0100
,
0020
0000
0000
2030
0000
0000
3100
0000
,
0200
0000
0010
0310
,
0001
0001
1000
0000
,
0010
1000
0100
0000
,
1000
0001
1000
0000
,
0001
1000
0100
0000
,
0010
0001
0010
0000
,
0100
1000
0100
0000
,
1000
0010
1000
0000
,
0001
0100
0001
0000
,
0200
0000
0010
0310
,
0200
0000
0001
0301
,
2000
0000
0100
3100
,
0220
0000
0000
0330
,
0001
0001
0100
0000
,
0010
0010
1000
0000
,
0010
0010
1000
1000
,
0001
1000
0100
0010
,
0001
1000
0000
1000
,
0001
0100
0010
1000
,
0200
0000
0000
2300
0000
0000
3010
0000
,
0220
0000
0000
0330
,
0010
0100
0001
0100
,
0020
0030
1000
0100
,
0020
0030
0002
0003
,
0200
0300
0010
1001
,
0100
0100
1000
1000
,
0010
0010
0100
0100
,
0002
0003
2000
3000
,
0010
1000
0200
0300
,
0010
0100
2000
3000
,
0010
0100
0002
0003
,
0020
0030
0002
0003
,
0200
0000
0300
0110
,
0010
0000
1000
1000
,
0200
0300
0010
0010
,
0002
0003
2000
3000
,
0020
0000
0030
0110
,
0200
0000
0300
0110
,
0020
0000
0030
0110
,
2000
3000
0002
0003
,
2002
0000
0000
0000
0000
0000
0000
0000
0000
3003
0000
0000
0000
0000
0000
0000
;
