#TITLE:Hotel Lobby;
#SUBTITLE:;
#ARTIST:Utada;
#TITLETRANSLIT:;
#SUBTITLETRANSLIT:;
#ARTISTTRANSLIT:Utada Hikaru;
#GENRE:ELECTRONICA;
#CREDIT:;
#MENUCOLOR:;
#NEWMETERSYSTEM:NO;
#BANNER:Hotel Lobby.png;
#BACKGROUND:Hotel Lobby-bg.png;
#LYRICSPATH:Hotel Lobby.lrc;
#CDTITLE:;
#MUSIC:Hotel Lobby.ogg;
#OFFSET:-2.210;
#SAMPLESTART:45.780;
#SAMPLELENGTH:17.500;
#SELECTABLE:YES;
#LISTSORT:;
#BPMS:0.000=110.000;
#STOPS:;
#BGCHANGES:31.667=Hotel Lobby.avi=1.000=1=0=0,
207.500=Hotel Lobby-bg.png=1.000=1=0=1,
99999=-nosongbg-=1.000=0=0=0 // don't automatically add -songbackground-
;
#ATTACKS:;

//---------------dance-single - DDRDAIKENKAI----------------
#NOTES:
     dance-single:
     DDRDAIKENKAI:
     Hard:
     8:
     0.542,0.540,0.083,0.375,0.512: // measure 1
0000
0000
0000
0000
,  // measure 2
0000
0000
0000
0000
,  // measure 3
0000
0000
0000
0000
,  // measure 4
0000
0000
0000
0000
,  // measure 5
1000
0000
0100
0010
0100
0000
2000
0000
3100
0000
0001
0200
0000
1300
0000
0001
,  // measure 6
1000
0000
0010
0100
0010
0000
2000
0000
3010
0000
0001
0020
0000
1030
0000
0100
,  // measure 7
1000
0000
0001
0010
0001
0000
0200
0000
0310
0000
1000
0200
0000
0310
0000
0001
,  // measure 8
1000
0000
0001
0100
0001
0000
2000
0000
3001
0000
0001
0020
0000
0031
0000
0100
,  // measure 9
1000
0000
0100
0000
0001
0000
0100
0000
1000
0000
0100
0001
0000
0000
1000
0000
,  // measure 10
0001
0000
0010
0000
1000
0000
0010
0000
0001
0000
0010
1000
0000
0000
0010
0000
,  // measure 11
0001
0000
0100
0000
0010
0000
1000
0000
0100
0000
0010
0100
0000
1000
0000
0000
,  // measure 12
0100
0000
0010
0100
0000
1000
0000
0000
0020
0000
0000
1030
0100
0000
0000
0000
,  // measure 13
1000
0000
0001
0100
0001
0100
0001
0000
0010
0000
0100
0010
0100
0000
1000
0000
,  // measure 14
0000
1000
0100
1000
0100
0000
0010
0000
0100
0000
1000
0002
0000
0000
1003
0000
,  // measure 15
0010
0100
0010
0100
0001
0000
1000
0000
0100
0000
0010
0001
0000
1000
0000
0000
,  // measure 16
0100
0000
0010
0001
0000
1000
0000
0000
0100
0000
0010
0001
0000
1000
0000
1000
,  // measure 17
0010
0000
0100
0000
0010
1000
0000
1000
0000
0100
0010
0000
0010
0000
0001
0000
,  // measure 18
0100
0000
0010
0000
1000
0100
0000
0100
0000
1000
0001
0000
0001
0000
1000
0000
,  // measure 19
0001
0000
0100
0000
0010
1000
0000
1000
0000
0010
0100
0000
0100
0000
0001
0000
,  // measure 20
0010
0000
0100
0000
1000
0100
0000
0100
0000
0100
0010
0000
0001
0000
1001
0000
,  // measure 21
0001
0000
0010
0000
1000
0000
0010
0001
0000
1000
0000
0200
0000
0000
0301
0000
,  // measure 22
0100
0000
1000
0000
0010
0100
0000
0001
0000
0010
0000
0200
0000
0000
1300
0000
,  // measure 23
0020
0000
0000
2030
0000
0000
3200
0000
0000
0000
0310
0000
0001
0000
0100
0000
,  // measure 24
0010
0000
1000
0000
0001
0100
0000
0001
0000
0100
0010
0000
0010
0000
1000
0000
,  // measure 25
0100
0000
0010
0000
0100
1000
0000
0001
0000
0100
0000
0020
0000
0000
0130
0000
,  // measure 26
0001
0000
0100
0010
0000
0100
0000
0002
0000
0000
1000
0000
1000
0000
1003
0000
,  // measure 27
0200
0000
0000
0320
0000
0000
0032
0000
0000
0000
1000
0000
1000
0000
1003
0000
,  // measure 28
0001
0000
0100
0000
0010
0000
1000
0000
0100
0000
0010
0000
0100
1000
0000
0001
,  // measure 29
1000
0000
0001
0000
0100
0000
0001
1000
0000
0100
0000
2000
0000
0000
3001
0000
,  // measure 30
0010
0000
0001
0000
0100
0010
0000
0100
0000
0001
0000
2000
0000
0000
3010
0000
,  // measure 31
2000
0000
0000
3200
0000
0000
0320
0000
0000
0000
0031
0000
0001
0000
0100
0000
,  // measure 32
0010
0000
1000
0000
0010
0100
0000
0010
0000
0100
0001
0000
0010
0000
0100
0000
,  // measure 33
1000
0000
0001
0000
1000
0001
0000
0100
0000
0010
0000
0200
0000
0000
0310
0000
,  // measure 34
1000
0000
0100
0000
0010
0000
0001
0100
0000
0010
0000
1000
0000
0000
0001
0000
,  // measure 35
0020
0000
0000
2030
0000
0000
3020
0000
0000
0000
0030
0000
0000
0000
0001
0000
,  // measure 36
1000
0000
1000
0000
0001
0100
0000
0100
0000
0100
0010
0000
1000
0000
1001
0000
,  // measure 37
2000
0000
0001
0001
0000
3000
0001
0000
0200
0000
0010
0000
0000
0000
0310
0000
,  // measure 38
2000
0000
0100
0100
0000
0000
3100
0000
0020
0000
0001
0000
0000
0000
0031
0000
,  // measure 39
0200
0000
1000
1000
0300
0000
1000
0000
0200
0000
0001
0000
0000
0000
0301
0000
,  // measure 40
0020
0000
0100
0100
0000
0000
0130
0000
2000
0000
0001
0000
0000
0000
3001
0000
,  // measure 41
2000
0000
3001
0100
0001
0000
0100
0000
0020
0000
1030
0100
1000
0000
0001
0000
,  // measure 42
2000
0000
3001
0010
0001
0000
0100
0000
0002
0000
1003
0010
1000
0000
0010
0000
,  // measure 43
0200
0000
0301
1000
0001
0000
0100
0000
0020
0000
1030
0001
1000
0000
0100
0000
,  // measure 44
0020
0000
0130
1000
0100
0000
0010
0000
0002
0000
0103
0010
0100
0000
0100
0000
,  // measure 45
0001
0000
0001
0000
0001
0010
0000
0010
0000
0010
0001
0000
0100
0000
0010
0000
,  // measure 46
1000
0000
1000
0000
0100
0010
0000
0010
0000
0010
0001
0000
0100
0000
0010
0000
,  // measure 47
1000
1010
0000
1001
0000
0101
0000
1100
,  // measure 48
0100
0000
0100
0000
0010
0001
0000
0001
0000
0001
1000
0000
0100
0000
0001
0000
,  // measure 49
0100
0000
0100
0000
1000
0010
0000
0010
0000
0010
0001
0000
0010
0000
1000
0000
,  // measure 50
0001
0000
0001
0000
1000
0100
0000
0100
0000
0100
0001
0000
0100
0000
1000
0000
,  // measure 51
0001
1001
0000
1010
0000
1001
0000
0101
,  // measure 52
0001
0000
1000
0000
0001
0010
0000
0100
0000
0010
0001
0000
0001
0000
1000
0000
;

//---------------dance-single - DDRDAIKENKAI----------------
#NOTES:
     dance-single:
     DDRDAIKENKAI:
     Medium:
     5:
     0.351,0.367,0.000,0.292,0.025:
0000
0000
0000
0000
,
0000
0000
0000
0000
,
0000
0000
0000
0000
,
0000
0000
0000
0000
,
0001
1000
0100
0000
0010
0000
0010
0000
,
0001
1000
0010
0000
0100
0000
0100
0000
,
0001
0010
0100
0000
1000
0001
0100
0000
,
0010
1000
0100
0000
1000
0001
1000
0000
,
0001
1000
0200
0000
0010
0010
0310
0000
,
0001
1000
0020
0000
0100
0100
0130
0000
,
0001
1000
0001
0000
0001
1000
0001
0000
,
1000
0100
0001
0000
0200
0000
1300
0000
,
0001
0100
0001
0000
0200
0010
0310
0000
,
1000
0000
0100
0000
1000
0000
0000
0000
0020
0000
0100
0000
0100
0030
0000
0000
,
0001
0010
1000
0000
1000
0010
0001
0000
,
0001
0100
1000
0000
1000
0100
0001
0000
,
0020
0000
0032
0000
1000
1000
2003
0000
,
3002
0000
0203
0000
0010
0010
0320
0000
,
1030
0100
0010
0000
0001
0100
0010
0000
,
1000
0100
1000
0010
0100
0001
1000
0000
,
0001
0001
0001
0000
1000
0100
0010
0000
,
0100
0100
0100
0000
0010
0001
0100
0000
,
0020
0000
0000
2030
0000
0000
3020
0000
0000
0000
0000
0000
1030
0000
0000
0000
,
0002
0000
0000
0023
0000
0000
0032
0000
0000
0000
0000
0000
1003
0000
0000
0000
,
0001
0100
0001
0000
0100
0100
0100
0000
,
0010
1000
0100
0000
0010
0100
0010
0100
,
2000
0000
0000
3002
0000
0000
2003
0000
0000
0000
3000
0000
0000
0000
0001
0000
,
0200
0000
0000
0010
0000
0010
0000
0310
,
1000
0001
0100
0000
0010
1000
0100
0000
,
1000
0010
0100
0000
0001
1000
0100
0000
,
0020
0000
0000
0032
0000
0000
0023
0000
0000
0000
0000
0030
0100
0000
0000
0000
,
2000
0000
0000
3020
0000
0000
2030
0000
0000
0000
0000
3000
0001
0000
0000
0000
,
1000
0100
1000
1000
1000
0001
0100
0000
,
0001
0010
0001
0001
0001
1000
0100
0000
,
2000
0000
0000
3020
0000
0000
0230
0000
0000
0000
0300
0000
0000
0000
0001
0000
,
0020
0000
0000
0100
0000
0100
0000
0130
,
2000
0001
0100
3010
,
0200
0010
1000
0301
,
0020
0001
0100
1030
,
2000
0001
0010
3100
,
1000
0001
1000
0000
0001
0000
0100
0000
,
0010
0100
0010
0000
1000
0000
0100
0000
,
0010
0001
0010
0000
0100
0000
1000
0000
,
0001
0100
0001
0000
1000
0000
0010
0000
,
0100
0100
0100
0000
0001
1000
0100
0000
,
0010
0010
0010
0000
0001
1000
0100
0000
,
1000
0001
0000
1000
0000
0010
0000
0100
,
0010
0010
0100
0000
0001
1000
0100
0000
,
1000
0010
1000
1000
1000
0100
0010
0000
,
0001
0100
0001
0001
0001
0010
0100
0000
,
0000
1000
0000
0001
0000
1000
0000
0100
,
0010
0010
0010
0001
1000
1000
1000
0001
;

//---------------dance-single - DDRDAIKENKAI----------------
#NOTES:
     dance-single:
     DDRDAIKENKAI:
     Easy:
     3:
     0.208,0.346,0.033,0.283,0.000:
0000
0000
0000
0000
,
0000
0000
0000
0000
,
0000
0000
0000
0000
,
0000
0000
0000
0000
,
2000
0000
0000
3000
0002
0000
0000
0003
,
0200
0000
0000
0300
0020
0000
0000
0030
,
2000
0000
0000
3000
0200
0000
0000
0300
,
0020
0000
0000
0030
0002
0000
0000
0003
,
1000
0001
0001
1000
,
0001
1000
1000
0001
,
1000
0001
1000
0001
,
0100
0100
0020
0030
,
0100
0100
0010
0010
,
0100
0010
0100
0010
,
0010
0010
0100
0100
,
0001
0001
1000
1000
,
0200
2300
3002
2003
,
3020
2030
3200
0320
,
0002
0000
0000
0033
,
0200
0000
0020
0330
,
1000
1000
0100
0010
,
0001
0001
0010
0100
,
0020
0000
0000
0130
,
2000
0000
0000
3001
,
0100
0010
1000
1000
,
0010
0100
0001
0001
,
2000
0000
0200
3300
,
0020
0000
0002
0033
,
0100
0010
1000
1000
,
0001
1000
0100
0100
,
0020
0000
0000
0000
0000
0030
0001
0000
,
0200
0000
0000
0310
,
1000
0000
1000
0000
2000
0000
0000
3000
,
0100
0000
0100
0000
0200
0000
0000
0300
,
0020
0000
0000
0030
,
0002
0000
0000
0003
,
1000
0000
1000
0000
,
0001
0000
0001
0000
,
0100
0000
0100
0000
,
0010
0000
0010
0000
,
0110
0000
1000
0100
,
0110
0000
0001
0000
,
0110
0000
1000
0010
,
0110
0000
0001
0000
,
1000
1000
1000
0100
,
0010
0010
0010
0001
,
0200
0000
0000
0000
0000
0000
0000
0300
,
0020
0000
0000
0000
0000
0000
0000
0030
,
1000
1000
1000
0001
,
0100
0100
0100
0010
,
1000
0000
0001
0000
,
1000
0000
0100
0000
0010
0000
0001
0001
;
