#TITLE:HEART STATION;
#SUBTITLE:;
#ARTIST:宇多田ヒカル;
#TITLETRANSLIT:;
#SUBTITLETRANSLIT:;
#ARTISTTRANSLIT:Utada Hikaru;
#GENRE:J-POP;
#CREDIT:;
#MENUCOLOR:;
#NEWMETERSYSTEM:NO;
#BANNER:HEART STATION.png;
#BACKGROUND:HEART STATION-bg.png;
#LYRICSPATH:HEART STATION.lrc;
#CDTITLE:;
#MUSIC:HEART STATION.ogg;
#OFFSET:0.000;
#SAMPLESTART:54.860;
#SAMPLELENGTH:17.980;
#SELECTABLE:YES;
#LISTSORT:;
#BPMS:0.000=105.000;
#STOPS:;
#BGCHANGES:0.000=HEART STATION.avi=1.000=1=0=1,
99999=-nosongbg-=1.000=0=0=0 // don't automatically add -songbackground-
;
#ATTACKS:;

//---------------dance-single - DDRDAIKENKAI----------------
#NOTES:
     dance-single:
     DDRDAIKENKAI:
     Hard:
     6:
     0.374,0.364,0.023,0.344,0.090: // measure 1
0000
0000
0000
0000
,  // measure 2
0000
0000
0000
0000
,  // measure 3
0000
0000
0000
0000
,  // measure 4
0000
0000
0000
0000
,  // measure 5
0010
0000
0000
0010
0000
0000
0010
0000
0010
0000
0000
0010
0000
0000
0010
0000
,  // measure 6
1000
0000
0000
1000
0000
0000
1000
0000
0002
0000
0000
0000
2003
0000
0000
0000
,  // measure 7
3001
0000
0000
0001
0000
0000
1000
0000
0001
0000
0000
0001
0000
0000
1000
0000
,  // measure 8
0100
0000
0000
0100
0000
0000
1000
0000
0002
0000
0000
0000
1003
0000
0001
0000
,  // measure 9
0010
0001
0100
0020
0000
1030
0100
1000
,  // measure 10
0010
0001
0010
0200
0000
0301
1000
0001
,  // measure 11
0100
0010
0100
0002
0000
1003
0100
0010
,  // measure 12
1000
0010
0001
0020
0000
0130
1000
0001
,  // measure 13
0010
1000
0010
0002
0000
1003
0001
0200
,  // measure 14
0000
0301
1000
0020
0000
1030
0100
1000
,  // measure 15
0002
0000
1003
0000
0001
0010
0100
0000
,  // measure 16
0020
0032
0203
0310
,  // measure 17
2000
0000
0010
0010
3010
0100
0001
0010
,  // measure 18
0200
0000
0010
0010
0310
0001
1000
0010
,  // measure 19
0200
0000
0001
0001
0301
1000
0100
1000
,  // measure 20
0001
0100
1000
0100
0002
0000
0013
0010
,  // measure 21
0002
0000
1000
1000
1003
0001
0100
0010
,  // measure 22
0200
0000
0001
0001
0301
0010
0100
1000
,  // measure 23
0200
1000
2300
0000
3002
0100
0203
0000
,  // measure 24
0320
2030
3200
0301
,  // measure 25
1100
0000
1000
0001
0100
0010
0100
0001
,  // measure 26
1000
0000
0001
1000
0010
0100
0010
1000
,  // measure 27
0001
0000
1000
0100
0010
0001
0100
0010
,  // measure 28
1000
0000
1000
0010
0100
0001
0010
0100
,  // measure 29
1000
0000
0010
1000
0100
0000
0100
1000
,  // measure 30
0010
0000
0010
0100
0002
0000
0023
0000
,  // measure 31
0130
1000
0001
0000
0100
0010
1000
0000
,  // measure 32
0100
0010
0001
0200
0000
0301
0010
0100
,  // measure 33
1000
0000
1000
0010
1000
0100
0001
0100
,  // measure 34
1000
0000
0001
0010
1000
0010
0001
0100
,  // measure 35
0001
0000
1000
0001
0010
0001
0100
0010
,  // measure 36
1000
0000
0001
1000
0100
1000
0010
0100
,  // measure 37
0001
0000
0001
1000
0001
1000
0010
0100
,  // measure 38
0002
0000
1003
0001
0200
0000
0310
0000
,  // measure 39
0120
0000
2030
0000
3100
0010
0002
0000
,  // measure 40
1003
0100
1000
0100
0010
0001
0200
0000
,  // measure 41
0310
0000
1000
0010
0000
0000
0010
0000
1000
0000
0001
1000
0000
0000
1000
0000
,  // measure 42
0001
0000
0100
0001
0000
0000
0001
0000
0100
0000
0010
1000
0020
0000
0030
0000
,  // measure 43
1000
0000
0100
1000
0000
0000
1000
0000
0100
0000
0010
0100
0000
0000
0100
0000
,  // measure 44
0010
0000
0001
0010
0000
0000
0010
0000
0002
0000
0000
2000
0003
0000
0000
0000
,  // measure 45
3001
0000
0100
0001
0000
0000
0001
0000
0001
0000
0100
0010
0000
0000
0010
0000
,  // measure 46
0010
0000
0100
0010
0000
0000
0010
0000
1000
0000
0100
1000
0100
0000
0000
0000
,  // measure 47
2000
0000
0000
3001
0000
0000
0001
0000
0200
0000
0000
0310
0000
0000
0010
0000
,  // measure 48
2000
0000
0000
3100
0000
0000
0100
0000
0010
0000
0000
0001
0000
0100
0000
0000
,  // measure 49
0220
0000
0000
0000
,  // measure 50
0330
0000
0000
0000
;

//---------------dance-single - DDRDAIKENKAI----------------
#NOTES:
     dance-single:
     DDRDAIKENKAI:
     Medium:
     4:
     0.304,0.325,0.141,0.258,0.000: // measure 1
0000
0000
0000
0000
,  // measure 2
0000
0000
0000
0000
,  // measure 3
0000
0000
0000
0000
,  // measure 4
0000
0000
0000
0000
,  // measure 5
1000
0000
0001
0000
1000
0001
0100
0000
,  // measure 6
0010
1000
0100
0000
0010
0001
0100
0000
,  // measure 7
0010
0000
1000
0000
0001
0010
0001
0000
,  // measure 8
1000
0100
1000
0000
0001
0000
1000
0100
,  // measure 9
1000
0000
0010
0000
0100
0001
0010
0000
,  // measure 10
0100
0000
1000
0000
0100
0010
0001
0000
,  // measure 11
1000
0010
1000
0000
0001
0100
0001
0000
,  // measure 12
0100
0000
0010
0000
1000
0001
1000
0000
,  // measure 13
0001
0010
0001
0200
0000
0001
0001
0302
,  // measure 14
0000
0010
0010
0023
0000
0130
0100
1000
,  // measure 15
1000
0000
0001
0000
1000
0001
0100
0000
,  // measure 16
0020
2030
3200
0301
,  // measure 17
0200
0000
1300
0000
1000
0001
0100
0000
,  // measure 18
0200
0000
0301
0000
0001
0010
0100
0000
,  // measure 19
0200
0000
1300
0000
0000
0010
0010
1000
,  // measure 20
0020
2030
3200
0310
,  // measure 21
0002
0000
1003
0000
0100
0010
0001
0000
,  // measure 22
2000
0000
3010
0000
0100
0001
0010
0000
,  // measure 23
0020
0000
0031
0000
0001
1000
0100
0000
,  // measure 24
2000
3020
0230
0301
,  // measure 25
1001
0000
0001
0100
0001
0000
0100
0010
,  // measure 26
0100
0000
0010
1000
0010
0000
1000
0001
,  // measure 27
1000
0000
0100
1000
0100
0000
0010
0100
,  // measure 28
0010
0002
0023
0032
,  // measure 29
0103
0000
0100
0010
0010
0000
1000
0100
,  // measure 30
0100
0000
0010
0001
0100
0000
0010
0000
,  // measure 31
0110
0000
1001
0000
1000
0001
0100
0000
,  // measure 32
0010
1000
0100
2000
0000
0010
3010
0000
,  // measure 33
0110
0000
0010
1000
0010
0000
1010
0000
,  // measure 34
0101
0000
0010
0001
0010
0000
0001
0100
,  // measure 35
0001
0000
0100
0010
1000
0000
0010
0100
,  // measure 36
0001
0000
0010
0100
0010
0100
0020
0000
,  // measure 37
0031
0000
1000
0001
1000
0000
0001
0100
,  // measure 38
0010
0000
1000
1000
0002
0000
1003
0000
,  // measure 39
1001
0000
0110
0000
0010
1000
0100
0000
,  // measure 40
0020
0000
0031
0002
0000
0100
0103
0000
,  // measure 41
0110
1000
1100
0001
,  // measure 42
0011
0100
0110
1000
,  // measure 43
2100
0000
0010
0000
,  // measure 44
0001
0000
0100
3100
,  // measure 45
0011
1000
0101
0010
,  // measure 46
1100
0001
1010
0100
,  // measure 47
0002
0013
2000
3010
,  // measure 48
0200
0310
0002
1003
,  // measure 49
2002
0000
0000
0000
,  // measure 50
3003
0000
0000
0000
;

//---------------dance-single - DDRDAIKENKAI----------------
#NOTES:
     dance-single:
     DDRDAIKENKAI:
     Easy:
     3:
     0.200,0.268,0.125,0.250,0.000: // measure 1
0000
0000
0000
0000
,  // measure 2
0000
0000
0000
0000
,  // measure 3
0000
0000
0000
0000
,  // measure 4
0000
0000
0000
0000
,  // measure 5
0010
0000
0001
0000
,  // measure 6
1000
0000
0010
0000
,  // measure 7
0100
0100
0001
0001
,  // measure 8
2000
0000
0200
3300
,  // measure 9
0010
0001
0100
0010
,  // measure 10
2000
0000
3000
0001
,  // measure 11
0001
1000
0010
0100
,  // measure 12
0002
0000
0003
0010
,  // measure 13
0010
0100
1000
0010
,  // measure 14
0100
0001
0010
0100
,  // measure 15
1000
0000
0001
0001
,  // measure 16
0100
0010
1000
0001
,  // measure 17
2002
3003
0001
0100
,  // measure 18
0220
0330
0010
1000
,  // measure 19
2002
3003
0001
1000
,  // measure 20
0100
0010
0001
0010
,  // measure 21
0220
0330
0001
0100
,  // measure 22
0220
0330
1000
0100
,  // measure 23
0220
0330
0001
1000
,  // measure 24
0010
0100
0001
2002
,  // measure 25
3003
1000
0100
0010
,  // measure 26
0001
0001
0010
0100
,  // measure 27
1000
1000
0010
0100
,  // measure 28
0001
0001
0100
0010
,  // measure 29
1000
0100
0100
0010
,  // measure 30
0010
0001
0001
1000
,  // measure 31
0200
0000
0000
0300
,  // measure 32
0020
0000
0000
0030
,  // measure 33
0001
1000
1000
0010
,  // measure 34
0100
0001
0001
0100
,  // measure 35
0010
1000
1000
0100
,  // measure 36
0010
0001
0001
1000
,  // measure 37
0100
1000
1000
0010
,  // measure 38
0100
0001
0010
0001
,  // measure 39
0200
0000
0000
0300
,  // measure 40
0020
0000
0000
0030
,  // measure 41
0110
0000
1001
0000
,  // measure 42
1010
0000
0101
0000
,  // measure 43
0002
0000
2003
0000
,  // measure 44
3200
0000
0320
0030
,  // measure 45
0110
0000
1001
0000
,  // measure 46
0011
0000
1100
0000
,  // measure 47
0020
0000
0230
0000
,  // measure 48
0302
0000
2003
3000
,  // measure 49
2002
0000
0000
0000
,  // measure 50
3003
0000
0000
0000
;

//---------------dance-single - DDRDAIKENKAI----------------
#NOTES:
     dance-single:
     DDRDAIKENKAI:
     Challenge:
     9:
     0.547,0.517,0.266,0.195,0.453: // measure 1
0000
0000
0000
0000
,  // measure 2
0000
0000
0000
0000
,  // measure 3
0000
0000
0000
0000
,  // measure 4
0000
0000
0000
0000
,  // measure 5
0001
0000
1000
0001
0000
1000
0001
0000
0001
0000
0100
0001
0000
0100
0001
0000
,  // measure 6
0001
0000
0010
0001
0000
0010
0001
0000
2000
0000
3001
0100
0010
1000
0010
0100
,  // measure 7
0010
0000
0100
0010
0000
0100
0010
0000
0010
0000
1000
0010
0000
1000
0010
0000
,  // measure 8
0010
0000
1000
0010
0000
1000
0010
0000
0200
0000
0301
0010
0100
1000
0100
0010
,  // measure 9
0001
0000
1000
0100
1000
0000
0100
1000
0100
0000
1000
0000
0010
0000
0100
0000
,  // measure 10
0001
0000
0010
0001
0010
0000
0001
0010
0001
0000
0100
0000
0020
0000
1000
0000
,  // measure 11
1030
0000
0100
1000
0100
0000
1000
0100
1000
0000
0010
0000
0200
0000
0001
0000
,  // measure 12
0301
0000
1000
0001
1000
0000
0001
1000
0001
0000
1000
0000
0100
0000
1000
0000
,  // measure 13
0010
0000
0100
0010
0100
0000
0001
0010
0001
0000
0010
0100
0010
0000
0011
0000
,  // measure 14
0001
0000
1000
0100
1000
0000
2010
0000
3010
0000
0100
0010
0200
0000
0010
0000
,  // measure 15
0310
0000
1000
0001
1000
0000
0001
0100
0001
0000
0100
0010
0100
0000
0001
0000
,  // measure 16
2000
0000
3100
1000
0020
0000
1030
0010
0200
0000
0310
0100
0002
0000
0003
0000
,  // measure 17
1002
0000
1003
0100
1000
0000
0001
0010
0100
0000
0010
0000
0011
0000
2000
0000
,  // measure 18
3001
0000
0010
0001
0010
0000
0001
0100
0010
0000
1000
0000
1001
0000
0002
0000
,  // measure 19
1003
0000
0001
0010
0001
0000
1000
0100
1000
0000
0010
0000
0110
0000
0010
0000
,  // measure 20
0200
0001
0302
0000
0023
1000
1030
0010
,  // measure 21
0001
0000
0010
0100
1000
0000
0100
0010
0001
0000
1000
0000
1001
0000
0001
0000
,  // measure 22
1000
0000
0010
0100
0001
0000
0100
0010
1000
0000
0010
0000
0110
0000
0010
0000
,  // measure 23
1000
0000
0001
1000
0100
0000
1000
0010
0100
0000
0010
0000
1010
0000
0010
0000
,  // measure 24
2000
0100
3200
0000
0320
0001
0032
0003
,  // measure 25
1001
0000
0001
1000
0100
0000
1000
0010
0100
0000
0010
0000
2000
0000
3001
0000
,  // measure 26
1001
0000
0000
0000
1000
0000
0001
0010
0001
0000
0100
0010
0100
0000
0010
0000
,  // measure 27
1010
0000
0000
0000
1000
0000
0100
1000
0100
0000
0010
0001
0010
0000
0001
0000
,  // measure 28
1001
0000
0000
0000
1000
0000
0001
1000
0100
0000
1000
0000
0020
0000
0000
0000
,  // measure 29
1030
0000
0010
1000
0010
0000
0100
0010
0100
0000
0001
0000
0010
0000
1000
0000
,  // measure 30
0010
0000
0001
0100
0001
0000
1000
0100
1000
0000
0010
0000
0100
0000
0001
0000
,  // measure 31
1000
0000
1001
0000
0001
0000
1000
0100
0000
1000
0010
0000
0100
0000
0010
0000
,  // measure 32
1000
0000
1001
0000
0001
0000
1000
0100
0000
1000
0100
0000
0010
0000
0001
0000
,  // measure 33
1001
0000
0001
1000
0001
0000
1000
0100
1000
0000
0010
0000
0110
0000
0000
0000
,  // measure 34
1010
0000
0010
0000
1000
0000
0100
1000
0100
0000
0010
0001
0010
0000
0001
0000
,  // measure 35
1001
0000
0001
1000
0001
0000
1000
0001
1000
0000
0100
0000
1000
0000
0010
0000
,  // measure 36
0110
0000
0010
0100
0010
0000
0100
0010
0100
0000
0001
0000
0010
0000
1000
0000
,  // measure 37
1010
0000
1000
0010
1000
0000
0010
0100
0010
0000
0100
1000
0100
0000
1000
0000
,  // measure 38
1010
0000
0010
0100
0010
0000
0100
0001
0100
0000
0001
0010
0001
0000
1000
0000
,  // measure 39
0001
0000
1001
0000
0001
0000
1000
0100
0000
1000
0001
0000
0100
0000
0000
0000
,  // measure 40
0010
0000
0110
0000
0010
0000
0100
0001
0000
0010
0001
0000
1001
0000
0000
0000
,  // measure 41
1100
0000
0100
1000
0000
0100
1000
0000
1010
0000
0010
1000
0000
0010
1000
0000
,  // measure 42
0110
0000
0010
0100
0000
0010
0100
0000
0101
0000
0001
0010
0100
1000
0100
0010
,  // measure 43
0001
0000
1000
0001
0000
1000
0001
0000
1000
0000
0100
1000
0000
0100
1000
0000
,  // measure 44
0010
0000
0100
0010
0000
0100
0010
0000
1000
0000
0001
0010
0000
0100
0000
0000
,  // measure 45
1100
0000
1000
0001
0000
0001
1000
0000
1010
0000
0010
0100
0000
0100
0001
0000
,  // measure 46
0011
0000
0010
0100
0000
0100
1000
0000
1001
0000
1000
0100
1000
0010
0100
0001
,  // measure 47
0010
0000
0001
0010
0000
0001
0010
0000
0001
0000
1000
0100
0000
1000
0100
0000
,  // measure 48
0010
0000
0100
1000
0000
0100
0010
0000
0002
0000
0000
1003
0000
0100
0000
0000
,  // measure 49
0220
0000
0000
0000
,  // measure 50
0330
0000
0000
0000
;

//---------------dance-single - DDRDAIKENKAI----------------
#NOTES:
     dance-single:
     DDRDAIKENKAI:
     Beginner:
     1:
     0.109,0.115,0.008,0.125,0.000:
0000
0000
0000
0000
,
0000
0000
0000
0000
,
0000
0000
0000
0000
,
0000
0000
0000
0000
,
1000
0000
0001
0000
,
1000
0000
0001
0000
,
0100
0000
0010
0000
,
0100
0000
0010
0000
,
1000
0000
1000
0000
,
1000
0000
0000
0001
,
0001
0000
0001
0000
,
0001
0000
0000
0100
,
0100
0100
0000
0010
,
0000
1000
0000
0001
,
0001
0000
1000
0000
,
0100
0100
0100
0000
,
0020
0000
0030
0000
,
0002
0000
0003
0000
,
2000
0000
3000
0000
,
0100
0100
0100
0000
,
2000
0000
3000
0000
,
0002
0000
0003
0000
,
0200
0000
0300
0000
,
0010
0010
0010
0010
,
0000
1000
0000
0001
,
0000
1000
0000
0100
,
0000
1000
0000
0001
,
0000
0100
0100
0100
,
0000
0010
0000
1000
,
0000
0001
0000
1000
,
2000
0000
3000
0000
,
0002
0000
0003
0000
,
0100
0000
0010
0000
,
1000
0000
0100
0000
,
1000
0000
0010
0000
,
0100
0000
0001
0000
,
1000
0000
0001
0000
,
0010
0000
0001
0000
,
0200
0000
0300
0000
,
0020
0000
0030
0000
,
1000
0000
0100
0000
,
0010
0000
0100
0000
,
2000
0000
3000
0000
,
0002
0000
0003
0000
,
0100
0000
0010
0000
,
1000
0000
0001
0000
,
0200
0000
0300
0000
,
0020
0000
0030
0000
,
2002
0000
0000
0000
,
3003
0000
0000
0000
;
