#TITLE:Goodbye Happiness;
#SUBTITLE:;
#ARTIST:宇多田ヒカル;
#TITLETRANSLIT:;
#SUBTITLETRANSLIT:;
#ARTISTTRANSLIT:Utada Hikaru;
#GENRE:J-Pop;
#CREDIT:;
#MENUCOLOR:;
#NEWMETERSYSTEM:NO;
#BANNER:Goodbye Happiness.png;
#BACKGROUND:Goodbye Happiness-bg.png;
#LYRICSPATH:Goodbye Happiness.lrc;
#CDTITLE:CDTitle.png;
#MUSIC:Goodbye Happiness.ogg;
#OFFSET:0.000;
#SAMPLESTART:38.395;
#SAMPLELENGTH:15.997;
#SELECTABLE:YES;
#LISTSORT:;
#BPMS:0.000=120.000;
#STOPS:;
#BGCHANGES:0.000=Goodbye Happiness.avi=1.000=1=1=0,
99999=-nosongbg-=1.000=0=0=0 // don't automatically add -songbackground-
;
#ATTACKS:;

//---------------dance-single - DRDAIKENKAI----------------
#NOTES:
     dance-single:
     DRDAIKENKAI:
     Hard:
     7:
     0.498,0.455,0.181,0.306,0.010: // measure 1
0000
0000
0000
0000
,  // measure 2
0000
0000
0000
0000
,  // measure 3
0000
0000
0000
0000
,  // measure 4
0000
0000
0000
0000
,  // measure 5
1001
0000
1010
0000
0101
0000
0010
1000
,  // measure 6
0100
0010
0001
0100
1000
0000
0100
0001
,  // measure 7
0011
0000
1001
0000
1010
0000
0100
0001
,  // measure 8
1000
0100
0010
0001
0000
1000
0010
1000
,  // measure 9
0001
0000
1001
0000
0101
0000
0100
0010
,  // measure 10
1000
1000
0001
1000
0000
1000
0001
1000
,  // measure 11
0100
0000
0000
0100
0010
0000
0000
0010
0002
0000
0000
0000
2003
0000
0000
0000
,  // measure 12
3001
0100
0010
1000
0000
1000
0001
1000
,  // measure 13
0100
1000
0010
0100
0000
0001
0010
0100
,  // measure 14
1000
0100
0010
0001
0000
0001
1000
0010
,  // measure 15
0100
0001
0100
0010
0000
1000
0001
0010
,  // measure 16
0001
1000
0100
1000
0000
0010
0100
0010
,  // measure 17
1000
0100
1000
0001
0000
0100
0010
0100
,  // measure 18
0001
0000
0001
0010
0100
1000
0001
0100
,  // measure 19
0020
0000
2030
0000
3200
0000
0310
0001
,  // measure 20
0200
0000
0302
0000
0013
0100
1000
0000
,  // measure 21
1001
0000
1000
0001
0100
0010
1000
1000
,  // measure 22
0001
0010
0001
0010
0100
1000
0100
1000
,  // measure 23
1001
0000
1000
0001
0100
0010
1000
1000
,  // measure 24
0001
0010
0001
0010
0001
0100
0001
0100
,  // measure 25
0010
1000
0020
0000
1030
0100
2000
0000
,  // measure 26
3100
0010
0001
0020
0000
0130
1000
0001
,  // measure 27
0100
0010
0000
1000
0001
0100
0010
0000
,  // measure 28
1000
0100
1000
0010
0110
0000
0101
0000
,  // measure 29
1001
0000
0000
1010
0000
0000
0101
0000
,  // measure 30
0000
0100
0100
0010
1000
0100
0001
0010
,  // measure 31
0001
0100
1000
0000
0100
0010
0001
0100
,  // measure 32
1000
0000
0100
0000
0001
0000
0000
0000
0101
0000
0000
1100
0000
0000
2002
0000
,  // measure 33
3003
0010
0001
0010
1000
0100
0001
0100
,  // measure 34
1000
0010
0001
0010
0100
0001
1000
0001
,  // measure 35
0010
0001
0100
0000
0100
0010
1000
0100
,  // measure 36
1000
0001
0001
1000
0002
0000
0000
0000
,  // measure 37
1003
0100
0010
0001
1000
0001
0010
1000
,  // measure 38
0010
0001
0100
0010
1000
0001
0100
1000
,  // measure 39
0100
0001
0010
0001
0100
0010
1000
0100
,  // measure 40
0002
0000
0103
1000
0100
1000
0010
0001
,  // measure 41
0010
1000
0020
0000
1030
0100
2000
0000
,  // measure 42
3100
0010
0001
0020
0000
0031
2000
0000
,  // measure 43
3010
0100
0001
0100
0010
1000
0100
2000
,  // measure 44
0001
0001
0001
0001
0001
0001
0001
3001
,  // measure 45
1002
0000
1003
0001
0100
0010
1000
1000
,  // measure 46
0010
0100
0010
0100
0001
1000
0001
1000
,  // measure 47
0200
0000
0310
0001
0010
0100
1000
0001
,  // measure 48
0100
0010
0100
0010
1000
0001
1000
0001
,  // measure 49
1000
0100
0020
0000
0031
1000
0200
1000
,  // measure 50
1300
0001
0100
0020
0000
1030
0100
1000
,  // measure 51
0010
0001
0010
1000
0100
0001
0100
0010
,  // measure 52
0001
0100
0010
1000
1010
0000
1001
0000
,  // measure 53
0102
0000
0103
0010
1000
0001
0100
0100
,  // measure 54
0010
1000
0100
1000
0010
1000
0001
1000
,  // measure 55
1002
0000
1003
0100
0010
0001
0100
0100
,  // measure 56
0001
0010
1000
0010
0001
0100
1000
0100
,  // measure 57
0001
0010
0100
1000
0001
0100
0020
0000
,  // measure 58
1030
0100
0010
0002
0000
1003
0100
1000
,  // measure 59
0001
0100
0010
0100
1000
0100
0001
0010
,  // measure 60
0100
1000
0001
0100
0110
0000
1002
0000
,  // measure 61
1003
0001
0200
0000
0310
1000
0020
0000
,  // measure 62
1030
0100
0010
0002
0000
1003
0002
0000
,  // measure 63
1003
0001
0200
0000
0310
1000
0200
0000
,  // measure 64
2300
0000
3020
0000
0130
0001
0010
0100
,  // measure 65
1000
0010
0200
0000
0301
0010
0002
0000
,  // measure 66
0103
0010
1000
0020
0000
1030
0200
0000
,  // measure 67
0310
0001
0100
0001
0010
0100
1000
0001
,  // measure 68
0100
1000
0100
0001
0020
0000
0031
0000
,  // measure 69
2002
0000
0000
0000
,  // measure 70
3003
0000
0000
0000
;

//---------------dance-single - DDRDAIKENKAI----------------
#NOTES:
     dance-single:
     DDRDAIKENKAI:
     Medium:
     5:
     0.393,0.407,0.153,0.326,0.000:
0000
0000
0000
0000
,
0000
0000
0000
0000
,
0000
0000
0000
0000
,
0000
0000
0000
0000
,
0010
0000
0001
0000
0100
0000
0010
1000
,
0100
0000
1000
0000
0010
0000
0100
0001
,
0010
0000
0001
0000
0100
0000
0010
1000
,
0100
0000
1000
0000
0010
0010
0100
0001
,
0010
0000
0100
0000
1000
0000
0100
0010
,
0001
0000
0100
0000
0010
0000
1000
0100
,
0010
0000
0001
0000
0100
0000
0001
0010
,
0100
0000
1000
0000
0001
0000
0010
0100
,
1000
0000
0001
0100
0000
0100
0010
0000
,
0110
0000
1010
0000
0001
0001
1000
0100
,
1000
0000
0010
0100
0000
0100
0010
0000
,
0110
0000
0101
0000
1000
1000
0001
0100
,
0010
0000
1000
0100
0000
0100
1000
0000
,
1001
0000
1000
1000
0001
0001
0000
1002
,
0000
0000
0023
0000
0230
0000
1300
0001
,
0200
0000
0320
0000
1030
0001
1000
0000
,
1002
0000
2003
0000
3001
0010
0100
0000
,
1000
0001
1000
0000
1000
0001
0100
0000
,
0020
0000
2030
0000
3100
0010
0001
0000
,
0100
0010
0100
0000
0010
1000
0100
0000
,
2000
0000
3002
0000
0103
0001
1000
0000
,
0020
0000
2030
0000
3100
0010
0001
0000
,
0100
0001
0010
0100
,
1000
0001
1100
0102
,
1003
0000
0000
0001
0000
0000
1001
0000
,
0000
0100
0000
0010
0010
0100
0100
0000
,
0001
0010
0100
0000
1000
0010
0100
0000
,
0002
0000
2003
0000
3100
0010
0001
0000
,
0011
0000
0000
1001
0000
0000
1010
0000
,
0000
1001
0000
0000
0101
0000
1100
0000
,
1000
0001
0100
0000
0100
0001
1000
0000
,
1000
0010
1000
0100
0010
0001
2000
0000
,
3001
0010
0100
0000
2000
0000
3000
0000
,
0010
0100
0001
0000
0020
0000
0030
0000
,
0100
0010
0001
0000
0100
0010
1000
0000
,
0001
0000
2000
3000
0002
0003
2000
3000
,
0100
0000
0100
0000
0100
0000
1000
0001
,
1000
0000
1000
0001
1000
0000
1000
0000
,
0001
0010
0001
0000
0001
0100
0010
0000
,
1000
0002
0023
0130
,
0210
0000
1300
0001
0200
0000
0310
0000
,
1000
0100
1000
0000
1000
0100
0010
0000
,
0002
0000
2003
0000
3001
0100
0010
0000
,
1000
0001
1000
0000
1000
0001
0100
0000
,
0020
0000
2030
0000
3100
0010
0001
0000
,
0200
0000
0302
0000
0013
0100
1000
0000
,
0001
0010
0001
0000
0001
0100
0001
0000
,
0001
1000
0101
1100
,
0012
0000
1003
0000
0010
0100
0001
0000
,
0010
0100
0010
0000
0010
0100
1000
0000
,
0002
0000
1003
0000
0010
1000
0100
0000
,
0010
0001
0010
0000
0010
0001
0100
0000
,
0001
0010
0100
0000
1000
0001
0100
0000
,
0010
1000
0100
0000
0010
0100
1000
0000
,
0002
0023
0230
2300
,
3001
0100
0001
0100
0020
0000
1030
0000
,
1002
0000
0103
0000
0010
1000
0100
0000
,
1000
0001
0100
0000
0001
0010
0100
0000
,
0020
0000
0032
0000
1003
0100
1000
0000
,
0020
0100
0200
0330
,
0010
1000
0010
0000
1000
0100
1000
0000
,
0001
0010
0001
0002
0000
0100
0103
0000
,
0100
0010
0100
0000
0001
0010
0001
0000
,
0010
0100
1000
0001
,
2002
0000
0000
0000
,
3003
0000
0000
0000
;

//---------------dance-single - DDRDAIKENKAI----------------
#NOTES:
     dance-single:
     DDRDAIKENKAI:
     Easy:
     3:
     0.283,0.407,0.104,0.368,0.000:
0000
0000
0000
0000
,
0000
0000
0000
0000
,
0000
0000
0000
0000
,
0000
0000
0000
0000
,
1000
0001
1000
0001
,
0200
0300
0010
0010
,
0100
0001
0100
0001
,
0020
0030
0100
0100
,
1000
0001
0001
1000
,
0100
0100
0100
0010
,
0002
0023
0230
1300
,
2002
0000
3003
0000
,
0001
1000
0000
1000
,
0100
1000
0000
1000
,
0010
1000
0000
1000
,
0001
1000
0000
0001
,
1000
0010
0000
0010
,
0100
0010
1000
0001
,
1002
0000
1000
1000
,
2003
0100
0100
3100
,
0020
0032
2000
3003
,
0010
0100
0001
0010
,
0200
2300
0020
3030
,
0100
0001
1000
0001
,
0020
0001
0002
0033
,
0200
0010
0020
0330
,
1000
0100
1000
0010
,
0100
0001
1001
1001
,
0001
0001
0001
0001
,
0100
0100
0100
0100
,
0010
0010
0010
0010
,
1000
1000
1000
1000
,
2002
3003
0220
0330
,
2002
3003
0220
0330
,
1000
1000
1000
0100
,
0010
0010
0020
0030
,
0002
0003
0100
0010
,
2000
3000
0010
1000
,
0002
0003
2000
3000
,
0100
0100
0200
0300
,
0020
0030
0001
0100
,
0020
0030
2000
3000
,
0001
0010
0100
1000
,
2002
0000
0000
3003
,
0001
0100
0010
1000
,
1000
0010
0100
0001
,
0001
0010
0100
1000
,
1000
0100
0010
0001
,
0100
0001
0020
0030
,
0100
1000
0002
0003
,
0100
0010
1000
0100
,
0010
0001
1001
1001
,
2000
3010
0100
0001
,
1000
0100
0010
0001
,
0100
0010
1000
0100
,
0010
0100
1000
0001
,
0010
0100
1000
0010
,
0100
0001
1000
0100
,
0010
0010
0100
0100
,
1000
0001
1001
1001
,
0002
1000
2000
3003
,
0020
0100
0200
0330
,
0010
1000
0100
0010
,
2002
0000
3003
0000
,
0002
0010
0020
0033
,
0200
1000
2000
3300
,
0010
0100
0001
1000
,
0100
0010
0001
1000
,
2002
0000
0000
0000
,
3003
0000
0000
0000
;
