#TITLE:For You;
#SUBTITLE:;
#ARTIST:宇多田ヒカル;
#TITLETRANSLIT:;
#SUBTITLETRANSLIT:;
#ARTISTTRANSLIT:Utada Hikaru;
#GENRE:R&B;
#CREDIT:;
#MENUCOLOR:;
#NEWMETERSYSTEM:NO;
#BANNER:For You.png;
#BACKGROUND:For You-bg.png;
#LYRICSPATH:For You.lrc;
#CDTITLE:CDTitle.png;
#MUSIC:For You.ogg;
#OFFSET:0.000;
#SAMPLESTART:55.920;
#SAMPLELENGTH:12.000;
#SELECTABLE:YES;
#LISTSORT:;
#BPMS:0.000=103.000;
#STOPS:;
#BGCHANGES:16.000=For You.avi=1.000=1=0=1,
210.021=For You-bg.png=1.000=0=0=1,
99999=-nosongbg-=1.000=0=0=0 // don't automatically add -songbackground-
;
#ATTACKS:;

//---------------dance-single - DDRDAIKENKAI----------------
#NOTES:
     dance-single:
     DDRDAIKENKAI:
     Easy:
     2:
     0.218,0.230,0.032,0.278,0.000:
0000
0000
0000
0000
,
0000
0000
0000
0000
,
0000
0000
0000
0000
,
0000
0000
0000
0000
,
1000
0001
0100
0100
,
0001
1000
0100
0100
,
0010
0010
0001
0001
,
0100
0200
0000
0300
,
0010
1000
1000
0001
,
0000
1000
0000
0100
,
0100
0010
0001
0100
,
0020
0000
0130
0000
,
0010
0000
1000
0100
,
1000
0010
0100
0001
,
0001
0010
0000
0100
,
2000
0000
3002
0003
,
0200
0300
0010
1000
,
0020
0000
0030
2000
0000
0000
3200
0000
,
0310
0000
0000
0001
0000
0000
0100
0000
,
0001
0000
0000
2000
0000
0000
3200
0000
,
0300
0000
0010
0001
,
0100
0020
0000
1030
,
0000
1000
0001
1000
,
0100
0100
2000
3002
,
0003
0100
0010
0010
,
0100
0010
1000
1000
,
0001
1000
1000
0001
,
0010
1000
0100
0001
,
0000
1000
1000
0001
,
0001
0100
0010
1000
,
2000
3000
0020
0030
,
0100
0001
2002
3003
,
0001
0001
1000
1000
,
0100
0100
0010
0010
,
0002
0003
2000
3000
,
0020
0000
0000
0200
0000
0000
0330
0000
,
0010
0010
1000
1000
,
2002
0000
0000
3003
,
0001
1000
1000
0001
,
0100
0001
0001
1000
,
0001
0010
0010
0001
,
2000
0000
0000
3000
0000
0000
0001
0000
,
0001
0000
0100
0010
,
0200
0310
0020
1030
,
2002
0000
0000
3003
,
0000
0001
1000
0100
,
2000
0000
0010
3010
,
0200
0000
0001
0301
,
0020
0000
0001
0031
,
1000
0001
0200
0320
,
1030
0001
0001
1000
,
0001
1000
0010
0100
,
0220
0000
0000
0000
0000
0000
0000
0000
0000
0000
0000
0000
0000
0000
0000
0000
0000
0000
0000
0000
0000
0000
0000
0000
0000
0000
0000
0000
0000
0000
0000
0000
0000
0000
0000
0000
0000
0000
0000
0000
0000
0000
0000
0000
0000
0000
0000
0000
0000
0000
0000
0000
0000
0000
0000
0000
0000
0000
0000
0000
0000
0000
0000
0000
0000
0000
0000
0000
0000
0000
0000
0000
0000
0000
0000
0000
0000
0000
0000
0000
0000
0000
0000
0000
0000
0000
0000
0000
0000
0000
0000
0000
0000
0000
0000
0000
0000
0330
0000
0000
0000
0000
0000
0000
0000
0000
0000
0000
0000
0000
0000
0000
0000
0000
0000
0000
0000
0000
0000
0000
0000
0000
0000
0000
0000
0000
0000
0000
0000
0000
0000
0000
0000
0000
0000
0000
0000
0000
0000
0000
0000
0000
0000
0000
0000
0000
0000
0000
0000
0000
0000
0000
0000
0000
0000
0000
0000
0000
0000
0000
0000
0000
0000
0000
0000
0000
0000
0000
0000
0000
0000
0000
0000
0000
0000
0000
0000
0000
0000
0000
0000
0000
0000
0000
0000
0000
0000
0000
0000
0000
0000
0000
;

//---------------dance-single - DDRDAIKENKAI----------------
#NOTES:
     dance-single:
     DDRDAIKENKAI:
     Medium:
     5:
     0.369,0.355,0.016,0.390,0.020:
0000
0000
0000
0000
,
0000
0000
0000
0000
,
0000
0000
0000
0000
,
0000
0000
0000
0000
,
1000
0001
0100
0000
0010
1000
0100
0000
,
0010
0100
1000
0000
0100
0010
0001
0000
,
2000
0000
3002
0000
0103
0010
1000
0000
,
0010
0000
0120
0000
0130
0001
1000
0000
,
0001
0000
1000
0100
1000
0100
0010
0000
,
0002
0000
0103
0200
0000
0001
0301
0000
,
2000
0000
3001
0100
0010
1000
0010
1000
,
0200
0000
0000
0010
0310
0000
0100
0000
,
2000
0000
3000
0010
1000
0100
1000
0000
,
0100
0010
0001
0010
0000
0001
0100
0000
,
0010
1000
0010
1000
0000
0001
0100
0001
,
0002
0000
0013
0100
2000
0000
3001
0000
,
0200
0000
0320
0000
1030
0100
1000
0100
,
2000
0000
0010
3020
0000
0100
0230
0000
,
0301
0000
0010
0020
0000
0130
1000
0000
,
0001
0000
0100
0200
0000
0010
0320
0000
,
2030
0000
3002
0000
0103
0010
1000
0010
,
0200
0000
0301
0010
0200
0000
1300
0000
,
0001
0010
0001
0000
0100
0010
0100
0000
,
0010
1000
0010
1000
0200
0000
2000
0000
,
3300
0000
0000
0000
0010
0000
0100
0000
0001
0000
0000
0010
0000
0000
0100
0000
,
1000
0000
0000
0000
0100
0000
0010
0000
0001
0000
0000
0100
0000
0000
0010
0000
,
1000
0000
0000
0000
0010
0000
0100
0000
0010
0000
0000
0100
0000
0000
0001
0000
,
0100
0001
0100
0100
0010
1000
0010
1000
,
0000
0000
0002
0000
1003
0100
1000
0000
,
0001
0000
0100
0000
0010
1000
0010
0000
,
2000
0000
3200
0000
0310
0001
0100
0000
,
0010
1000
0100
0000
0010
0001
0100
0000
,
0010
1000
0010
0000
1000
0100
1000
0000
,
0100
0010
0100
0000
0010
0001
0010
0000
,
0002
0000
1003
1000
0001
1000
0020
0000
,
2030
0000
3002
0000
1003
0001
0100
0000
,
0001
0010
0001
0001
1000
0010
1000
1000
,
0020
0230
0302
0023
,
0031
0000
1000
0100
0010
0001
0200
0000
,
0310
0000
1000
0010
0100
0001
0020
0000
,
0130
0000
1000
0001
0100
0010
1000
0000
,
0001
0000
0000
0010
0000
0000
0100
0000
0000
0000
1000
0000
0100
0000
1000
0000
,
0001
0000
0000
0000
0010
0000
0001
0000
0100
0000
0000
0010
0000
0000
1000
0000
,
0000
0001
0001
0000
0010
0000
0001
0001
,
0020
0000
0130
0100
1000
0001
0100
0000
,
0010
1000
0010
1000
0002
0000
0203
0000
,
0320
0000
1030
0100
0010
0100
2000
0000
,
3001
0000
0100
0010
0100
0001
0020
0000
,
1030
0000
0010
0001
0100
0010
1000
1000
,
0001
0001
0100
0100
0020
0000
2030
0000
,
3001
0000
0012
0000
1003
0001
0100
0010
,
2000
0000
3010
0000
0200
0000
0010
0020
,
0000
0000
0330
0000
;

//---------------dance-single - DDRDAIKENKAI----------------
#NOTES:
     dance-single:
     DDRDAIKENKAI:
     Hard:
     7:
     0.473,0.459,0.064,0.477,0.187: // measure 1
0000
0000
0000
0000
,  // measure 2
0000
0000
0000
0000
,  // measure 3
0000
0000
0000
0000
,  // measure 4
0000
0000
0000
0000
,  // measure 5
1000
0000
0001
0000
1000
0100
0000
0010
0000
0100
0000
2000
0000
0000
3000
0000
,  // measure 6
0001
0000
0100
0000
0001
0010
0000
0100
0000
0010
0000
0002
0000
0000
0003
0000
,  // measure 7
2000
0000
3002
0000
0103
0010
1000
0000
,  // measure 8
0010
0000
1000
0000
2001
0000
0000
0000
3100
0000
0100
0000
1000
0001
1000
0001
,  // measure 9
2000
0000
3001
0010
0100
1000
0010
0100
,  // measure 10
0002
0000
1003
2000
0000
3001
0100
0020
,  // measure 11
0000
1030
0100
0010
0100
1000
0010
0100
,  // measure 12
0001
0010
0001
0010
0001
0000
0000
0000
1000
0100
1000
0100
1000
0000
0001
0000
,  // measure 13
0002
0000
0103
0010
1000
0100
0010
2000
,  // measure 14
0000
3010
0001
2000
0000
3010
0100
1000
,  // measure 15
0100
0001
1000
0100
0000
0010
0100
1000
,  // measure 16
0020
0000
0130
0001
0002
0000
1003
0000
,  // measure 17
0010
1000
0010
0100
0001
0010
0100
0010
,  // measure 18
0002
0000
1003
0010
1000
0001
1002
0000
,  // measure 19
2003
3000
0001
0100
0010
1000
0200
0000
,  // measure 20
0010
0010
0310
0002
1000
1000
2003
0000
,  // measure 21
3001
0100
0010
1000
0100
1000
0010
0100
,  // measure 22
0001
0010
0100
2000
0000
0001
3002
0000
,  // measure 23
1003
0100
1000
0100
0010
0001
0010
0001
,  // measure 24
0100
0010
1000
0001
0200
0000
0302
0000
,  // measure 25
1003
0000
0000
0000
0001
0100
0001
0100
0001
0000
1000
0002
0000
0000
1003
0000
,  // measure 26
0100
0000
0000
0000
0010
0100
0010
0100
0010
0000
0100
2000
0000
0000
0010
0000
,  // measure 27
3010
0000
0000
0000
1000
0100
1000
0100
1000
0000
0001
0020
0000
0000
0130
0000
,  // measure 28
0001
0100
0010
0100
1000
0100
0110
0010
,  // measure 29
0002
0000
2003
0000
3001
0010
0001
1000
,  // measure 30
0200
0000
1300
0000
0001
0100
0020
1000
,  // measure 31
2030
0001
3002
0000
1003
0100
0020
0000
,  // measure 32
0130
0000
0000
1000
0001
0000
0100
0000
0010
0000
1000
0000
1002
0000
0000
0000
,  // measure 33
1003
0010
1000
0010
0100
0010
0100
0001
,  // measure 34
0100
1000
0100
0001
0010
0100
0010
0001
,  // measure 35
2000
0000
0000
0000
3001
0000
1000
0000
0002
0000
0000
0003
2000
0000
0000
0000
,  // measure 36
3020
0000
0000
0230
0000
0000
0301
0000
0010
0000
0100
0000
1000
0000
0000
0000
,  // measure 37
0001
0100
0001
0100
0010
1000
0100
0010
,  // measure 38
0110
0000
0000
0000
0011
0000
0000
0000
2100
0000
0000
0000
3001
0100
0001
0100
,  // measure 39
0002
0000
0000
0000
1003
0001
1000
0001
1000
0000
0010
0200
0000
0000
0301
0000
,  // measure 40
1000
0000
0000
0000
0001
0010
0001
0010
0001
0000
0100
0020
0000
0000
1030
0000
,  // measure 41
0001
0000
0000
0000
1000
0100
1000
0100
1000
0000
0100
0020
0000
0000
0031
0000
,  // measure 42
2000
0000
0000
3020
0000
0000
0031
0000
0010
0000
1000
0000
0001
0000
0100
0000
,  // measure 43
1000
0000
0000
0000
0100
0000
0001
0000
0010
0000
0000
0200
0000
0000
1300
0000
,  // measure 44
0001
0100
0010
1000
0200
0000
0310
0100
,  // measure 45
2000
0000
3001
1000
0010
0100
0002
0000
,  // measure 46
1003
0001
0100
0010
0200
0000
0301
0000
,  // measure 47
2000
0000
0000
0000
3001
0100
0001
0100
0001
0000
0100
0020
0000
0000
1030
0000
,  // measure 48
0100
0000
0000
0000
1000
0100
1000
0100
1000
0000
0100
0020
0000
0000
0130
0000
,  // measure 49
1000
0000
0000
0000
0010
0100
0010
0100
0010
0000
0100
2000
0000
0000
3100
0000
,  // measure 50
0001
0100
1000
0010
1000
0100
0001
0010
,  // measure 51
0001
0000
0002
0000
1003
0001
0010
0001
,  // measure 52
0200
0000
0310
0000
1000
0100
0010
0001
,  // measure 53
2002
0000
3003
0000
;
