#TITLE:Distance;
#SUBTITLE:(m-flo remix);
#ARTIST:宇多田ヒカル;
#TITLETRANSLIT:;
#SUBTITLETRANSLIT:;
#ARTISTTRANSLIT:Utada Hikaru;
#GENRE:J-POP;
#CREDIT:;
#MENUCOLOR:;
#NEWMETERSYSTEM:NO;
#BANNER:Distance (m-flo remix).png;
#BACKGROUND:Distance (m-flo remix)-bg.png;
#LYRICSPATH:Distance (m-flo remix).lrc;
#CDTITLE:CDTitle.png;
#MUSIC:Distance (m-flo remix).ogg;
#OFFSET:-3.648;
#SAMPLESTART:61.800;
#SAMPLELENGTH:14.820;
#SELECTABLE:YES;
#LISTSORT:;
#DISPLAYBPM:132.000;
#BPMS:0.000=132.000,167.000=264.000,168.000=132.000;
#STOPS:167.000=0.227
;
#BGCHANGES:;
#ATTACKS:;

//---------------dance-single - DDRDAIKENKAI----------------
#NOTES:
     dance-single:
     DDRDAIKENKAI:
     Challenge:
     9:
     0.678,0.719,0.251,0.324,0.445:
0000
0000
0000
0000
,
0000
0000
0000
0000
,
0000
0000
0000
0000
,
0000
0000
0000
0000
,
0001
0000
1000
0000
0001
0100
0001
0000
0100
0000
0010
0000
2000
0000
0000
0000
,
3001
0010
0200
0000
1000
0000
0310
0040
,
0130
0010
0100
0010
0001
0000
1002
0000
,
1003
0010
0000
0010
1000
0100
0010
0100
,
1000
0000
0000
0000
0000
0000
0000
0000
0001
0000
0000
0000
0000
0000
0000
0000
1001
0000
0000
0000
0000
0000
0000
0000
0000
0000
0000
0000
0000
0000
0000
0000
0001
0000
0000
0000
0000
0000
0000
0000
0100
0000
0000
0000
0000
0000
0000
0000
0110
0000
0000
0000
0000
0000
0000
0000
0000
0000
0000
0000
0000
0010
0000
0000
,
1000
0000
0000
0000
0000
0000
0000
0000
0000
0000
0000
0000
0000
0000
0000
0000
1001
0000
0000
0000
0000
0000
0000
0000
0000
0000
0000
0000
0000
1000
0000
0000
0000
0000
0000
0000
0000
0001
0000
0000
0100
0000
0000
0000
0000
0000
0000
0000
0001
0000
0000
0000
0000
0000
0000
0000
0000
0000
0000
0000
0000
0000
0000
0000
,
0010
0000
0000
0000
0000
0000
0000
0000
0100
0000
0000
0000
0000
0000
0000
0000
1000
0000
0000
0000
0000
0000
0000
0000
0001
0000
0000
0000
0000
0100
0000
0000
0000
0000
0000
0000
0000
0001
0000
0000
1000
0000
0000
0000
0000
0000
0000
0000
1002
0000
0000
0000
0000
0000
0000
0000
0000
0000
0000
0000
0000
0000
0000
0000
,
1003
0100
0000
1000
0010
0100
0010
1000
,
0001
0000
0000
0000
0000
0000
0000
0000
0010
0000
0000
0000
0000
0000
0000
0000
0001
0000
0000
0000
1000
0000
0000
0000
0001
0000
0000
0000
0000
0000
0000
0000
0010
0000
0000
0000
0000
0000
0000
0000
0100
0000
0000
0000
0000
0000
0000
0000
0210
0000
0000
0000
0000
0000
0000
0000
0000
0000
0000
0000
0000
1300
0000
0000
,
0001
0000
0000
0000
0000
0000
0000
0000
0100
0000
0000
0000
0000
0000
0000
0000
0010
0000
0000
0000
0000
0000
0000
0000
1000
0000
0000
0000
0000
0100
0000
0000
0000
0000
0000
0000
0000
1000
0000
0000
0001
0000
0000
0000
0000
0000
0000
0000
1001
0000
0000
0000
0000
0000
0000
0000
0004
0000
0000
0000
0000
0000
0000
0000
,
1003
0000
0000
0000
0000
0000
0000
0000
0001
0000
0000
0000
0000
0000
0000
0000
0100
0000
0000
0000
0000
0000
0000
0000
0010
0000
0000
0000
0000
1000
0000
0000
0000
0000
0000
0000
0000
0010
0000
0000
0100
0000
0000
0000
0000
0000
0000
0000
0102
0000
0000
0000
0000
0000
0000
0000
0000
0000
0000
0000
0000
0000
0000
0000
,
1003
0000
0000
0000
0000
0000
0000
0000
0000
1001
0000
0000
0000
0000
0000
0000
0000
0000
1000
0000
0000
0000
0000
0000
0001
0000
0000
0000
0100
0000
0000
0000
0001
0000
0000
0000
0100
0000
0000
0000
0001
0000
0000
0000
0100
0000
0000
0000
,
0020
0000
0000
1030
0200
0010
0300
0010
,
0001
0000
1000
0100
1000
0001
0100
0000
0010
0000
0100
0010
1000
0010
0100
0000
,
0002
0000
0000
1003
0200
0010
0300
0010
,
0001
0000
1000
0100
1000
0001
0010
0000
0001
0000
0100
0010
0100
0001
1000
0000
,
0020
0000
1030
0001
0102
0000
0013
0100
,
1100
0000
1000
0100
1000
0001
0100
0000
0010
0000
0100
0010
1000
0010
0100
0000
,
0002
0013
0100
0010
0100
1000
0100
0001
,
0100
1000
0100
1000
0001
0100
0001
0100
0010
0100
0010
0100
0010
1000
0010
1000
,
1001
0000
0001
0000
0101
0000
0100
0001
0000
0001
0010
0000
0100
0000
0010
0000
,
0011
0000
0000
0000
0000
0000
0000
0000
0001
0000
0000
0000
0000
0000
0000
0000
1002
0000
0000
0000
0000
0000
0000
0000
0000
0000
0000
0000
0003
1000
0000
0000
0100
0000
0000
0000
0000
1000
0000
0000
0001
0000
0000
0000
0000
0000
0000
0000
0100
0000
0000
0000
0000
0000
0000
0000
0010
0000
0000
0000
0000
0000
0000
0000
,
0120
0000
0000
0000
0000
0000
0000
0000
0000
0000
0000
0000
0000
0000
0000
0000
2030
0000
0000
0000
0000
0000
0000
0000
0000
0000
0000
0000
0000
3001
0000
0000
0100
0000
0000
0000
0000
0000
0000
0000
0010
0000
0000
0000
0000
0000
0000
0000
0100
0000
0000
0000
0000
0000
0000
0000
0001
0000
0000
0000
0000
0000
0000
0000
,
0020
0000
0000
0000
0000
0000
0000
0000
0000
0000
0000
0000
0000
0000
0000
0000
0230
0000
0000
0000
0000
0000
0000
0000
0000
0000
0000
0000
0000
0310
0000
0000
0001
0000
0000
0000
0000
0010
0000
0000
0100
0000
0000
0000
0000
0000
0000
0000
0210
0000
0000
0000
0000
0000
0000
0000
0000
0000
0000
0000
0000
0000
0000
0000
,
1300
0000
0000
0000
0000
0000
0000
0000
0001
0000
0000
0000
0000
0000
0000
0000
0102
0000
0000
0000
0000
0000
0000
0000
0000
0000
0000
0000
0000
0013
0000
0000
0001
0000
0000
0000
0000
0000
0000
0000
0100
0000
0000
0000
0000
0000
0000
0000
0010
0000
0000
0000
0000
0000
0000
0000
1000
0000
0000
0000
0000
0000
0000
0000
,
0100
0000
0000
0000
0000
0000
0000
0000
1000
0000
0000
0000
0000
0000
0000
0000
1020
0000
0000
0000
0000
0000
0000
0000
0000
0000
0000
0000
0000
0130
0000
0000
0001
0000
0000
0000
0000
0100
0000
0000
0001
0000
0000
0000
0000
0000
0000
0000
1000
0000
0000
0000
0000
0000
0000
0000
1000
0000
0000
0000
0000
0000
0000
0000
,
0010
1000
0100
0010
0001
0100
0010
1000
0100
1000
0010
0100
0001
0010
0100
1000
,
0002
0000
0000
0000
0000
0000
0000
0000
0003
0000
0200
0000
0000
0310
0000
0000
,
2001
0000
0000
0000
0000
0000
0000
0000
0000
0000
0000
0000
0000
0000
0000
0000
3001
0000
0000
0000
0000
0000
0000
0000
0001
0000
0000
0000
0000
0100
0000
0000
0000
0000
0000
0000
0000
0100
0000
0000
0010
0000
0000
0000
0000
0000
0000
0000
1000
0000
0000
0000
0000
0000
0000
0000
0100
0000
0000
0000
0000
0000
0000
0000
,
1000
0000
0000
0000
0000
0000
0000
0000
0010
0000
0000
0000
0000
0000
0000
0000
0100
0000
0000
0000
0000
0000
0000
0000
0001
0000
0000
0000
0000
0010
0000
0000
0000
0000
0000
0000
0000
0001
0000
0000
0100
0000
0000
0000
0000
0000
0000
0000
0010
0000
0000
0000
0000
0000
0000
0000
1000
0000
0000
0000
0000
0000
0000
0000
,
0100
0000
0000
0000
0000
0000
0000
0000
1000
0000
0000
0000
0000
0000
0000
0000
0001
0000
0000
0000
0000
0000
0000
0000
0010
0000
0000
0000
0000
0100
0000
0000
0000
0000
0000
0000
0000
0010
0000
0000
0001
0000
0000
0000
0000
0000
0000
0000
1000
0000
0000
0000
0000
0000
0000
0000
0010
0000
0000
0000
0000
0000
0000
0000
,
0001
0010
1000
0001
0100
0010
0110
0000
,
2001
0000
0000
0000
0000
0000
0000
0000
0001
0000
0000
0000
0000
0000
0000
0000
3001
0000
0000
0000
0000
0000
0000
0000
1000
0000
0000
0000
0000
0100
0000
0000
0000
0000
0000
0000
0000
1000
0000
0000
0010
0000
0000
0000
0000
0000
0000
0000
0100
0000
0000
0000
0000
0000
0000
0000
0001
0000
0000
0000
0000
0000
0000
0000
,
0010
0000
0000
0000
0000
0000
0000
0000
0100
0000
0000
0000
0000
0000
0000
0000
0010
0000
0000
0000
0000
0000
0000
0000
0001
0000
0000
0000
0000
0100
0000
0000
0000
0000
0000
0000
0000
0010
0000
0000
1000
0000
0000
0000
0000
0000
0000
0000
1002
0000
0000
0000
0000
0000
0000
0000
0000
0000
0000
0000
0000
1003
0000
0000
,
0001
0000
0000
0000
0000
0000
0000
0000
0100
0000
0000
0000
0000
0000
0000
0000
0010
0000
0000
0000
0000
0000
0000
0000
1000
0000
0000
0000
0000
0100
0000
0000
0000
0000
0000
0000
0000
0100
0000
0000
1000
0000
0000
0000
0000
0000
0000
0000
0010
0000
0000
0000
0000
0000
0000
0000
0100
0000
0000
0000
0000
0000
0000
0000
,
0001
0000
0010
0100
0000
0000
0010
0000
0001
0100
0001
0000
0010
0000
0100
0000
,
1000
0100
1000
0100
0010
0100
0010
0100
0010
0001
0010
0001
0100
0001
0100
0001
,
2000
0000
0000
3010
,
0100
0000
0000
0000
0000
0000
0000
0000
0001
0000
0000
0000
0000
0000
0000
0000
0010
0000
0000
0000
0000
0000
0000
0000
0100
0000
0000
0000
0000
1000
0000
0000
0000
0000
0000
0000
0000
0001
0000
0000
0100
0000
0000
0000
0000
0000
0000
0000
0010
0000
0000
0000
0000
0000
0000
0000
1000
0000
0000
0000
0000
0000
0000
0000
,
0100
0000
0000
0000
0000
0000
0000
0000
0010
0000
0000
0000
0000
0000
0000
0000
0001
0000
0000
0000
0000
0000
0000
0000
1000
0000
0000
0000
0000
0010
0000
0000
0000
0000
0000
0000
0000
0100
0000
0000
0010
0000
0000
0000
0000
0000
0000
0000
1000
0000
0000
0000
0000
0000
0000
0000
0001
0000
0000
0000
0000
0000
0000
0000
,
0100
0000
0000
0000
0000
0000
0000
0000
0010
0000
0000
0000
0000
0000
0000
0000
0100
0000
0000
0000
0000
0000
0000
0000
0001
0000
0000
0000
0000
0010
0000
0000
0000
0000
0000
0000
0000
0001
0000
0000
0100
0000
0000
0000
0000
0000
0000
0000
0010
0000
0000
0000
0000
0000
0000
0000
1000
0000
0000
0000
0000
0000
0000
0000
,
0200
0000
2300
0000
3001
0010
0001
0000
0010
0000
0100
0000
2000
0000
0000
0000
,
3001
0000
0000
0000
0000
0000
0000
0000
0100
0000
0000
0000
0000
0000
0000
0000
0010
0000
0000
0000
0000
0000
0000
0000
0100
0000
0000
0000
0000
0001
0000
0000
0000
0000
0000
0000
0000
1000
0000
0000
0010
0000
0000
0000
0000
0000
0000
0000
1000
0000
0000
0000
0001
0000
0000
0000
1000
0000
0000
0000
0000
0000
0000
0000
,
0010
0000
0010
1000
0000
1000
0100
0000
0100
0010
0000
0010
0001
0000
0100
0000
,
0001
0000
0000
0000
0000
0000
0000
0000
0010
0000
0000
0000
0000
0000
0000
0000
0001
0000
0000
0000
0000
0000
0000
0000
0100
0000
0000
0000
0000
0010
0000
0000
0000
0000
0000
0000
0000
1000
0000
0000
0100
0000
0000
0000
0000
0000
0000
0000
0010
0000
0000
0000
0000
0000
0000
0000
0100
0000
0000
0000
0000
0000
0000
0000
,
2000
0000
0002
3003
,
0210
0000
0000
0000
0000
0000
0000
0000
0000
0000
0000
0000
0000
0000
0000
0000
0310
0000
0000
0000
0000
0000
0000
0000
1000
0000
0000
0000
0000
0000
0000
0000
0001
0000
0000
0000
0100
0000
0000
0000
0001
0000
0000
0000
0000
0000
0000
0000
1000
0000
0000
0000
0000
0000
0000
0000
0100
0000
0000
0000
0000
1000
0000
0000
,
0100
0000
0000
0000
0000
0000
0000
0000
0001
0000
0000
0000
0000
0000
0000
0000
0100
0000
0000
0000
0000
0000
0000
0000
0010
0000
0000
0000
0000
0001
0000
0000
0000
0000
0000
0000
0000
0100
0000
0000
0001
0000
0000
0000
0000
0000
0000
0000
0001
0000
0000
0000
0000
0000
0000
0000
0010
0000
0000
0000
0000
0000
0000
0000
,
0100
0000
0000
0000
0000
0000
0000
0000
0010
0000
0000
0000
0000
0000
0000
0000
0001
0000
0000
0000
0000
0000
0000
0000
0100
0000
0000
0000
0000
0010
0000
0000
0000
0000
0000
0000
0000
0100
0000
0000
0001
0000
0000
0000
0000
0000
0000
0000
0010
0000
0000
0000
0000
0000
0000
0000
1000
0000
0000
0000
0000
0000
0000
0000
,
0010
0001
0010
0100
1000
0010
0120
0000
,
1030
0000
0000
0000
0000
0000
0000
0000
0001
0000
0000
0000
0000
0000
0000
0000
0101
0000
0000
0000
0000
0000
0000
0000
0000
0000
0000
0000
0000
0000
0000
0000
0010
0000
0000
0000
0000
0000
0000
0000
1000
0000
0000
0000
0000
0000
0000
0000
1100
0000
0000
0000
0000
0000
0000
0000
0100
0000
0000
0000
0000
0010
0000
0000
,
0001
0000
0000
0000
0000
0000
0000
0000
0100
0000
0000
0000
0000
0000
0000
0000
0010
0000
0000
0000
0000
0000
0000
0000
0100
0000
0000
0000
0000
0001
0000
0000
0000
0000
0000
0000
0000
0010
0000
0000
0001
0000
0000
0000
0000
0000
0000
0000
1000
0000
0000
0000
0000
0000
0000
0000
0100
0000
0000
0000
0000
0000
0000
0000
,
1000
0000
0000
0000
0000
0000
0000
0000
0001
0000
0000
0000
0000
0000
0000
0000
0100
0000
0000
0000
0000
0000
0000
0000
0010
0000
0000
0000
0000
0100
0000
0000
0000
0000
0000
0000
0000
0010
0000
0000
1000
0000
0000
0000
0000
0000
0000
0000
1100
0000
0000
0000
0000
0000
0000
0000
0000
0000
0000
0000
0000
0000
0000
0000
,
1001
0000
0000
0000
0000
0000
0000
0000
0001
0000
0000
0000
1000
0000
0000
0000
0000
0000
0000
0000
0000
0000
0000
0000
1010
0000
0000
0000
0000
0000
0000
0000
0010
0000
0000
0000
0000
1000
0000
0000
0001
0000
0000
0000
0000
0000
0000
0000
1002
0000
0000
0000
0000
0000
0000
0000
0000
0000
0000
0000
0000
0000
0000
0000
,
2003
0001
0001
3001
0100
0010
0100
0001
,
0010
0100
1000
0010
1000
0100
0010
0001
,
1000
0010
0100
0001
0010
0001
0100
0010
,
1000
0000
0100
0000
0010
0000
0001
0000
0100
0000
0020
0000
0000
1030
0000
0000
,
0001
0010
1000
0010
0001
0100
0010
1000
,
0100
0001
0100
1000
0001
0100
1000
0100
,
0010
1000
0100
0010
0001
0010
0100
1000
,
0010
0000
0001
0000
0100
0000
1000
0000
0001
0000
0020
0000
0000
1030
0000
0000
;

//---------------dance-single - DDRDAIKENKAI----------------
#NOTES:
     dance-single:
     DDRDAIKENKAI:
     Easy:
     4:
     0.268,0.399,0.032,0.380,0.000: // measure 1
0000
0000
0000
0000
,  // measure 2
0000
0000
0000
0000
,  // measure 3
0000
0000
0000
0000
,  // measure 4
0000
0000
0000
0000
,  // measure 5
2000
0000
0000
3010
,  // measure 6
0200
0000
0301
0001
,  // measure 7
2000
0000
0000
3100
,  // measure 8
0020
0000
0031
0001
,  // measure 9
1000
1000
0001
0100
,  // measure 10
0010
1000
0001
1001
,  // measure 11
1000
0001
0010
0100
,  // measure 12
0010
0001
0100
0100
,  // measure 13
0010
1000
0100
1000
,  // measure 14
0010
0100
0010
0110
,  // measure 15
0100
0001
0010
0100
,  // measure 16
2000
0000
3002
0000
,  // measure 17
0203
0000
0310
1000
,  // measure 18
0200
0000
1300
0000
,  // measure 19
0020
0000
0130
0001
,  // measure 20
0020
0000
0031
0000
,  // measure 21
1000
0000
0001
0000
,  // measure 22
0200
0000
0310
0000
,  // measure 23
2000
0000
3100
0000
,  // measure 24
0010
0010
0001
1001
,  // measure 25
0001
2000
3001
0100
,  // measure 26
0010
2000
3001
0010
,  // measure 27
2000
3020
0032
1003
,  // measure 28
0002
0203
2300
3100
,  // measure 29
0001
2000
3001
0010
,  // measure 30
0100
0020
0031
1000
,  // measure 31
0200
0000
0000
0000
,  // measure 32
1300
0000
0000
0000
,  // measure 33
0020
0000
0000
0130
,  // measure 34
0001
0010
0001
0100
,  // measure 35
0010
0000
1000
0000
,  // measure 36
0100
0010
0001
1000
,  // measure 37
0200
0000
0000
1300
,  // measure 38
0001
0100
0020
0030
,  // measure 39
1000
0100
1000
0010
,  // measure 40
0200
0300
0001
0010
,  // measure 41
0200
0000
0000
0000
,  // measure 42
2300
0000
0000
3001
,  // measure 43
0100
0010
0100
0010
,  // measure 44
1000
0001
1000
0001
,  // measure 45
1000
0100
0010
0001
,  // measure 46
0200
0000
0000
0320
,  // measure 47
1030
0001
1000
0001
,  // measure 48
0000
0100
0001
0100
,  // measure 49
0000
0010
1000
0010
,  // measure 50
0220
0000
0000
0330
,  // measure 51
2000
0000
0000
3001
,  // measure 52
0010
0100
1000
1000
,  // measure 53
0100
0010
0001
0001
,  // measure 54
1000
0001
0200
0300
,  // measure 55
0020
0030
2000
3000
,  // measure 56
0002
0000
0000
1003
,  // measure 57
0001
0010
0100
0010
,  // measure 58
0002
0000
2000
3003
,  // measure 59
0020
0000
0000
1030
,  // measure 60
0100
0010
0100
1000
,  // measure 61
0001
0001
0002
0003
,  // measure 62
1000
1000
2000
3000
,  // measure 63
0002
0003
0100
0010
,  // measure 64
1000
0100
0020
0000
,  // measure 65
0032
0000
0000
0000
,  // measure 66
0200
0000
0000
0000
0000
0000
0000
0000
0000
0000
0000
0000
0000
0303
0000
0000
;

//---------------dance-single - DDRDAIKENKAI----------------
#NOTES:
     dance-single:
     DDRDAIKENKAI:
     Medium:
     5:
     0.388,0.453,0.008,0.445,0.000:
0000
0000
0000
0000
,
0000
0000
0000
0000
,
0000
0000
0000
0000
,
0000
0000
0000
0000
,
0002
0000
0000
2003
,
3200
0000
0310
0001
,
0200
0000
0000
0310
,
2000
0000
0001
3001
,
1000
0001
0100
0000
0010
1000
0020
0000
,
1030
0100
2000
0000
3001
0000
0100
0000
,
0010
1000
0010
0010
0100
0000
0002
0000
,
0013
0100
0000
0010
0001
0000
1000
0000
,
0001
0100
0001
0000
1000
0010
0200
0000
,
0310
2000
3001
0200
,
0301
0010
0001
0001
1000
0000
2000
0000
,
3001
0100
0000
0010
0100
0000
0010
0000
,
1000
0000
0000
0001
0100
0000
0010
0000
,
1000
0100
1000
0000
0001
0010
0100
0000
,
1000
0000
0000
0001
0100
0000
0010
0000
,
1000
0100
1000
0000
0010
0100
0001
0000
,
1000
0000
0001
0000
,
0200
0000
0300
0010
1000
0000
0100
0000
,
0010
0001
0020
0000
0230
0000
2300
0000
,
3002
0000
0203
0000
0310
1000
0010
1000
,
0100
0000
2000
0000
3001
0100
0001
0100
,
0010
0000
2000
0000
3001
0010
0001
0010
,
0200
2300
3002
0103
,
0020
2030
3002
0013
,
0100
0000
0020
0000
0031
1000
0001
1000
,
0100
0000
2000
0000
3001
0100
0001
0100
,
0010
1000
0010
1000
0010
0000
0000
2000
,
0002
0000
0000
3003
,
0200
0000
0000
0000
0000
0310
1000
0000
,
0010
0100
0010
0000
1000
0000
0001
0100
,
0002
0000
1003
0000
0001
0100
0001
0000
,
0010
0100
0010
0100
1000
0000
0001
0000
,
0200
0000
0000
0000
0300
0010
1000
0000
,
0010
0100
0010
0000
1000
0000
0001
0000
,
0100
0010
0100
0000
0001
0000
1000
0100
,
1000
0000
0001
0000
0010
0100
0010
0100
,
2000
0000
0000
0000
,
0200
0000
0000
3300
,
0010
0000
0001
0000
0100
0010
1000
0000
,
0010
0100
0001
0000
0010
0100
1000
0000
,
0001
0000
0100
0000
0010
1000
0100
0000
,
0010
0001
0010
0000
0001
0100
0002
0000
,
1003
0000
0001
0000
0100
0010
1000
0000
,
0010
0100
0010
0000
0100
0001
1000
0000
,
0001
0000
0010
0000
0100
1000
0001
0000
,
2002
0000
0000
3003
,
0002
0000
0000
0000
0000
1003
0100
0000
,
1000
0001
0100
0000
0010
0100
0010
0000
,
1000
0100
1000
0000
0020
0000
0130
0000
,
0001
0010
0001
0010
0100
0000
1000
0000
,
0002
0000
0003
0000
0200
0000
0300
0020
,
0000
0000
1030
0000
0001
0100
0001
0000
,
1000
0010
1000
0000
0010
0000
0100
0000
,
0001
0001
0010
0002
0000
0000
2003
0000
,
3020
0000
0130
0001
,
0010
0000
0100
0000
1000
0001
1000
0000
,
0001
0100
0001
0000
0200
0000
0300
0000
,
0010
0000
0000
0000
1000
0000
0000
0000
0200
0000
2000
0000
0000
3300
0000
0000
,
0020
0000
0030
0000
0200
0000
0300
0002
,
0000
0000
1003
0000
0010
0100
0020
0000
,
1030
0001
0100
0010
,
1000
0000
0100
0000
1000
0000
0100
0000
2000
0000
0002
0000
0000
3003
0000
0000
;

//---------------dance-single - DDRDAIKENKAI----------------
#NOTES:
     dance-single:
     DDRDAIKENKAI:
     Hard:
     8:
     0.515,0.506,0.032,0.404,0.053:
0000
0000
0000
0000
,
0000
0000
0000
0000
,
0000
0000
0000
0000
,
0000
0000
0000
0000
,
0001
0010
0100
1000
0010
0100
0002
0000
,
1003
0100
0020
0000
0001
0000
0130
0100
,
1000
0001
0100
0010
1000
0000
1002
0003
,
1000
0010
0000
0010
0100
0001
0010
0100
,
1000
0100
0010
0001
0100
0010
2000
0000
,
3001
0100
0002
0000
1003
0000
0001
0000
,
0100
0010
1000
0100
1000
0000
0020
0030
,
0100
0002
0000
0013
0100
0010
0100
1000
,
0001
0100
0010
1000
0100
0010
0002
0000
,
1003
0010
2000
0000
3002
0000
0103
0010
,
0010
1000
0001
0100
0001
0000
2000
3000
,
0001
0200
0000
0310
1000
0100
1000
0100
,
0020
0000
0030
0001
0100
0020
0000
1030
,
0001
0010
0100
1000
0010
1000
0100
0010
,
0002
0000
0003
1000
0001
0100
0000
0010
,
1000
0100
1000
0010
0100
0001
0010
0100
,
2000
3000
0001
1000
0020
0030
1000
0001
,
0200
0000
0000
0310
1000
0100
0000
1000
,
0001
0010
0100
0010
0001
0100
0010
0100
,
0001
0010
0100
1000
0010
1000
0100
0010
,
0001
0000
0102
0000
1003
0001
0100
0010
,
1000
0000
1200
0000
1300
0010
0100
0001
,
0200
0000
0320
0000
1030
0001
0100
0000
,
0002
0000
0023
0000
0130
1000
0001
0000
,
0100
0000
0020
0000
1030
0100
1000
0010
,
0100
0000
0002
0000
0013
0100
1000
0010
,
1000
0100
0010
0001
0100
0010
1000
0100
,
2000
0000
0001
0000
0001
0000
0001
0000
3002
0000
0000
0203
0000
0000
0310
0000
,
2000
0000
0001
0000
3000
0001
0010
0100
,
1000
0010
1000
0100
0000
0010
0001
0100
,
2000
0000
3100
0002
0000
0013
0000
0100
,
1000
0010
0001
0010
1000
0000
0001
0000
,
0200
0000
0310
0000
1000
0100
1000
0010
,
0100
0001
0010
0100
1000
0001
0100
0000
,
0010
1000
0010
1000
0001
0100
0001
0100
,
0001
0010
0000
0001
0010
0100
1000
0001
,
0200
0000
0000
0000
,
0020
0000
0000
0330
,
1000
0000
0100
0000
0010
0000
0001
0000
0100
0010
0100
0000
0001
0000
0000
0000
,
1000
0000
0001
0000
0100
0000
0010
0000
1000
0100
1000
0000
0010
0000
0000
0000
,
1000
0000
0100
0000
0010
0000
0001
0000
0100
0001
0100
0000
0001
0000
0000
0000
,
1000
0000
0001
0000
1000
0100
1000
0000
0001
0000
0010
0000
0200
0000
0000
0000
,
0310
0000
0001
0000
0100
0000
0010
1000
0000
0100
1000
0000
0001
0000
0000
0000
,
1000
0000
0001
0000
0010
0000
0100
1000
0000
0001
1000
0000
0001
0000
0000
0000
,
0100
0000
0010
0000
1000
0000
0010
0100
0000
0010
0100
0000
0001
0000
0000
0000
,
0202
0000
0000
0303
,
2000
0000
3001
0000
1000
0001
0100
0010
,
0100
0001
0010
0100
0000
1000
1000
0001
,
0001
0100
0010
1000
0000
0001
0001
1000
,
0001
0100
1000
0100
0002
0010
0013
0000
,
0200
1000
1300
0000
0020
0100
0130
0001
,
1000
0010
1000
0100
0010
0001
1000
0000
,
0001
0100
0001
0000
0100
0010
1000
0000
,
0010
0100
0001
0020
0000
0000
0032
0000
,
0023
0000
0000
0000
0031
1000
0100
0010
,
0001
1000
0100
1000
0000
0001
0100
0010
,
1000
0000
0100
0000
1000
0000
0010
0100
0000
0000
0001
0000
0010
0000
0100
0000
,
1000
0000
0001
0000
0100
0000
0010
0000
0200
0000
0002
0000
0000
0303
0000
0000
,
0100
0000
0000
0010
0001
0010
1000
0001
,
0100
1000
0000
0200
0000
0301
1000
0100
,
0010
0000
0100
0000
1000
0000
0001
0010
0000
0000
0001
0000
1000
0000
0100
0000
,
1000
0000
0010
0000
0100
0000
0002
0000
0020
0000
0003
0000
0000
0030
0000
0000
;

//---------------dance-single - DDRDAIKENKAI----------------
#NOTES:
     dance-single:
     DDRDAIKENKAI:
     Beginner:
     1:
     0.161,0.185,0.000,0.040,0.000: // measure 1
0000
0000
0000
0000
,  // measure 2
0000
0000
0000
0000
,  // measure 3
0000
0000
0000
0000
,  // measure 4
0000
0000
0000
0000
,  // measure 5
0000
0000
0000
0000
,  // measure 6
0000
0000
0000
0000
,  // measure 7
0000
0000
0000
0000
,  // measure 8
0000
0000
0000
0000
,  // measure 9
1000
0000
0001
0000
,  // measure 10
0100
0000
0010
0010
,  // measure 11
0010
0000
1000
0000
,  // measure 12
0001
0000
0100
0100
,  // measure 13
0100
0000
0001
0000
,  // measure 14
1000
0000
0010
0010
,  // measure 15
0010
0000
0100
0000
,  // measure 16
0001
0000
1000
1000
,  // measure 17
1000
0000
0001
0000
,  // measure 18
0100
0000
0001
0000
,  // measure 19
1000
0000
0010
0000
,  // measure 20
0100
0000
0001
0000
,  // measure 21
1000
0000
0001
0000
,  // measure 22
0100
0000
0010
0000
,  // measure 23
0100
0000
0001
0000
,  // measure 24
0010
0000
0100
0000
,  // measure 25
1000
1000
1000
0000
,  // measure 26
0001
0001
0001
0000
,  // measure 27
0100
0100
0100
0000
,  // measure 28
0010
0010
0010
0000
,  // measure 29
1000
1000
1000
0000
,  // measure 30
0100
0100
0100
0000
,  // measure 31
0001
0001
0001
0000
,  // measure 32
0100
0100
0100
0000
,  // measure 33
1000
0000
0001
0000
,  // measure 34
0100
0100
0100
0000
,  // measure 35
0010
0010
0010
0000
,  // measure 36
1000
1000
1000
0000
,  // measure 37
0001
0000
1000
0000
,  // measure 38
0010
0010
0010
0000
,  // measure 39
0100
0100
0100
0000
,  // measure 40
0001
0000
1000
0000
,  // measure 41
0200
0000
0300
0000
,  // measure 42
2000
0000
3000
0000
,  // measure 43
0001
0000
0001
0000
,  // measure 44
0100
0000
0100
0000
,  // measure 45
0000
0010
0000
0010
,  // measure 46
0000
1000
1000
1000
,  // measure 47
1000
1000
0000
0001
,  // measure 48
0000
0100
0000
0010
,  // measure 49
0000
0100
0000
0001
,  // measure 50
0002
0000
0000
0003
,  // measure 51
0000
1000
0000
0010
,  // measure 52
0000
0100
0000
0001
,  // measure 53
0001
0000
1000
0000
,  // measure 54
0010
0010
0010
0000
,  // measure 55
1000
1000
0000
0001
,  // measure 56
0000
0100
0000
0010
,  // measure 57
0010
0000
0100
0000
,  // measure 58
0001
0001
0002
0003
,  // measure 59
0000
0000
1000
0000
,  // measure 60
0001
0000
0100
0000
,  // measure 61
0010
0010
0010
0000
,  // measure 62
0100
0000
0000
0000
,  // measure 63
0001
0000
1000
0000
,  // measure 64
0100
0000
0010
0000
,  // measure 65
0001
0001
0001
0000
,  // measure 66
2000
0000
3000
0000
;
