#TITLE:Devil Inside;
#SUBTITLE:;
#ARTIST:Utada;
#TITLETRANSLIT:;
#SUBTITLETRANSLIT:;
#ARTISTTRANSLIT:Utada Hikaru;
#GENRE:ELECTRONICA;
#CREDIT:;
#MENUCOLOR:;
#NEWMETERSYSTEM:NO;
#BANNER:Devil Inside.png;
#BACKGROUND:Devil Inside-bg.png;
#LYRICSPATH:;
#CDTITLE:;
#MUSIC:Devil Inside.ogg;
#OFFSET:0.000;
#SAMPLESTART:47.380;
#SAMPLELENGTH:18.040;
#SELECTABLE:YES;
#LISTSORT:;
#BPMS:0.000=119.000;
#STOPS:;
#BGCHANGES:31.750=Devil Inside.avi=1.000=0=0=1,
224.000=Devil Inside-bg.png=1.000=1=0=1,
99999=-nosongbg-=1.000=0=0=0 // don't automatically add -songbackground-
;
#ATTACKS:;

//---------------dance-single - ----------------
#NOTES:
     dance-single:
     :
     Hard:
     7:
     0.512,0.476,0.051,0.213,0.094: // measure 1
0000
0000
0000
0000
,  // measure 2
0000
0000
0000
0000
,  // measure 3
0000
0000
0000
0000
,  // measure 4
0000
0000
0000
0000
,  // measure 5
2000
0000
3002
0000
1003
0100
0010
0001
,  // measure 6
0200
0000
0320
0000
1030
0001
0010
0100
,  // measure 7
1000
0000
0001
0000
0100
0001
0000
0000
0100
0001
0000
0000
0010
0001
0000
0000
,  // measure 8
1000
0000
0001
0000
0100
0001
0000
0000
0100
0001
0000
0000
0010
0001
0000
0000
,  // measure 9
1000
0100
0010
0001
0100
0010
1000
0100
,  // measure 10
1000
0010
0100
0001
0020
0001
0032
0000
,  // measure 11
1003
0000
0100
0000
1000
0001
0000
0000
1000
0001
0000
0000
0100
0001
0000
0000
,  // measure 12
1000
0000
0001
0000
0100
0010
0000
0000
0100
0010
0000
0000
1000
0010
0000
0000
,  // measure 13
1000
0100
1000
0010
0100
0001
0010
0100
,  // measure 14
1000
0100
0010
0001
0200
0000
0320
0000
,  // measure 15
1030
0000
0100
0000
1000
0001
0000
0000
1000
0001
0000
0000
0100
0001
0000
0000
,  // measure 16
0010
0000
0001
0000
0100
0010
0000
0000
0100
0010
0000
0000
1000
0010
0000
0000
,  // measure 17
1000
0100
0010
0100
1000
0010
0001
0010
,  // measure 18
1000
0100
0001
0100
0010
0001
0100
0001
,  // measure 19
0010
1000
0010
0001
0100
1000
0100
0001
,  // measure 20
0010
0100
0010
0001
0100
0010
1000
0100
,  // measure 21
1000
0010
0001
0010
1000
0100
0001
0100
,  // measure 22
1000
0010
0100
0010
0001
0010
1000
0001
,  // measure 23
0010
0100
0010
0001
0010
0001
1000
0001
,  // measure 24
1000
0100
0000
0000
1000
0010
0000
0000
1000
0001
0000
0000
1000
0001
0000
0000
,  // measure 25
0100
0010
0100
0001
0010
0001
0100
0100
,  // measure 26
0010
1000
0100
0001
0100
1000
0010
1000
,  // measure 27
0100
0010
0100
0010
0001
0100
0010
1000
,  // measure 28
1020
1030
0102
0103
,  // measure 29
0010
1000
0100
1000
0010
0001
0010
1000
,  // measure 30
0001
0010
1000
0010
0100
0010
0001
0010
,  // measure 31
0100
1000
0010
0100
0001
0010
0100
1000
,  // measure 32
0002
0100
0203
0000
0320
1000
2030
0000
,  // measure 33
3010
1000
0100
0001
0100
0010
0001
0100
,  // measure 34
1000
0100
0010
1000
0100
0010
0001
0000
,  // measure 35
1000
0001
0100
0000
0001
0010
0100
0000
,  // measure 36
0020
0001
0032
0000
0203
1000
2300
0000
,  // measure 37
3100
0001
0010
0100
1000
0010
0100
0001
,  // measure 38
0010
1000
0010
0100
1000
0100
0001
0100
,  // measure 39
0010
0001
0101
0000
0010
1000
1100
0000
,  // measure 40
1002
1000
1003
0000
0120
0100
0230
0000
,  // measure 41
0310
1000
0100
1000
0010
0100
0001
0010
,  // measure 42
0100
1000
0100
0010
0001
0100
0010
1000
,  // measure 43
0001
0010
0001
1000
0100
1000
0001
0100
,  // measure 44
0010
1000
0100
1000
0010
0100
0001
0010
,  // measure 45
0200
0000
2300
0000
3001
0001
1000
0100
,  // measure 46
0020
0000
0032
0000
1003
0010
1000
0001
,  // measure 47
0100
0001
0010
0100
1000
0010
0100
0001
,  // measure 48
0010
0001
0100
0010
1000
0100
0010
0001
,  // measure 49
1000
0100
0010
0100
0001
0100
0010
0100
,  // measure 50
1000
0010
0100
0010
0001
0010
0100
0010
,  // measure 51
1000
0001
1000
0100
1000
0010
1000
0100
,  // measure 52
0010
0001
0100
0001
0010
0001
1000
0001
,  // measure 53
1000
0100
1000
0001
0010
0001
0100
0010
,  // measure 54
0100
0001
0010
0100
1000
0010
0100
0001
,  // measure 55
1000
0100
1000
0001
0010
0001
0100
0010
,  // measure 56
1000
0100
0010
0001
0100
0010
1000
0100
;

//---------------dance-single - DDRDAIKENKAI----------------
#NOTES:
     dance-single:
     DDRDAIKENKAI:
     Medium:
     5:
     0.385,0.381,0.196,0.179,0.000: // measure 1
0000
0000
0000
0000
,  // measure 2
0000
0000
0000
0000
,  // measure 3
0000
0000
0000
0000
,  // measure 4
0000
0000
0000
0000
,  // measure 5
1000
0001
1000
0001
0100
0000
0100
0000
,  // measure 6
0010
1000
0010
1000
0001
0000
0001
0000
,  // measure 7
1000
0100
1000
0000
1000
0001
1000
0000
,  // measure 8
1000
0010
1000
0000
1000
0001
1000
0000
,  // measure 9
0001
1000
0001
0100
,  // measure 10
0010
1000
0010
1000
0100
0000
0100
0000
,  // measure 11
0010
0001
1000
0100
,  // measure 12
0010
0001
1000
1001
,  // measure 13
0001
0010
0001
0100
,  // measure 14
0010
1000
0010
1000
0002
0000
2003
0000
,  // measure 15
0100
3200
0010
0320
,  // measure 16
0001
0032
1003
1001
,  // measure 17
1000
0001
1000
0000
0001
1000
0100
0000
,  // measure 18
0010
0001
0100
0000
0010
0100
0010
0000
,  // measure 19
2000
3200
0000
2300
,  // measure 20
0000
3002
1000
1003
,  // measure 21
0001
0100
0010
0000
1000
0100
1000
0000
,  // measure 22
0010
0100
0001
0000
0010
0100
0010
0000
,  // measure 23
0002
1000
0000
2003
,  // measure 24
3200
0000
0010
0310
,  // measure 25
0001
0000
1001
0000
1000
0001
0100
0000
,  // measure 26
0010
0000
0110
0000
0010
1000
0100
0000
,  // measure 27
1000
0000
1100
0000
1000
0001
0100
0000
,  // measure 28
0101
0101
1010
1010
,  // measure 29
0110
0000
0110
0000
0010
1000
0100
0000
,  // measure 30
0110
0000
0110
0000
0010
0100
1000
0000
,  // measure 31
1010
0000
1010
0000
1000
0001
0100
0000
,  // measure 32
0101
0101
1001
1001
,  // measure 33
0001
0010
0100
0000
1000
0001
0100
0000
,  // measure 34
0010
1000
0100
0000
0001
0100
1000
0000
,  // measure 35
0002
0000
2003
0000
3001
1000
0100
0000
,  // measure 36
0020
0032
0203
0320
,  // measure 37
1030
0100
0010
0000
0100
1000
0001
0000
,  // measure 38
0100
0010
1000
0000
0001
1000
0100
0000
,  // measure 39
0020
0032
2003
3010
,  // measure 40
0110
0110
1001
1001
,  // measure 41
0001
1000
0001
0000
0001
0100
0001
0000
,  // measure 42
0001
0010
0001
0000
0001
1000
0001
0000
,  // measure 43
1000
0100
1000
0000
1000
0010
1000
0000
,  // measure 44
1000
0001
1000
0000
1000
0100
1000
0000
,  // measure 45
0010
0100
0010
0000
0010
1000
0010
0000
,  // measure 46
0010
0100
0010
0000
0010
0001
0010
0000
,  // measure 47
0100
0001
0100
0000
0100
0010
0100
0000
,  // measure 48
0100
1000
0100
0000
0100
0010
0100
0000
,  // measure 49
0010
1000
0100
0000
1000
0100
0001
0000
,  // measure 50
0100
0001
0010
0000
0001
0010
1000
0000
,  // measure 51
0010
0001
0100
0000
0001
0100
1000
0000
,  // measure 52
0100
1000
0010
0000
1000
0010
0001
0000
,  // measure 53
0010
1000
0100
0000
1000
0001
0100
0000
,  // measure 54
0001
0010
0100
0000
0010
0001
0100
0000
,  // measure 55
0001
1000
0010
0000
0100
0001
1000
0000
,  // measure 56
0010
0100
0001
0000
1000
0001
0100
0001
;

//---------------dance-single - DDRDAIKENKAI----------------
#NOTES:
     dance-single:
     DDRDAIKENKAI:
     Easy:
     3:
     0.293,0.404,0.400,0.009,0.000: // measure 1
0000
0000
0000
0000
,  // measure 2
0000
0000
0000
0000
,  // measure 3
0000
0000
0000
0000
,  // measure 4
0000
0000
0000
0000
,  // measure 5
1000
1001
0000
1001
,  // measure 6
0001
0101
0000
0101
,  // measure 7
0100
0110
0000
0110
,  // measure 8
0010
1010
0000
1001
,  // measure 9
0000
0001
0001
1000
,  // measure 10
0100
0100
1000
0001
,  // measure 11
0100
0110
0000
0110
,  // measure 12
0000
1001
0000
1001
,  // measure 13
0000
0001
0001
1000
,  // measure 14
0100
0100
1000
0001
,  // measure 15
1000
1100
0000
0110
,  // measure 16
0000
0011
0000
1001
,  // measure 17
0001
1000
0100
1000
,  // measure 18
0010
0100
0001
1000
,  // measure 19
0001
0010
0001
0100
,  // measure 20
0010
1000
0100
1000
,  // measure 21
0010
0100
0001
0010
,  // measure 22
0100
1000
0010
0100
,  // measure 23
0010
0010
1000
1000
,  // measure 24
0002
0000
1000
1003
,  // measure 25
1001
1001
1000
0100
,  // measure 26
0110
0110
0010
0001
,  // measure 27
1001
1001
1000
1000
,  // measure 28
0010
0010
1000
1001
,  // measure 29
0101
0101
0100
0010
,  // measure 30
0110
0110
0010
1000
,  // measure 31
1010
1010
1000
0001
,  // measure 32
1001
1001
1001
1001
,  // measure 33
1000
0001
0010
0001
,  // measure 34
0100
0010
1000
0001
,  // measure 35
1001
1001
0000
0000
,  // measure 36
0110
0110
1001
1001
,  // measure 37
1000
0001
0010
0100
,  // measure 38
1000
0001
0100
0010
,  // measure 39
1010
1010
0101
0101
,  // measure 40
0011
0011
1100
1100
,  // measure 41
0010
0001
0100
0010
,  // measure 42
1000
0100
0010
0001
,  // measure 43
0100
0001
0010
0100
,  // measure 44
1000
0010
0100
0001
,  // measure 45
1000
1000
1000
0100
,  // measure 46
0010
0010
0010
0001
,  // measure 47
1000
1000
0001
0001
,  // measure 48
1000
0001
0100
0010
,  // measure 49
1000
0100
1000
0010
,  // measure 50
0100
0001
0010
0100
,  // measure 51
1000
0010
1000
0100
,  // measure 52
0010
0001
0100
0010
,  // measure 53
1000
0100
1000
0010
,  // measure 54
0100
0001
0010
0100
,  // measure 55
1000
0010
0001
0010
,  // measure 56
1000
0100
0010
0001
;

//---------------dance-single - DDRDAIKENKAI----------------
#NOTES:
     dance-single:
     DDRDAIKENKAI:
     Challenge:
     10:
     0.793,0.691,0.324,0.196,1.000:
0000
0000
0000
0000
,
0000
0000
0000
0000
,
0000
0000
0000
0000
,
0000
0000
0000
0000
,
0200
0000
0000
0000
0320
0000
0000
1030
0000
0100
0000
1000
0100
0000
0010
0000
,
0200
0000
0000
0000
0320
0000
0000
0031
0000
0100
0000
0001
0100
0000
0010
0000
,
1000
0000
0100
1000
0010
1000
0000
1000
0010
0100
0000
0100
0010
0100
0000
0100
,
0001
0000
0010
0001
0100
0010
0000
0010
1000
0010
0000
0010
1000
0001
0000
0001
,
2000
0000
3001
0010
1000
0010
0001
1000
,
0100
0001
0100
1000
0002
1000
2003
0000
,
3001
0000
0100
0010
0100
0001
0000
0001
1000
0001
0000
0001
1000
0001
0000
0001
,
0010
0000
0001
0100
0010
0100
0000
0100
0010
0100
0000
0100
0010
0100
0000
0100
,
0001
0000
1000
0100
0000
1000
0000
0000
0001
0000
1000
0100
0000
1000
0000
0000
,
0001
0000
0100
0010
0000
0100
0000
0000
0001
0000
0100
0010
0000
0100
0000
0000
,
0001
0000
1000
0001
0010
0100
0000
0100
0010
0100
0000
0100
0010
0100
0000
0100
,
1000
0000
0001
1000
0010
1000
0000
1000
0200
0000
2300
0000
3020
0000
0230
0000
,
0301
0010
0001
0000
0100
0010
0100
0000
0010
1000
0010
0000
1000
0100
1000
0000
,
0001
0010
0001
0000
0100
0010
0100
0000
0002
0000
0023
0000
2030
0000
3020
0000
,
0130
1000
0100
0000
1000
0010
1000
0000
0010
0001
0010
0000
0100
0010
0100
0000
,
0001
0100
0001
0000
1000
0001
1000
0000
0002
0000
0023
0000
0032
0000
0203
0000
,
0310
1000
0100
0000
1000
0010
0100
0000
0010
1000
0001
0000
0010
0001
0100
0000
,
0001
0010
0100
0000
0010
0001
0100
0000
0020
0000
2030
0000
3200
0000
0320
0000
,
0031
0010
1000
0010
0001
0100
1000
0100
,
0010
1000
0100
1000
0010
0100
0001
0010
0100
1000
0010
1000
0100
0010
0001
0100
,
0010
0100
0001
1000
0001
0000
0001
1000
0100
0000
1000
0000
0001
1000
0010
1000
,
0001
0000
1000
0000
1001
0000
0001
0010
0001
0100
0000
0100
0001
0010
0100
1000
,
0001
0010
0100
0010
0001
0000
1000
0100
0000
1000
0000
0100
1000
0100
0010
0000
,
0001
0000
0000
0001
0010
0100
0010
0001
1000
0001
1000
0001
1000
0100
1000
0100
,
1000
0000
1000
0001
0100
0001
0010
0001
0100
0000
0000
0100
0001
0010
0100
0010
,
0001
1000
0001
0000
1001
0000
0000
0001
1000
0100
0000
0100
1000
0100
1000
0000
,
0100
0000
1000
0100
0010
0001
0100
0010
1000
0000
0001
0010
0100
1000
0010
0100
,
0001
0000
0101
0000
0100
0001
0100
0010
0000
0110
0000
0010
1000
0000
1001
0000
,
0001
0000
0101
0000
0100
0010
0100
0001
0000
1001
0000
1000
0100
0000
1100
0000
,
1000
0000
1001
0000
0001
0010
0100
0010
0000
0110
0000
0010
0001
0000
1001
0000
,
1000
0100
1000
0001
0100
0000
0001
0000
0010
0001
0100
0010
1000
0100
0010
0100
,
1000
0000
1010
0000
0010
1000
0010
0100
0000
0110
0000
0100
0001
0000
1001
0000
,
1000
0000
1010
0000
0010
0100
0010
1000
0000
1001
0000
0001
0010
0000
0011
0000
,
0001
0000
1001
0000
1000
0100
0010
0100
0000
0110
0000
0100
1000
0000
1001
0000
,
0001
1000
0001
0000
0100
0010
0100
0000
0001
1000
0001
0000
0100
0010
0100
0000
,
0001
0010
0100
1000
0010
1000
0100
0010
0001
0100
0010
1000
0100
1000
0010
0100
,
0010
0000
0010
1000
0001
0000
1000
0001
0010
0000
0001
0000
1000
0001
0100
0001
,
1000
0000
0001
0000
1001
0000
1000
0100
1000
0010
0000
0010
1000
0100
0010
0001
,
1000
0100
0010
0100
1000
0000
0001
0010
0000
0001
0000
0010
0001
0010
0100
0000
,
1000
0000
0100
1000
0100
0010
0100
1000
0001
1000
0001
1000
0001
0010
0001
0010
,
0001
0000
0001
1000
0010
1000
0100
1000
0010
0000
0010
1000
0100
0010
0100
1000
,
0001
1000
0001
0000
1001
0000
0000
1000
0001
0010
0000
0010
0001
0010
0001
0000
,
0100
0000
0001
0010
0100
1000
0010
0100
0001
0000
1000
0100
0010
0001
0100
0010
,
1000
0000
1010
0000
0010
1000
0010
0100
0000
0110
0000
0100
0001
0000
1001
0000
,
1000
0000
1010
0000
0010
0100
0010
1000
0000
1001
0000
0001
0010
0000
0011
0000
,
0001
0000
1001
0000
1000
0100
0010
0100
0000
0110
0000
0100
1000
0000
1001
0000
,
0001
0010
0001
1000
0010
0000
1000
0000
0100
1000
0010
0100
0001
0010
0100
0010
,
0001
0100
0010
0100
0001
0000
0001
1000
0010
1000
0001
0000
0001
0010
0100
1000
,
0100
0000
1100
0000
0100
0010
0100
1000
0000
1001
0000
0001
0100
0000
0101
0000
,
0100
0000
0110
0000
0100
0010
0100
0001
0000
1001
0000
0001
1000
0000
1100
0000
,
1000
0001
1000
0000
1010
0000
0000
0000
1000
0100
1000
0100
0010
0001
0010
0001
,
1000
0001
0010
0100
1000
0001
0100
0010
1000
0100
0010
0001
0100
0010
1000
0001
;

//---------------dance-single - DDRDAIKENKAI----------------
#NOTES:
     dance-single:
     DDRDAIKENKAI:
     Beginner:
     1:
     0.156,0.214,0.034,0.153,0.000:
0000
0000
0000
0000
,
0000
0000
0000
0000
,
0000
0000
0000
0000
,
0000
0000
0000
0000
,
0200
0000
0300
0000
,
0020
0000
0030
0000
,
1000
1000
0000
0001
,
0000
1000
0000
0001
,
0001
0001
0000
0100
,
0000
0010
0000
1000
,
1000
1000
0000
0100
,
0000
0010
0000
0001
,
0001
0001
0000
1000
,
0000
0001
0000
1000
,
0000
0010
0000
0010
,
0000
0010
0000
0100
,
0200
0000
0000
0000
,
0300
0000
0001
0001
,
0002
0000
0000
0000
,
0003
0000
1000
1000
,
2000
0000
0000
0000
,
3000
0000
0010
0010
,
0020
0000
0000
0000
,
0030
0000
0100
0100
,
0100
0000
0001
0001
,
0001
0000
1000
1000
,
1000
0000
0100
0100
,
0100
0000
1000
0000
,
0010
0010
0010
0000
,
0100
0100
0100
0000
,
0001
0001
0001
0000
,
1000
1000
1000
1000
,
2000
0000
0000
0000
,
0000
0000
3000
0000
,
0001
0001
0000
0000
,
0100
0100
0100
0100
,
0200
0000
0000
0000
,
0000
0000
0300
0000
,
0010
0010
0010
0010
,
0010
0010
0010
0010
,
0010
0000
1000
0000
,
0001
0000
0100
0000
,
0010
0000
0100
0000
,
0001
0000
1000
0000
,
0100
0100
0100
0000
,
0010
0010
0010
0000
,
0001
0000
1000
0000
,
0001
0000
0100
0000
,
0220
0000
0330
0000
,
2002
0000
3003
0000
,
1000
0000
0001
0000
,
1000
0000
0100
0000
,
2000
0000
3000
0000
,
0002
0000
0003
0000
,
0220
0000
0330
0000
,
2002
0000
0000
3003
;
