#TITLE:Come Back To Me;
#SUBTITLE:;
#ARTIST:Utada;
#TITLETRANSLIT:;
#SUBTITLETRANSLIT:;
#ARTISTTRANSLIT:Utada Hikaru;
#GENRE:R&B;
#CREDIT:;
#MENUCOLOR:;
#NEWMETERSYSTEM:NO;
#BANNER:Come Back To Me.png;
#BACKGROUND:Come Back To me-bg.png;
#LYRICSPATH:Come Back To Me.lrc;
#CDTITLE:;
#MUSIC:Come Back To Me.ogg;
#OFFSET:-6.234;
#SAMPLESTART:108.600;
#SAMPLELENGTH:12.600;
#SELECTABLE:YES;
#LISTSORT:;
#BPMS:0.000=77.000,171.000=76.000,173.000=71.500,175.000=66.000;
#STOPS:;
#BGCHANGES:-7.304=Come Back To Me.avi=1.000=1=1=0,
99999=-nosongbg-=1.000=0=0=0 // don't automatically add -songbackground-
;
#ATTACKS:;

//---------------dance-single - DDRDAIKENKAI----------------
#NOTES:
     dance-single:
     DDRDAIKENKAI:
     Hard:
     8:
     0.504,0.471,0.096,0.539,0.434: // measure 1
0000
0000
0000
0000
,  // measure 2
0000
0000
0000
0000
0000
0000
0000
0001
,  // measure 3
1000
0010
1000
0010
0100
0001
0100
0001
,  // measure 4
0000
0000
0010
0000
0001
0000
0010
0000
0100
0000
1000
0000
0100
0000
1000
0001
,  // measure 5
2000
0000
3002
0000
0003
0000
0100
0010
0200
0000
0320
0000
0030
0000
1000
0010
,  // measure 6
1000
0000
1000
0001
0000
0001
0100
0000
0010
0100
0010
0000
1000
0000
0000
1000
,  // measure 7
0001
0010
0001
0010
0100
1000
0100
1000
,  // measure 8
0000
0000
0010
0000
1000
0000
0010
0000
0100
0000
0001
0000
0100
0000
0001
0010
,  // measure 9
0002
0000
0023
0000
0030
0000
0001
0010
0200
0000
2300
0000
3000
0000
0100
0000
,  // measure 10
1000
0000
0000
0000
1000
0000
0010
0000
0000
0000
0010
0000
0100
0000
0000
0000
0001
0000
1000
0001
1000
0001
1000
0000
0001
0000
0010
0000
0001
0000
0010
0000
,  // measure 11
0002
0000
0023
0000
0230
0000
1300
0000
0001
0100
0001
0000
1000
0000
0010
0000
,  // measure 12
2000
0000
3200
0000
0320
0000
0031
0000
1000
0010
1000
0000
0001
0000
0010
0000
,  // measure 13
0002
0000
0203
0000
0320
0000
1030
0000
0010
0100
0010
0000
1000
0000
0001
0000
,  // measure 14
0020
0031
0002
0103
0200
0310
0020
1030
,  // measure 15
2002
0000
3003
0000
1000
0001
0100
0000
0001
1000
0100
0000
1000
0000
0010
0000
,  // measure 16
0220
0000
0330
0000
0010
1000
0010
1000
0100
0000
1000
0010
2000
0000
3001
0000
,  // measure 17
0022
0000
0033
0000
0001
0010
0001
0000
1000
0000
0001
0010
0001
0000
0100
0000
,  // measure 18
0220
0000
0330
0000
0010
1000
0010
0000
1000
0100
0010
0001
0100
0010
1000
0000
,  // measure 19
2002
0000
3003
0000
0001
0010
0100
0000
1000
0100
0010
0000
0002
0000
0103
0000
,  // measure 20
0220
0000
0330
0000
0010
1000
0010
1000
0001
0000
1000
0100
2000
0000
3001
0000
,  // measure 21
2002
0000
3003
0000
1000
0010
1000
0000
0001
0000
1000
0010
1000
0000
0000
1000
,  // measure 22
0010
1000
0010
1000
0100
0010
0100
0000
0010
0001
0010
0001
0100
0010
0100
0000
,  // measure 23
0001
0010
0100
1000
0010
0100
0001
0000
1000
0100
0010
0001
0100
0010
1000
0000
,  // measure 24
0010
0100
0010
0100
0001
1000
0100
0000
0010
0100
0010
0100
1000
0001
0100
0000
,  // measure 25
0001
0010
0001
0010
0100
1000
0001
0000
1000
0100
1000
0100
0010
0001
2000
0000
,  // measure 26
3001
0000
0100
0020
0000
0030
1000
0100
2000
0000
3010
0200
0000
0301
1000
0000
,  // measure 27
0001
0100
0010
1000
0010
0100
0001
0000
1000
0010
0100
0001
0100
0010
1000
0000
,  // measure 28
0010
1000
0100
0010
0001
0100
0010
0000
0100
0001
0010
0100
1000
0001
0100
0000
,  // measure 29
0001
1000
0010
0100
0001
0010
1000
0000
0010
0001
1000
0100
0001
1000
0010
0000
,  // measure 30
0002
0000
0013
0200
0000
0000
0310
0002
0000
0000
1003
0020
0000
1030
0100
0000
,  // measure 31
1000
0010
1000
0200
0000
0300
0010
0200
,  // measure 32
2000
0000
3300
0000
0010
0100
0010
0000
0100
0000
0010
0100
0010
0000
0010
1000
,  // measure 33
0000
0000
1000
0000
0001
0000
1000
0000
0001
0000
1000
0000
0001
0000
1000
0000
0000
0000
0100
1000
0100
1000
0100
0000
1000
0000
0100
0000
0010
0000
0001
0000
,  // measure 34
2002
0000
3003
0000
0001
0010
0100
0000
0010
0100
1000
0000
0002
0000
1003
0000
,  // measure 35
2200
0000
3300
0000
1000
0100
1000
0100
0010
0000
0100
0010
0002
0000
0103
0000
,  // measure 36
0202
0000
0303
0000
0100
0010
0100
0000
0010
1000
0010
0000
1000
0000
0100
0000
,  // measure 37
2200
0000
3300
0000
1000
0010
0100
0000
0010
1000
0100
0010
0001
0100
0010
0000
,  // measure 38
0220
0000
0330
0000
0100
0001
0010
0000
0100
0010
0001
0000
2000
0000
3010
0000
,  // measure 39
1020
0000
0000
0030
1000
0100
1000
0100
0010
0000
0100
1000
0020
0000
0130
0000
,  // measure 40
0220
0000
0330
0000
1000
0010
1000
0000
0001
0100
0001
0000
1000
0000
0000
1000
,  // measure 41
0001
0010
0100
1000
0010
0100
0001
0000
1000
0100
0010
0001
0100
0010
1000
0000
,  // measure 42
0020
0032
0023
2030
0000
3000
0100
0010
,  // measure 43
0200
2300
3020
2030
0000
3000
0100
0010
,  // measure 44
0200
0320
0032
0023
0000
0030
0001
0010
,  // measure 45
0200
0000
0300
0000
;

//---------------dance-single - DDRDAIKENKAI----------------
#NOTES:
     dance-single:
     DDRDAIKENKAI:
     Medium:
     4:
     0.304,0.289,0.048,0.218,0.000:
0000
0000
0000
0000
,
0000
0000
0000
0000
0000
0000
0000
0001
,
1000
0100
0010
0001
0000
0000
1000
0001
,
1000
0010
0100
0001
0000
0000
1000
0010
,
1000
0100
0010
0001
0000
0000
1000
0001
,
1000
0010
0100
0020
0000
1000
1030
0000
,
0010
0100
0001
0010
0000
0000
0100
0010
,
0100
1000
0010
0100
0000
0000
0010
0100
,
0001
0010
0100
1000
0000
0000
0010
1000
,
0100
1000
0100
0020
0000
0001
0031
0100
,
0001
1000
0001
2000
0000
3000
0001
0010
,
0001
0100
0001
0200
0000
0300
0010
1000
,
0100
0010
0100
0020
0000
0030
0001
0100
,
0010
1000
0010
1000
0001
1000
0001
1000
,
0002
0000
1003
0010
0100
0010
1000
0000
,
0002
0000
0103
0001
0010
0001
0100
0000
,
0020
0000
0130
0010
1000
0001
0100
0000
,
0020
0000
1030
1000
0001
0010
0100
1000
,
0002
0000
1003
0100
0010
0100
1000
0000
,
0002
0000
0103
0010
1000
0010
0100
0000
,
0002
0000
0013
0100
1000
0001
1000
0000
,
0002
0000
0103
0010
2000
0000
3200
0000
,
0310
0100
1000
1000
0010
0100
0001
0001
,
0010
0001
0100
0100
0010
1000
0100
0100
,
1000
0100
1000
1000
0001
0010
0001
0001
,
0100
0010
1000
0200
0000
1300
0002
0000
,
0013
0100
1000
1000
0001
0010
0100
0100
,
0010
0100
1000
1000
0100
1000
0001
0001
,
0100
0010
1000
1000
0010
0100
0001
0001
,
0010
0001
0100
0010
2000
0000
3100
0000
,
1000
0001
1000
0200
0000
0000
0310
0100
,
0100
0000
1000
0010
0100
0001
1000
0000
,
1000
0010
0100
0001
1000
0000
1000
0001
,
2001
0000
3001
0010
0100
1000
0001
0000
,
1002
0000
1003
0100
0010
0001
1000
0000
,
2001
0000
3001
0010
0100
1000
0001
0000
,
1002
0000
1003
1000
0010
0100
0010
1000
,
1002
0000
1003
0100
0010
0100
1000
0000
,
2002
3003
0001
0010
0100
0010
0001
0000
,
2002
3003
1000
0010
0100
0010
1000
0000
,
0010
1000
0100
0100
0010
0001
0100
0100
,
0010
1000
0010
2000
0000
3000
0001
0100
,
0001
0010
0001
0020
0000
0030
0100
1000
,
0010
0100
0010
0200
0000
0300
0001
1000
,
0002
0000
0003
0000
;

//---------------dance-single - DDRDAIKENKAI----------------
#NOTES:
     dance-single:
     DDRDAIKENKAI:
     Easy:
     3:
     0.212,0.213,0.055,0.171,0.000:
0000
0000
0000
0000
,
0000
0000
0000
0000
0000
0000
0000
1000
,
1000
0000
0001
0000
0100
0000
0010
0010
,
0100
0000
0001
0000
1000
0000
0100
0100
,
1000
0000
0000
0100
1000
0000
0000
0010
,
0010
0000
0100
0000
0001
1000
1000
0000
,
0100
0000
0100
0000
0010
0000
0001
0001
,
0001
0000
0100
0000
0010
0000
1000
1000
,
1000
0000
0000
0001
1000
0000
0000
0001
,
1000
0000
0001
0000
0100
0100
0010
0000
,
1000
0000
0010
0000
0100
0000
0001
0001
,
0010
0000
0100
0000
1000
0000
0001
0001
,
0100
0000
0010
0000
1000
0000
0100
0100
,
0010
0000
0001
0000
0100
0000
0010
0010
,
1000
0000
0001
0000
1000
1000
1000
0000
,
0001
0000
1000
0000
0001
0001
0001
0000
,
1000
0000
0001
0000
1000
1000
1000
0000
,
0010
0100
0101
1100
,
1000
0000
0001
0000
0010
0010
0010
0000
,
0001
0000
1000
0000
0010
0010
0010
0000
,
0100
0000
0001
0000
1000
1000
1000
0000
,
0200
0010
0020
0330
,
0010
0001
0010
0100
,
1000
0100
0010
0001
,
0010
0100
1000
0100
,
0010
0001
0010
0001
0020
0000
0130
0000
,
1000
0010
0100
0001
,
0100
0010
1000
0010
,
0100
0001
0100
0010
,
1000
0100
1000
0100
0020
0000
0031
0000
,
2000
0000
0001
3002
0000
0003
0010
0200
,
0000
0010
0010
0320
,
0100
0100
0200
0330
,
1001
1000
0002
0203
,
0310
0010
2000
3002
,
1003
0001
0200
0320
,
0130
0010
1010
0011
,
1001
1000
0200
0320
,
0031
0001
0200
0320
,
1030
1000
0200
0320
,
0031
0100
0101
1100
,
2000
0000
0000
3000
0000
0000
0010
0010
,
0020
0000
0000
0030
0000
0000
0100
0100
,
0200
0000
0000
0001
,
0002
0000
0303
0000
;
