#TITLE:Come Back To Me;
#SUBTITLE:(Seamus Haji & Paul Emanuel Radio Edit);
#ARTIST:Utada;
#TITLETRANSLIT:;
#SUBTITLETRANSLIT:;
#ARTISTTRANSLIT:Utada Hikaru;
#GENRE:TRANCE;
#CREDIT:;
#MENUCOLOR:;
#NEWMETERSYSTEM:NO;
#BANNER:Come Back To Me (Seamus Haji & Paul Emanuel Radio Edit).png;
#BACKGROUND:Come Back To Me (Seamus Haji & Paul Emanuel Radio Edit)-bg.png;
#LYRICSPATH:Come Back To Me (Seamus Haji & Paul Emanuel Radio Edit).lrc;
#CDTITLE:;
#MUSIC:Come Back To Me (Seamus Haji & Paul Emanuel Radio Edit).ogg;
#OFFSET:0.000;
#SAMPLESTART:110.300;
#SAMPLELENGTH:14.800;
#SELECTABLE:YES;
#LISTSORT:;
#BPMS:0.000=130.000;
#STOPS:;
#BGCHANGES:0.000=Come Back To Me (Seamus Haji & Paul Emanuel Radio Edit).avi=1.000=1=1=0,
99999=-nosongbg-=1.000=0=0=0 // don't automatically add -songbackground-
;
#ATTACKS:;

//---------------dance-single - DDRDAIKENKAI----------------
#NOTES:
     dance-single:
     DDRDAIKENKAI:
     Hard:
     7:
     0.482,0.455,0.234,0.146,0.154: // measure 1
0000
0000
0000
0000
,  // measure 2
0000
0000
0000
0000
,  // measure 3
0000
0000
0000
0000
,  // measure 4
0000
0000
0000
2000
,  // measure 5
3001
0100
0010
0000
1000
0100
0010
0000
,  // measure 6
0011
0000
1100
0000
0001
0100
1000
0000
,  // measure 7
0100
0001
1000
0000
0100
0010
0001
0000
,  // measure 8
0011
0000
1100
0000
0102
0000
1003
0001
,  // measure 9
0100
0000
0000
0010
0000
0000
0100
0000
0000
0010
0000
0000
1000
0000
0100
0000
,  // measure 10
0010
0000
0000
0001
0000
0000
0010
0000
0000
0001
0000
0000
1000
0000
0100
0000
,  // measure 11
1000
0000
0000
0010
0000
0000
0100
0000
0000
0001
0000
0000
2000
0000
0000
0000
,  // measure 12
3001
0000
0000
0100
0000
0000
0010
0000
0000
1000
0000
0000
0001
1000
0001
0000
,  // measure 13
1000
0010
0100
0000
0001
0010
0100
0000
,  // measure 14
1100
0000
0011
0000
1000
0010
0001
0000
,  // measure 15
0010
1000
0001
0000
0010
0100
1000
0000
,  // measure 16
1100
0000
0011
0000
2010
0000
3001
1000
,  // measure 17
0010
0000
0000
0010
0000
0000
1000
0000
0000
0001
0000
0000
0100
0000
0010
0000
,  // measure 18
1000
0000
0000
1000
0000
0000
0100
0000
0000
0010
0000
0000
0001
0000
0100
0000
,  // measure 19
0010
0000
0000
0010
0000
0000
1000
0000
0000
0001
0000
0000
0020
0000
0000
0000
,  // measure 20
0130
0000
0000
0010
0000
0000
0100
0000
0000
0010
0000
0000
0100
0010
0100
0000
,  // measure 21
0010
0000
0000
0010
0001
0000
0000
0001
0010
0000
0100
0000
1000
0000
0000
1000
,  // measure 22
0100
0000
0000
0100
0010
0000
0000
0010
0001
0000
0010
0000
0100
0000
1000
0000
,  // measure 23
0010
0000
0000
0010
0100
0000
0000
0100
0001
0000
1000
0000
0100
0000
0000
0100
,  // measure 24
1000
0000
0000
1000
0010
0000
0000
0010
0100
0000
0001
0000
1000
0000
0010
0000
,  // measure 25
1000
0000
0000
1000
0100
0000
0000
0100
0001
0000
0100
0000
0010
0000
0000
0010
,  // measure 26
0001
0000
0000
0001
0100
0000
0000
0100
1000
0000
0100
0000
0001
0000
0000
0000
,  // measure 27
1000
0100
0001
0000
0001
0100
1000
0000
,  // measure 28
1000
0010
0001
0001
0010
1000
0001
0000
,  // measure 29
1001
0000
0000
0001
1000
0000
0000
0000
0001
0000
0100
0000
0010
0000
0000
0000
,  // measure 30
1000
0100
1000
0100
0010
0001
0100
0000
,  // measure 31
0101
0000
0000
0001
0010
0000
0000
0000
0100
0000
1000
0000
0100
0000
1000
0000
,  // measure 32
0001
0100
1000
0100
0001
0010
0001
0000
,  // measure 33
0011
0000
0000
0010
0100
0000
0000
0000
0010
0000
0001
0000
0100
0000
0000
0000
,  // measure 34
0010
1000
0100
1000
0100
0010
0001
0001
,  // measure 35
2000
0000
3001
0100
0010
1000
0001
0000
,  // measure 36
1002
0000
1003
0010
0100
0001
2000
0000
,  // measure 37
3001
0010
0100
1000
0010
0100
0001
0000
,  // measure 38
1000
0100
0010
0001
0100
0010
1000
0000
,  // measure 39
0010
0100
0010
0100
0001
1000
0100
0000
,  // measure 40
0010
0100
0010
0100
1000
0001
0100
0000
,  // measure 41
0001
0010
0001
0010
0100
1000
0001
0000
,  // measure 42
1000
0100
1000
0100
0010
0001
2000
0000
,  // measure 43
3002
0000
1003
0200
0010
0300
0001
0200
,  // measure 44
0010
0300
1000
0200
0010
0300
1001
0000
,  // measure 45
0101
0001
0100
0001
0100
0010
1000
0000
,  // measure 46
0100
1000
0100
1000
0010
0100
0001
0000
,  // measure 47
0010
0100
1000
0010
0001
0010
1000
0000
,  // measure 48
0100
0010
0001
0100
1000
0100
0001
0000
,  // measure 49
1000
0001
0100
0010
1000
0100
0001
0000
,  // measure 50
0100
1000
0010
0001
1000
0100
0001
0000
,  // measure 51
0002
0000
1003
0200
0010
0300
0001
0200
,  // measure 52
0010
0300
1000
0002
0010
0003
0011
0000
,  // measure 53
1100
0000
0000
1000
0000
0000
0001
0000
1000
0000
0001
0000
0100
0000
0000
0000
,  // measure 54
0010
0000
0100
0001
1000
0000
1100
0000
,  // measure 55
0011
0000
0000
0010
0000
0000
0010
0000
0001
0000
0100
0000
0010
0000
1000
0000
,  // measure 56
0200
0000
1300
0010
0001
0000
0011
0000
,  // measure 57
1010
0000
0000
1000
0000
0000
1000
0000
0001
0000
0010
0000
0001
0000
0000
0000
,  // measure 58
0100
0000
0010
1000
0100
0000
1000
0000
,  // measure 59
1010
0000
0101
0000
0010
1000
0100
0000
,  // measure 60
0010
0001
0100
1000
0100
0001
0010
0000
,  // measure 61
1100
0000
0000
1000
0000
0000
1000
0000
0010
0000
1000
0000
0001
0000
0000
0000
,  // measure 62
1001
0000
1000
0001
0010
0000
0011
0000
,  // measure 63
1100
0000
0000
1000
0000
0000
1000
0000
0010
0000
1000
0000
0100
0000
0010
0000
,  // measure 64
0001
0100
1000
0100
0001
0000
0011
0000
,  // measure 65
1100
0000
0000
0001
0000
0000
0001
0000
0010
0000
0001
0000
0100
0000
0000
0000
,  // measure 66
0010
0000
1000
0100
0001
0000
0101
0100
,  // measure 67
1000
0010
0100
0001
0010
0100
1000
0000
,  // measure 68
0100
0010
0001
0100
0010
1000
0001
0000
,  // measure 69
2002
0000
0000
0000
,  // measure 70
3003
0000
0000
0000
;

//---------------dance-single - DDRDAIKENKAI----------------
#NOTES:
     dance-single:
     DDRDAIKENKAI:
     Medium:
     5:
     0.382,0.404,0.066,0.337,0.000: // measure 1
0000
0000
0000
0000
,  // measure 2
0000
0000
0000
0000
,  // measure 3
0000
0000
0000
0000
,  // measure 4
0000
0000
0000
0110
,  // measure 5
1001
0100
0010
1000
,  // measure 6
0100
0000
0010
0000
0001
0010
0100
0000
,  // measure 7
0000
1000
0010
0100
,  // measure 8
0001
0000
0010
0000
0001
0000
0100
0010
,  // measure 9
0200
0000
0302
0000
1003
0000
0100
0010
,  // measure 10
0200
0000
2300
0000
3000
0000
0001
0100
,  // measure 11
0002
0000
1003
0020
0000
1030
0200
0000
,  // measure 12
0310
0000
0001
0000
1000
0100
1000
0000
,  // measure 13
0001
0010
0100
1000
,  // measure 14
0010
0000
0100
0000
0001
0010
0001
0000
,  // measure 15
0000
0010
0001
0100
,  // measure 16
0010
0000
1000
0000
0100
0000
0010
0001
,  // measure 17
0020
0000
0230
0000
1300
0000
0001
0100
,  // measure 18
0020
0230
0301
0010
,  // measure 19
0002
0000
0103
0020
0000
0130
0001
0000
,  // measure 20
1000
0000
0100
0000
0010
0000
0001
0001
,  // measure 21
2000
3020
0032
0203
,  // measure 22
1300
1000
0010
1000
,  // measure 23
0200
0302
0023
2030
,  // measure 24
3100
0100
0001
0100
,  // measure 25
2000
3020
0032
0203
,  // measure 26
1300
1000
0010
1000
,  // measure 27
0200
1300
0020
0130
,  // measure 28
0002
0013
0200
0310
,  // measure 29
0002
0000
1003
0000
0001
0010
0001
0000
,  // measure 30
1000
0100
0010
0001
,  // measure 31
1000
0000
0001
0000
1000
0010
1000
0010
,  // measure 32
1000
0010
0100
0001
,  // measure 33
1000
0000
0100
0000
0010
0100
0010
0000
,  // measure 34
0100
0000
1000
0000
0001
0000
0000
0100
,  // measure 35
0020
0000
0130
0001
0100
0001
0100
0000
,  // measure 36
0020
0000
1030
0100
1000
0100
1000
0000
,  // measure 37
0001
0000
1000
0000
0001
1000
0100
0000
,  // measure 38
1000
0000
0001
0000
1000
0001
0100
0000
,  // measure 39
0010
0000
0100
0000
0010
1000
0100
0000
,  // measure 40
0010
0000
0100
0000
0010
0001
0100
0000
,  // measure 41
0010
0000
1000
0000
0001
1000
0010
0000
,  // measure 42
1000
0000
0001
0000
1000
0001
0010
0000
,  // measure 43
0200
0000
0310
0002
0000
0000
1003
0020
,  // measure 44
0000
0000
1030
0200
0000
1300
0000
0000
,  // measure 45
0001
0100
0001
0000
0100
0000
0010
0000
,  // measure 46
1000
0100
1000
0000
0010
0000
0001
0000
,  // measure 47
0010
1000
0010
0000
0100
0000
0001
0000
,  // measure 48
0010
0100
0010
0000
0001
0000
1000
0000
,  // measure 49
0001
0010
0001
0000
1000
0100
0010
0000
,  // measure 50
0100
1000
0100
0000
0010
0001
0100
0000
,  // measure 51
0020
0000
1030
0002
0000
0000
1003
0020
,  // measure 52
0000
0000
1030
0200
0000
1300
0001
0000
,  // measure 53
1001
0000
1000
0000
0001
1000
0100
0000
,  // measure 54
1000
0000
0010
1000
0100
0000
1100
0000
,  // measure 55
1000
0000
0001
0000
0100
0001
0100
0001
,  // measure 56
0010
0000
0010
0001
0100
0000
0110
0000
,  // measure 57
0010
0000
1000
0000
0001
0100
0001
0000
,  // measure 58
0010
0000
0100
1000
0100
0000
0110
0000
,  // measure 59
0010
0000
0001
0000
0100
0010
1000
0000
,  // measure 60
0010
1000
0100
0000
0010
0001
0100
0000
,  // measure 61
0002
0000
0013
0000
0100
0010
0100
0000
,  // measure 62
1000
0000
0001
1000
0100
0000
0110
0000
,  // measure 63
0010
0000
0001
0000
1000
0010
1000
0010
,  // measure 64
2000
0000
3010
0100
0001
0000
0011
0000
,  // measure 65
0010
0000
0001
0000
0100
0010
0100
0000
,  // measure 66
0001
0000
0010
0100
1000
0000
0000
1000
,  // measure 67
0020
0000
1030
0010
0100
0010
0100
0000
,  // measure 68
0002
0000
0103
0010
0100
0010
1000
0000
,  // measure 69
2002
0000
0000
0000
,  // measure 70
3003
0000
0000
0000
;

//---------------dance-single - DDRDAIKENKAI----------------
#NOTES:
     dance-single:
     DDRDAIKENKAI:
     Easy:
     3:
     0.278,0.303,0.073,0.256,0.000:
0000
0000
0000
0000
,
0000
0000
0000
0000
,
0000
0000
0000
0000
,
0000
0000
0000
1000
,
0001
0001
1000
1000
,
0010
0010
0100
0100
,
0000
0001
0001
0010
,
0001
0100
0010
1000
,
1000
0001
0000
1000
,
1000
0001
0000
1000
,
0010
1000
0100
0010
,
0002
0000
0000
0003
,
0100
0100
0010
0010
,
0100
0100
0001
1000
,
0000
0010
0010
1000
,
1000
0100
0010
0001
,
0001
1000
0000
0001
,
0001
1000
0000
0001
,
1000
0100
1000
0010
,
0220
0000
0330
0100
,
0100
0010
1000
0002
,
0000
0003
1000
0100
,
0010
0001
0010
0200
,
0000
0300
1000
1000
,
0010
1000
0100
2000
,
0000
3000
0010
0010
,
0100
0100
0010
0010
,
1000
1000
0001
0001
,
2002
3003
0001
0001
,
1000
0100
1000
0000
,
0020
0030
0100
0100
,
0001
0010
0001
0000
,
2000
3000
0010
0010
,
1000
0001
1000
0000
,
0002
0013
0100
1000
,
0020
1030
0100
0010
,
0001
0001
1000
1000
,
0010
0010
1000
1000
,
0001
0001
0010
0010
,
0001
0001
1000
1000
,
0010
0010
0100
0100
,
0010
0010
0100
0100
,
0020
0000
2030
0000
,
3002
0000
0203
0300
,
0010
0010
1000
1000
,
0001
0001
0010
0010
,
0001
0001
0100
0100
,
0010
0010
0100
0100
,
0010
0010
1000
1000
,
0100
0100
1000
1000
,
0020
0000
2030
0000
,
3002
0000
0103
0100
,
0220
0330
0010
1000
,
0100
0010
0001
0100
,
0220
0330
0100
0010
,
1000
0100
0010
0001
,
2002
3003
0001
1000
,
0010
0100
0001
1000
,
2002
3003
0001
0001
,
0010
0100
1000
0001
,
2002
3003
0001
0100
,
0010
1000
0100
0010
,
0220
0330
0010
0001
,
0100
0010
1000
0001
,
2002
3003
0001
1000
,
0010
0100
0001
1000
,
0010
0010
1000
1000
,
0100
0100
0001
0001
,
2002
0000
0000
0000
,
3003
0000
0000
0000
;
