#TITLE:Celebrate;
#SUBTITLE:;
#ARTIST:宇多田ヒカル;
#TITLETRANSLIT:;
#SUBTITLETRANSLIT:;
#ARTISTTRANSLIT:Utada Hikaru;
#GENRE:J-POP;
#CREDIT:;
#MENUCOLOR:;
#NEWMETERSYSTEM:NO;
#BANNER:Celebrate.png;
#BACKGROUND:Celebrate-bg.png;
#LYRICSPATH:Celebrate.lrc;
#CDTITLE:CDTitle.png;
#MUSIC:Celebrate.ogg;
#OFFSET:-0.024;
#SAMPLESTART:105.480;
#SAMPLELENGTH:16.080;
#SELECTABLE:YES;
#LISTSORT:;
#BPMS:0.000=118.000;
#STOPS:;
#BGCHANGES:;
#ATTACKS:;

//---------------dance-single - DDRDAIKENKAI----------------
#NOTES:
     dance-single:
     DDRDAIKENKAI:
     Hard:
     8:
     0.552,0.536,0.123,0.100,0.453: // measure 1
0000
0000
0000
0000
,  // measure 2
0000
0000
0000
0000
,  // measure 3
0000
0000
0000
0000
,  // measure 4
1000
0010
1000
0010
1000
0000
0001
0100
0001
0000
1000
0000
1100
0000
0100
0000
,  // measure 5
1001
0000
0000
1000
0001
0000
0100
0010
0000
0000
1000
0000
0100
0000
0000
0000
,  // measure 6
0010
0000
0000
0010
0001
0000
1000
0100
0000
0000
0010
0000
0001
0000
0000
0000
,  // measure 7
1000
0000
0000
1000
0001
0000
0100
0010
0000
0000
1000
0000
0100
0000
1000
0000
,  // measure 8
0010
0010
1000
1000
0001
1000
0200
0000
,  // measure 9
0310
0000
0000
0010
0001
0000
0100
0010
0000
0000
1000
0000
0100
0000
0000
0000
,  // measure 10
1000
0000
0000
1000
0001
0000
0100
0010
0000
0000
1000
0000
0100
0000
0000
0000
,  // measure 11
0010
0000
0000
0010
0100
0000
1000
0001
0000
0000
0100
0000
0010
0000
1000
0000
,  // measure 12
0010
0010
0100
0100
0001
1000
0200
0000
,  // measure 13
1300
0000
0000
1000
0001
0000
0000
0001
0100
0000
0010
0000
1000
0000
0000
0000
,  // measure 14
0001
0000
0000
0001
1000
0000
0000
1000
0010
0000
0100
0001
0100
0000
0000
0000
,  // measure 15
0010
0000
0000
0010
0100
0000
0000
0100
0010
0000
1000
0000
0100
0000
0000
0000
,  // measure 16
0010
0000
0000
0010
0100
0000
0000
0100
0010
0000
0001
0100
0001
0000
0000
0000
,  // measure 17
1000
0000
0000
1000
0010
0000
0000
0010
0001
0000
0010
0000
1000
0000
0000
0000
,  // measure 18
0100
0000
0000
0100
0001
0000
0000
0001
0100
0000
1000
0001
1000
0000
0000
0000
,  // measure 19
0010
0000
0000
0010
0001
0000
0000
0001
0010
0000
1000
0000
0100
0000
0000
0000
,  // measure 20
0010
0000
0000
0010
0100
0000
0000
0100
1000
0000
0010
0000
0110
0000
0000
0000
,  // measure 21
1002
0000
1003
0010
1000
0001
0100
0001
,  // measure 22
0010
0001
0100
0010
1000
0100
0010
0100
,  // measure 23
1000
0001
1000
0000
1000
0010
1000
0010
,  // measure 24
1000
0001
1000
0100
0001
0100
2000
0000
,  // measure 25
3001
0000
0001
0010
0001
0100
1000
0100
,  // measure 26
0001
0010
0100
0010
1000
0010
0001
0100
,  // measure 27
0010
1000
0010
0000
0010
0001
0010
1000
,  // measure 28
0001
0000
0100
0000
1000
0000
0100
0000
0001
0000
1000
0000
0001
0000
1000
0100
,  // measure 29
1000
0000
0000
0000
0100
1000
0010
0100
0001
0000
0010
0000
1000
0000
0010
0001
,  // measure 30
0010
0000
0000
0000
0001
0000
0100
0020
0000
0000
1030
0000
0001
0000
0010
0000
,  // measure 31
0001
0000
1000
0000
0100
0000
1000
0001
0000
1000
0001
0000
1000
0000
0001
0000
,  // measure 32
0100
0000
0010
0000
1000
0000
0010
0000
0110
0000
0010
0000
1010
0000
0010
0100
,  // measure 33
0010
0000
0000
0000
0100
0000
0001
0020
0000
0000
0031
0000
0100
0000
0010
1000
,  // measure 34
0010
0000
0000
0000
1000
0000
0001
2000
0000
0000
3001
0000
0010
0000
0001
0000
,  // measure 35
0100
0000
0010
0000
1000
0000
1000
0010
0000
0010
0100
0000
0001
0000
0010
0000
,  // measure 36
1000
0000
0010
0000
0001
0000
0100
0000
0110
0000
0010
0000
1010
0000
1000
0010
,  // measure 37
1000
0000
0000
1000
0100
0000
0100
1000
0000
0000
0100
1000
0100
0000
1000
0001
,  // measure 38
1000
0000
0000
1000
0001
0000
0001
0100
0000
0000
0010
0100
0010
0000
0100
0001
,  // measure 39
0100
0000
0000
0010
0100
0000
0100
0001
0000
0000
0100
0000
1000
0000
0100
0000
,  // measure 40
0010
0000
0010
0000
1000
0000
0100
0000
1100
0000
0100
0000
0110
0000
0100
1000
,  // measure 41
0100
0000
0000
0010
0001
0000
0001
0010
0000
0000
0100
1000
0100
0000
1000
0010
,  // measure 42
1000
0000
0000
0010
1000
0000
1000
0100
0000
0000
1000
0001
1000
0000
0010
0100
,  // measure 43
0010
0000
0000
0100
0001
0000
0001
1000
0000
0000
0100
0010
0100
0000
1000
0010
,  // measure 44
1000
1000
0001
0100
0110
0100
0102
0000
,  // measure 45
1003
0100
0000
0000
0010
0000
0001
0100
0000
0000
0010
0000
1000
0000
0001
0010
,  // measure 46
0001
0000
0000
0000
1000
0100
1000
0000
0000
0000
0000
0000
0020
0000
0000
0000
,  // measure 47
1030
0100
0000
0000
0010
0000
0001
0100
0000
0000
0010
0000
1000
0000
0001
0000
,  // measure 48
1000
0100
0000
0000
1000
0000
0001
0100
0000
0000
0000
0000
0020
0000
0000
0000
,  // measure 49
1030
0001
0000
1000
0000
0000
0000
0001
0000
0001
0100
0001
0100
0001
0000
0000
,  // measure 50
1000
0100
0000
0000
0010
0000
0001
0100
0000
0000
0010
0000
1000
0000
0100
1000
,  // measure 51
0100
1000
0000
0100
0000
0000
0000
1000
0000
1000
0010
0100
0010
0100
0001
0000
,  // measure 52
0100
0010
0000
1000
0000
0000
0001
1000
0100
0000
0000
0100
1000
0000
0001
1000
,  // measure 53
0001
0000
0000
0001
0010
0000
0001
0100
0001
0000
0100
0010
0100
0000
0010
1000
,  // measure 54
0010
0000
0000
0010
1000
0000
0010
0100
0010
0000
0100
0001
0100
0000
0001
0010
,  // measure 55
0001
0000
0100
0000
1000
0000
0100
0002
0000
0000
1003
0000
0100
0000
0010
0000
,  // measure 56
0001
0000
0100
0000
0010
0000
1000
0000
1010
0000
1000
0000
1100
0000
1000
0001
,  // measure 57
1000
0000
0000
1000
0001
0000
1000
0010
1000
0000
0010
0100
0010
0000
1000
0001
,  // measure 58
1000
0000
0000
1000
0010
0000
0100
0001
0100
0000
0010
1000
0010
0000
1000
0000
,  // measure 59
0100
0000
0010
0000
0100
0000
1000
0001
0000
1000
0001
0000
0100
0000
0010
0000
,  // measure 60
0100
1000
0100
0001
0011
0010
0110
0020
,  // measure 61
0032
0000
0000
0000
0000
0003
0000
0000
;

//---------------dance-single - DDRDAIKENKAI----------------
#NOTES:
     dance-single:
     DDRDAIKENKAI:
     Medium:
     6:
     0.394,0.373,0.085,0.231,0.012:
0000
0000
0000
0000
,
0000
0000
0000
0000
,
0000
0000
0000
0000
,
0000
0000
0000
0000
,
0001
0000
0100
0010
1000
0000
1001
0000
,
1000
0000
0010
0100
0001
0000
1001
0000
,
0001
0000
1000
0100
1000
0000
0010
0000
,
0100
0001
0100
0001
0020
0000
0230
0000
,
1300
0000
0010
1000
0100
0000
1100
0000
,
0001
0000
0010
0001
0100
0000
0101
0000
,
0010
0000
1000
0100
0001
0000
0201
0000
,
1300
0001
1000
0001
0200
0000
0320
0000
,
2030
0000
3020
0000
1030
0100
0020
0000
,
0032
0000
2003
0000
3100
0010
0001
0000
,
1000
0010
1000
0000
0001
0100
0001
0000
,
0020
0000
0230
0000
1300
0001
0100
0000
,
1010
0000
0101
0000
0010
1000
0100
0000
,
0011
0000
1100
0000
1000
0010
0001
0000
,
0010
1000
0001
0000
0010
0100
1000
0000
,
0001
0100
0010
0000
1000
0100
0001
0000
,
0200
0000
1000
1300
0001
0001
0100
0000
,
0010
0010
0100
0000
0001
0100
0001
0000
,
0010
0001
0010
0000
0100
1000
0100
1000
,
0010
0100
0010
0000
1000
0001
2000
0000
,
3001
0000
0100
0100
0010
0000
1000
0010
,
1000
0000
0001
0001
0100
0000
0010
0000
,
0100
0001
0100
0000
0010
0010
1000
0000
,
0010
0100
0010
0100
0001
1000
0001
1000
,
0100
0000
0010
0100
2000
0000
3001
0100
,
0001
0000
0100
0010
2000
0000
3010
0100
,
0010
0000
1000
0100
1000
0000
0010
0100
,
0001
0000
0010
0100
2000
0000
3001
0100
,
0001
0000
0100
0010
1000
0000
0001
1000
,
0001
0000
1000
0010
0100
0000
0010
1000
,
0100
0000
1000
0010
1000
0000
0010
0100
,
0010
0000
1000
0000
1100
0000
0101
0001
,
1000
0000
0100
0000
0010
0001
0100
0010
,
1000
0000
0100
0000
1000
0010
0100
0001
,
0010
0000
0100
0000
1000
0100
0010
0001
,
0100
0100
0010
0010
0200
0000
0302
0000
,
1003
0000
0001
1000
0100
0000
1000
0000
,
0001
0000
1000
0001
0010
0000
0001
0000
,
0100
0000
0010
1000
0100
0000
0010
0000
,
0100
0100
1000
1000
0002
0000
0003
0000
,
0200
0000
0301
0010
0001
0000
0010
0100
,
0010
0000
0100
1000
0100
0000
0020
0000
,
0031
0000
0001
0100
0001
0000
0100
0010
,
0100
0000
0010
1000
0010
0000
2000
0000
,
3001
0000
0000
0001
0000
0000
0000
0000
0001
0000
0100
0000
0100
0000
0000
0000
,
0010
0000
1000
0100
1000
0000
0100
0010
,
0001
0000
0000
0001
0000
0000
0000
0000
1000
0000
0001
0000
0001
0000
0000
0000
,
1000
0000
0000
1000
0000
0000
0000
0000
0002
0000
0000
0000
0000
0000
0100
0000
,
0103
0000
0010
1000
0002
0000
1003
1000
,
1000
0000
0010
0100
0002
0000
0103
0100
,
0100
0010
0100
0000
0010
1000
0100
0000
,
1000
0010
0001
0000
0010
1000
0001
0001
,
0001
0000
1000
0100
2000
0000
3001
0010
,
0001
0000
0100
0001
0200
0000
0310
0100
,
0010
0000
1000
0000
0100
1000
0100
0000
,
1000
0010
0100
0001
2000
0000
3100
0010
,
0020
0000
0000
0000
0000
0030
0000
0000
;

//---------------dance-single - DDRDAIKENKAI----------------
#NOTES:
     dance-single:
     DDRDAIKENKAI:
     Easy:
     4:
     0.269,0.280,0.015,0.215,0.000:
0000
0000
0000
0000
,
0000
0000
0000
0000
,
0000
0000
0000
0000
,
0000
0000
0000
0000
,
0010
1000
0100
0001
,
0010
0001
0100
1000
,
0010
0010
1000
1000
,
0001
0010
0200
2300
,
3100
0001
0010
1000
,
0100
1000
0010
0001
,
0100
0100
0001
0001
,
1000
0100
0020
0032
,
1003
1000
0001
0001
,
0010
0010
0100
0100
,
0200
2000
0000
3300
,
2000
0002
0000
3003
,
0010
0001
0100
0010
,
1000
0100
0010
0001
,
0020
0200
0000
0330
,
2000
0000
3002
0003
,
0110
0010
1000
0001
,
1000
1000
0001
0100
,
0010
0010
0100
0100
,
0001
2000
3002
1003
,
1001
0001
0001
1000
,
0001
0100
0010
0010
,
1000
0100
0010
0001
,
0100
0000
0100
0000
0002
0000
0003
1000
,
1000
0000
0001
0000
1000
0000
0100
1000
,
1000
0000
0010
0000
0100
0000
0001
1000
,
1000
0001
0010
0100
,
0010
0000
0001
0000
0200
0000
0301
1000
,
1000
0000
0010
0000
0100
0000
0010
1000
,
1000
0000
0100
0000
0010
0000
0001
1000
,
1000
0001
0100
0010
,
0100
0000
0001
0000
0020
0000
0130
1000
,
1000
0001
0001
0010
,
0010
0001
1000
0100
,
0100
1000
0001
0100
,
0010
0000
0010
0000
1000
0000
1000
0001
,
0001
1000
0001
1000
,
0010
0100
0010
0100
,
0001
0100
0001
0100
,
0010
1000
0010
1000
,
0200
0000
0000
0000
,
2300
0000
0000
3010
,
0200
0000
0000
0000
,
0302
0000
0000
1003
,
0002
0000
2003
0000
,
3100
0100
0010
0010
,
0200
0000
2300
0000
,
3020
0000
0000
0000
0230
0000
0300
0001
,
0001
0000
0001
0000
1000
0000
0001
0100
,
0100
0000
0100
0000
0010
0000
0100
0001
,
0001
0010
1000
0010
,
0001
0000
0001
0000
1000
0000
1000
0100
,
0100
0000
0010
0000
0100
0000
1000
0010
,
0010
0000
0100
0000
0001
0000
0100
0010
,
0010
0010
1000
1000
,
0001
0000
0010
0000
0100
0000
1000
0001
,
0002
0000
0000
0000
0000
0003
0000
0000
;
