#TITLE:Can You Keep a Secret?;
#SUBTITLE:;
#ARTIST:宇多田ヒカル;
#TITLETRANSLIT:;
#SUBTITLETRANSLIT:;
#ARTISTTRANSLIT:Utada Hikaru;
#GENRE:J-POP;
#CREDIT:;
#MENUCOLOR:;
#NEWMETERSYSTEM:NO;
#BANNER:Can You Keep a Secret.png;
#BACKGROUND:Can You Keep a Secret-bg.png;
#LYRICSPATH:Can You Keep a Secret.lrc;
#CDTITLE:;
#MUSIC:Can You Keep a Secret.ogg;
#OFFSET:-4.615;
#SAMPLESTART:57.610;
#SAMPLELENGTH:17.980;
#SELECTABLE:YES;
#LISTSORT:;
#BPMS:0.000=104.000;
#STOPS:;
#BGCHANGES:12.000=Can You Keep a secret.avi=1.000=0=0=0,
99999=-nosongbg-=1.000=0=0=0 // don't automatically add -songbackground-
;
#ATTACKS:;

//---------------dance-single - DDRDAIKENKAI----------------
#NOTES:
     dance-single:
     DDRDAIKENKAI:
     Hard:
     7:
     0.409,0.376,0.039,0.308,0.376: // measure 1
0000
0000
0000
0000
,  // measure 2
0000
0000
0000
0000
,  // measure 3
0000
0000
0000
0000
,  // measure 4
1000
0000
0100
0000
1000
0010
0000
1000
0000
0100
0000
1000
0000
0000
0000
0000
,  // measure 5
0001
0010
0000
0001
0000
0100
0000
0001
0000
0010
0000
0200
0000
0000
1300
0000
,  // measure 6
0010
0000
0001
0000
0010
1000
0000
0100
0000
0010
0000
0001
0000
0000
0000
0000
,  // measure 7
0100
1000
0000
0100
0000
0001
0000
0010
0000
0100
0000
2000
0000
0000
3001
0000
,  // measure 8
0100
0000
0020
0000
1030
0200
0000
1300
,  // measure 9
0020
0000
0000
0000
0000
0000
0130
0000
0000
2000
0000
0000
0000
0000
0000
3100
0000
0000
0001
0000
0000
0000
0010
0000
,  // measure 10
0200
0000
1300
0002
0000
0013
0001
0100
,  // measure 11
2000
0000
0000
0000
3100
0000
0001
0000
0010
0001
0010
0000
0011
0000
0000
0000
,  // measure 12
0002
0000
0003
0000
0002
0000
0003
0000
1000
0000
0100
0010
0000
0000
0100
0000
,  // measure 13
2000
0000
3000
0000
2000
0000
3000
0000
0001
0000
0010
0100
0000
0000
0010
0000
,  // measure 14
0001
0100
0010
0000
1000
0100
0010
0000
,  // measure 15
0002
0000
0000
0000
0000
2000
0000
0000
0000
3003
0000
0000
,  // measure 16
0010
0000
1000
0000
0100
0000
1000
0000
0010
0100
0000
0001
0000
0000
0010
0000
,  // measure 17
0001
0000
0100
0000
0010
0000
1000
0000
0100
0010
0000
0001
0000
0000
0010
0000
,  // measure 18
0100
0000
0100
1000
0010
0001
0010
0200
,  // measure 19
0000
0301
0010
2000
0000
3010
0011
0000
,  // measure 20
0001
0000
0100
0000
1000
0000
0100
0000
0010
1000
0000
0010
0000
0000
0100
0000
,  // measure 21
0001
0000
0010
0000
1000
0000
0010
0000
0001
0100
0000
0001
0000
0000
1000
0000
,  // measure 22
1100
0000
0011
0000
0001
0100
0010
0000
,  // measure 23
1000
0000
0100
0000
0010
0000
0002
0000
0000
0000
1000
0000
1003
0000
0001
0100
,  // measure 24
0001
0000
0100
0010
0000
0100
0010
0000
1000
0000
0000
1000
0000
0000
1000
0000
,  // measure 25
0001
0000
0010
0200
0000
0000
1300
0000
0010
0100
0010
0000
0100
0000
0001
0000
,  // measure 26
1000
0000
1000
0001
0000
0001
0100
0000
0100
0010
0000
0010
1000
0000
0000
0000
,  // measure 27
0001
0000
0010
0001
0000
0000
0010
0000
0100
1000
0000
0100
2000
0000
0000
0000
,  // measure 28
3001
0000
0100
0010
0000
0100
0010
0000
1000
0001
2000
0000
0000
0000
3001
0000
,  // measure 29
0001
0000
1000
0010
0000
0000
0010
0000
1000
0100
1000
0000
0010
0000
1000
0000
,  // measure 30
0100
0000
0010
0001
0000
0010
0002
0000
0000
0000
2003
0000
0000
0000
3001
0000
,  // measure 31
0100
0000
0010
1000
0000
0010
1000
0000
0100
0000
0002
0000
0000
0203
0000
0000
,  // measure 32
1300
0000
0001
0000
1000
0100
0000
2000
0000
0000
3010
0000
0100
0000
0002
0000
,  // measure 33
0000
0000
0013
0000
0001
0100
0000
0010
0000
1000
0000
0001
0000
0000
0000
0000
,  // measure 34
1000
0000
0100
0000
0010
0001
0000
0200
0000
0000
0010
0000
0010
0000
0310
0000
,  // measure 35
1000
0000
0100
0000
1000
0000
0010
0000
0100
0001
0000
0001
2000
0000
0000
0000
,  // measure 36
3100
0000
0001
0000
0100
0010
0000
0002
0000
0000
0103
0000
0010
0000
2000
0000
,  // measure 37
0000
0000
3100
0000
0010
0100
0000
1000
0000
0001
0000
1000
0000
0000
0000
0000
,  // measure 38
0010
0000
1000
0100
0000
0010
0002
0000
0000
0000
0103
0000
1000
0000
0100
0000
,  // measure 39
0001
0000
0010
0001
0000
0100
0010
0000
1000
0100
0000
0100
1000
0000
0001
0000
,  // measure 40
1000
0000
0000
0000
;

//---------------dance-single - DDRDAIKENKAI----------------
#NOTES:
     dance-single:
     DDRDAIKENKAI:
     Medium:
     5:
     0.321,0.282,0.019,0.193,0.000:
0000
0000
0000
0000
,
0000
0000
0000
0000
,
0000
0000
0000
0000
,
1000
0100
1000
0100
0010
0000
0001
0200
,
0000
0310
1000
0200
0000
1300
0001
0001
,
1000
0000
0001
0010
0001
0010
0100
0000
,
1000
0001
0100
0001
0100
0010
1000
0000
,
0001
0000
2000
0000
3100
0200
0000
0310
,
0020
0000
0031
0002
0000
1003
0100
0000
,
2000
0000
0010
3020
0000
0130
0100
0000
,
0002
0000
0100
0203
0000
0310
0010
0000
,
1000
0000
1000
0000
0001
0010
0100
0010
,
0001
0000
0001
0000
1000
0100
0010
0100
,
2000
0000
3020
0000
0130
0001
0020
0000
,
0200
0000
0000
0330
,
1000
0010
1000
0100
1000
0000
0001
0000
,
0100
0001
0010
0001
0100
0000
0010
0000
,
1000
0100
0001
0100
1000
0000
0001
0000
,
1000
0010
0001
0010
1000
0000
1001
0000
,
0001
0010
0001
0010
0100
0000
1000
0000
,
0010
0100
0010
0100
0001
0000
1000
0000
,
0100
0000
0010
0000
0001
0100
1000
0000
,
0100
0001
0010
0002
0000
0010
0020
0033
,
0100
1000
0100
1000
0010
0000
0010
0000
,
0100
0001
1000
0100
1000
0001
1000
0000
,
0001
0000
0100
0000
0010
1000
0100
0000
,
0010
0001
0100
0010
2000
0000
3002
0000
,
1003
0100
1000
0100
0010
0000
0010
0000
,
0001
0100
0001
1000
0010
1000
0001
0000
,
0010
0100
0010
0100
2000
0000
3010
0000
,
0100
0001
0100
0001
1000
0100
0010
0000
,
0001
0001
0001
0000
0100
0010
1000
0000
,
0100
0100
0100
0000
0010
0001
0100
0000
,
0010
1000
0100
0000
0010
0001
0100
0000
,
0010
1000
0100
0010
0002
0000
1003
0000
,
0010
0010
0010
0000
0100
0001
1000
0000
,
0100
0100
0100
0000
1000
0001
0100
0000
,
0001
1000
0100
0000
1000
0001
0100
0000
,
0001
1000
0010
0100
0001
1000
1001
0000
,
0100
0000
0000
0000
;

//---------------dance-single - DDRDAIKENKAI----------------
#NOTES:
     dance-single:
     DDRDAIKENKAI:
     Easy:
     2:
     0.205,0.207,0.087,0.164,0.000:
0000
0000
0000
0000
,
0000
0000
0000
0000
,
0000
0000
0000
0000
,
0000
1000
0001
0100
,
0010
0100
0001
1000
,
0000
0001
1000
0010
,
0100
0010
1000
0001
,
0000
1000
1000
0100
,
0020
0000
0000
0200
0000
0000
0330
0000
,
2000
0000
0000
0002
0000
0000
3003
0000
,
0200
0000
0000
0002
0000
0000
0303
0000
,
0010
0010
0100
1000
,
0010
0010
0100
0001
,
0020
0200
0330
2000
,
0002
0000
0000
3003
,
0010
0010
1000
1001
,
0100
0100
0001
1001
,
0001
1000
0010
0100
,
0001
0001
0000
1001
,
1000
0100
1000
1001
,
0001
0100
0001
1001
,
1000
0100
0010
0100
,
0220
0000
0000
0330
,
1000
0010
0200
0300
,
0001
1000
0100
0010
,
0100
0100
1000
1000
,
0001
0100
0220
0330
,
0010
1000
0200
0300
,
1000
0010
0100
0001
,
0010
0010
0100
0100
,
1000
0001
0000
0110
,
1001
0001
0100
0100
,
0010
1000
0100
0010
,
0001
0001
1000
1000
,
0010
1000
0200
0300
,
0010
0001
0100
0010
,
0100
0001
1000
0100
,
0010
0010
0100
0100
,
1000
0100
0010
0001
,
1000
0000
0000
0000
;
