#TITLE:COLORS;
#SUBTITLE:;
#ARTIST:宇多田ヒカル;
#TITLETRANSLIT:;
#SUBTITLETRANSLIT:;
#ARTISTTRANSLIT:Utada Hikaru;
#GENRE:J-POP;
#CREDIT:;
#MENUCOLOR:;
#NEWMETERSYSTEM:NO;
#BANNER:COLORS.png;
#BACKGROUND:COLORS-bg.png;
#LYRICSPATH:COLORS.lrc;
#CDTITLE:CDTitle.png;
#MUSIC:COLORS.ogg;
#OFFSET:-1.940;
#SAMPLESTART:47.740;
#SAMPLELENGTH:15.500;
#SELECTABLE:YES;
#LISTSORT:;
#BPMS:0.000=61.000,24.000=122.000,32.000=61.000,52.000=122.000,120.000=61.000,122.000=122.000,160.000=61.000,169.000=122.000,193.000=61.000;
#STOPS:;
#BGCHANGES:7.938=COLORS.avi=1.000=1=0=1,
200.750=COLORS-bg.png=1.000=1=0=1,
99999=-nosongbg-=1.000=0=0=0 // don't automatically add -songbackground-
;
#ATTACKS:;

//---------------dance-single - DDRDAIKENKAI----------------
#NOTES:
     dance-single:
     DDRDAIKENKAI:
     Hard:
     8:
     0.511,0.596,0.134,0.542,0.308:
0000
0000
0000
0000
,
0000
0000
0000
0000
0000
0000
0000
0000
0000
0000
0000
0000
0000
0000
0000
0000
0000
0000
0000
0000
0000
0000
0000
0000
0000
0000
0000
0000
0000
0000
1000
0001
,
2000
0000
0000
0000
0000
0000
0000
0000
3100
0000
0000
0000
0000
0000
0001
1000
0002
0000
0000
0000
0000
0000
0000
0000
0103
0000
0000
0000
0000
0000
0010
1000
,
0020
0000
0000
2030
0100
0000
3000
0000
1000
0010
0001
0010
1000
0100
0001
0100
,
2000
0000
3001
0000
0101
0000
0001
0100
0010
1000
0100
0000
1200
0000
1300
0000
,
0002
0000
0013
0000
0210
0000
1300
0001
0100
0010
1000
0100
0010
0100
0020
0000
,
0031
0010
0001
0010
1000
0010
0001
0010
,
0001
0100
1000
0100
0001
0100
0001
1000
,
0200
0000
0000
0000
1300
0000
0020
0000
0100
0000
0000
0000
0031
0000
0000
0000
0022
0000
0000
0000
0033
0000
0000
0000
1020
0000
0000
1030
0000
0000
0100
0000
,
0010
0001
1000
0100
0010
0200
0000
1300
0001
0100
1000
0000
1100
0000
0100
0001
,
1000
0000
0100
0000
0001
0000
0100
0000
0020
0000
0000
0000
0031
0000
1000
0000
0000
0000
1100
0000
0000
0000
0000
0000
0010
0000
0000
0001
0000
0000
1000
0000
,
0010
0100
0010
0100
0001
0020
0000
0031
0100
0010
1000
0000
1010
0000
0000
0010
,
1000
0100
1000
0001
0020
0000
0130
1000
0000
0000
0020
0000
2030
0000
3002
0000
,
0023
0000
0031
0200
0000
0310
1000
0100
,
1000
0010
0001
0010
1000
0100
0001
0100
,
0020
0000
0031
0100
0010
1000
0100
0000
,
2010
0000
0000
0000
3001
0000
1000
0100
1000
0000
0001
0000
0100
0000
0010
0000
,
0020
0000
1030
2000
0000
3001
0100
2000
,
0100
3000
0002
0100
0003
0010
1000
0100
,
0020
0000
0000
0031
0000
0000
1000
0000
0200
0000
0000
1300
0000
0000
0001
0000
,
0102
0000
0000
0000
0203
0000
0000
0000
0320
0000
0000
0000
1030
0000
0001
1000
,
0002
0000
1003
0100
0000
1000
0001
0010
,
0001
1000
0100
1000
0010
0100
0001
0010
,
0002
0000
0103
0001
1000
0010
0100
0000
,
0120
0000
0000
0000
1030
0000
0001
0010
0001
0000
1000
0000
0100
0000
0000
0000
,
2000
0000
3001
0020
0000
0031
1000
0100
,
2000
0000
3001
0200
0000
0310
1000
0100
,
0020
0000
0000
0031
0000
0000
0100
0000
2000
0000
0000
3100
0000
0000
0001
0000
,
0012
0000
1003
0100
1000
0001
0100
0001
,
1000
0000
0001
0010
0001
1000
0020
0000
,
0130
1000
0100
0001
0020
0000
0130
1000
0100
0000
1000
0000
0001
0000
0100
0000
,
0000
0001
0010
0001
1000
0100
0010
0001
,
1000
0010
0100
0001
0200
0000
0301
0010
,
0001
0000
0100
0000
0010
0000
1000
0000
0200
0000
0000
0000
1300
0000
0001
0010
,
0001
1000
0020
0000
1030
0100
1000
0020
,
0000
0130
0001
0010
1000
0010
0001
0200
,
0000
0000
0301
0000
1000
0000
0010
0000
1020
0000
0000
1030
0000
0000
0001
0000
,
0102
0000
0000
0013
0000
0000
0100
0000
0210
0000
0000
0000
2300
0000
0000
0000
,
3002
0000
0000
0000
0103
0000
0010
0100
0020
0000
0000
0000
1030
0000
0001
0000
,
0000
1000
0100
0010
0001
0010
0100
1000
,
0001
1000
0100
0010
0002
0000
1003
0020
0000
0000
0100
0000
2030
0000
0000
0001
,
3002
0000
0000
0000
2003
0000
3010
0020
0000
0130
0001
1000
0002
0000
0003
0000
,
0000
0001
0010
0001
0200
0000
0000
0310
0000
0000
1000
0000
0200
0000
0000
1300
,
0000
1000
0020
0000
0032
0000
0023
1000
,
1030
0000
0001
1000
0001
0000
0001
0000
0001
0000
0001
0000
0001
0000
0001
0000
,
0001
0000
0001
1000
0100
0000
0100
0000
0100
0000
0100
0000
0100
0000
0100
0000
,
0100
0000
0100
1000
0010
0000
0010
0000
0010
0000
0010
0000
0010
0000
0010
0000
,
0010
0000
0010
0100
1000
0000
1000
0000
1000
0000
1000
0000
1000
0000
1000
0000
,
1000
0000
0000
0000
0100
0000
0001
0000
0200
0000
0000
0000
0301
0000
0010
0000
0011
0000
0000
0000
0000
0000
0001
1000
0002
0000
0000
0000
1003
0000
0100
0000
,
1100
0000
0000
0000
0000
0000
0100
1000
0200
0000
0000
0000
0310
0000
0001
0000
1001
0000
0000
0000
0000
0000
0002
0000
1003
0000
0010
0000
0001
0000
0010
0000
,
1000
0100
0001
0100
0000
0000
0000
0000
0000
0000
0000
0000
0000
0000
0000
0000
;

//---------------dance-single - DDRDAIKENKAI----------------
#NOTES:
     dance-single:
     DDRDAIKENKAI:
     Medium:
     5:
     0.331,0.316,0.022,0.290,0.000:
0000
0000
0000
0000
,
0000
0000
0000
0000
,
2000
0000
3001
0000
0010
0001
0100
0000
,
0020
0000
1030
0000
0100
0100
0100
0100
,
1000
0001
0100
0010
1000
0100
0010
0100
,
1000
0001
0100
0010
0100
0010
1000
0010
,
1000
0000
1000
0000
0001
0100
0001
0000
,
1000
0100
1000
0000
0010
0100
0010
0000
,
0200
0301
2000
3001
,
0100
0010
1000
0100
1000
0000
0001
0000
,
0100
0001
0010
0100
0010
0010
0001
0001
,
1000
0100
1000
0001
0100
0000
0010
0000
,
1000
0100
0010
0100
1000
0001
0001
0001
,
1000
0000
0001
0100
0000
0010
0100
0000
,
0010
1000
0010
0000
1000
0100
1000
0000
,
0001
0000
1000
0010
0000
0100
0010
0000
,
0200
0000
0301
0010
0001
0010
0001
0000
,
2000
0000
3001
0100
0000
0010
1000
0000
,
0200
0000
0310
0001
0000
1000
0100
0000
,
1000
0001
1000
0000
0010
0100
0010
0000
,
0200
0302
2003
3200
,
0310
0000
0001
1000
0000
0001
1000
0000
,
0010
0100
0010
0000
1000
0001
1000
0000
,
0002
0000
1003
0010
0000
0100
0001
0000
,
2000
0000
3001
1000
0001
1000
0100
0000
,
0010
0000
0001
1000
0000
0100
1000
0000
,
0001
0000
1000
0001
0000
0100
0001
0000
,
0010
0001
0010
0000
0100
1000
0100
0000
,
0020
0000
0032
0000
0103
0010
0100
0010
,
2000
0000
3010
0100
0010
0100
0002
0000
,
2003
3200
0320
0032
1003
0000
0100
0010
,
0000
0100
1000
0000
0001
0010
0001
0000
,
0100
0010
0100
0000
0002
0000
0013
0100
,
0000
0010
0001
0000
2000
0000
3001
0100
,
0010
0000
0100
0010
2000
0000
3001
0100
,
0000
0001
1000
0001
2000
0000
3001
0010
,
0000
0001
0100
0001
0200
0000
0310
1000
,
0020
0000
1030
0001
2000
0000
3200
0000
,
0320
0000
0032
0000
2003
0000
3001
0100
,
0000
0010
0100
0000
0010
1000
0010
0000
,
1010
1000
0002
0000
0000
0000
2003
0000
,
3200
0320
0000
0032
,
0000
0203
0010
0320
,
1000
0000
1030
0000
0100
0000
0010
0001
,
0010
0100
1000
0000
1000
0001
1000
0001
,
0100
0000
0010
0000
0010
1000
0010
1000
,
0001
0000
0001
0000
0001
0010
0001
0010
,
0100
0000
0100
0000
0100
1000
0100
1000
,
0001
0000
1000
0000
0101
0000
0010
1000
,
0100
0000
1000
0000
0110
0000
0001
0001
,
0001
0001
0000
0000
0000
0000
0000
0000
;

//---------------dance-single - DDRDAIKENKAI----------------
#NOTES:
     dance-single:
     DDRDAIKENKAI:
     Easy:
     3:
     0.188,0.242,0.000,0.238,0.000:
0000
0000
0000
0000
,
0000
0000
0000
0000
,
0000
0000
0000
0000
,
0000
0000
0000
0000
,
0010
0010
0100
0001
,
1000
0100
0010
0100
,
1000
1000
0001
0001
,
0100
0100
0010
0010
,
2000
3001
0200
0310
,
2000
3001
0002
1003
,
0001
0100
0020
1030
,
2000
3001
0002
1003
,
0200
0000
2300
0000
,
3010
0000
0010
1000
,
0100
1000
0100
0010
,
0002
0000
0003
0000
,
2000
0000
3000
0000
,
0010
0000
0010
0000
,
0100
0001
1000
0000
,
0100
1000
0100
0010
,
0001
0001
0001
0001
,
1000
0000
0001
0100
,
0010
0000
1000
0100
,
1000
0000
0001
0000
,
0100
0000
0010
0000
,
1000
0000
0001
1000
,
0001
0000
0100
0010
,
0100
0100
0001
0001
,
0020
0000
0000
0000
,
0030
0200
2300
3002
,
0203
0000
0310
0000
,
1000
1000
0001
0000
,
0100
0001
0200
0300
,
0002
0003
2000
3000
,
0020
0030
2000
0000
,
3100
0100
0020
0000
,
0031
0001
0100
0100
,
0010
0010
1000
0001
,
1000
0001
0100
0010
,
0000
0010
1000
0100
,
2000
0002
3003
0020
,
0230
0301
0100
0020
,
0000
1030
1000
0100
,
0010
0002
0000
0000
,
0003
1000
1000
1000
,
1000
0001
0001
0001
,
0001
0010
0010
0010
,
0010
0010
0010
0010
,
0010
0200
1300
0020
,
0130
0002
0013
0002
,
0000
0000
0000
0003
0000
0000
0000
0000
0000
0000
0000
0000
0000
0000
0000
0000
;

//---------------dance-single - DDRDAIKENKAI----------------
#NOTES:
     dance-single:
     DDRDAIKENKAI:
     Beginner:
     1:
     0.116,0.149,0.000,0.015,0.000:
0000
0000
0000
0000
,
0000
0000
0000
0000
,
0000
0000
0000
0000
,
0000
0000
0000
0000
,
1000
0000
0001
0000
,
0100
0000
0010
0000
,
1000
0000
0001
0000
,
0100
0000
0010
0000
,
1000
0000
1000
0000
,
0100
0000
0100
0000
,
1000
0000
0001
0000
,
0100
0000
0100
0000
,
0010
0000
0100
0000
,
0001
0001
0000
1000
,
0000
0001
0000
1000
,
0000
0010
0000
0100
,
0000
0010
0000
0100
,
0000
0001
0000
0010
,
0000
1000
0000
0010
,
0000
0001
0000
1000
,
1000
1000
1000
1000
,
0000
0001
0000
1000
,
0000
0100
0000
1000
,
0000
0010
0000
0100
,
0000
0001
0000
0010
,
0000
0001
0000
0100
,
0000
0010
0000
1000
,
0000
0001
0000
0100
,
0100
0100
0100
0100
,
0000
0010
0010
0010
,
0010
0010
0010
0000
,
0100
0000
0010
0000
,
0010
0000
1000
0000
,
1000
0000
0001
0000
,
0001
0000
1000
0000
,
0100
0000
0010
0000
,
0001
0000
0100
0000
,
0010
0000
1000
1000
,
1000
1000
1000
0000
,
0001
0000
0100
0000
,
0010
0010
0000
1000
,
0000
0001
0000
0001
,
0000
1000
1000
1000
,
1000
2000
0000
3000
,
0000
0100
0100
0100
,
0000
0010
0010
0010
,
0000
0001
0001
0001
,
0000
0001
0001
0001
,
0000
1000
0000
0001
,
0000
0100
0000
0020
,
0030
0000
0000
0000
;

//---------------dance-single - DDRDAIKENKAI----------------
#NOTES:
     dance-single:
     DDRDAIKENKAI:
     Challenge:
     10:
     0.716,0.969,0.342,0.624,0.705:
0000
0000
0000
0000
,
0000
0000
0000
0000
,
0001
0000
1000
0000
0001
0000
1000
0000
1001
0000
0001
1000
0001
0000
2000
0000
3010
0000
0100
0000
0010
0000
0100
0000
0110
0000
0010
0100
0010
0000
2000
0000
,
3100
0000
1000
0000
0100
0000
1000
0000
1100
0000
0100
0010
0100
0000
0020
0000
0031
0010
0001
0000
0100
0010
0100
0000
0010
0100
0010
0000
1000
0001
2000
0000
,
3002
1000
1003
0010
1020
2030
3200
0320
0031
0100
0010
1000
2100
3200
0320
0230
,
1300
0000
0010
0000
0100
0000
0001
0000
0102
0000
0203
0000
0320
0000
2030
0000
3100
0000
0010
0001
0010
0000
0100
0000
1000
0000
0100
0000
0010
0001
0010
0100
,
1000
0001
1000
0000
0010
0000
0100
0000
0001
0010
0001
0000
0100
0000
0010
0000
,
1000
0100
1000
0000
0010
0000
0100
0000
0001
0010
0001
0000
1000
0000
0100
0000
,
1000
0001
0100
0010
1000
0010
0100
0001
0102
0000
0000
0000
2003
0001
3001
0100
,
0210
0000
0010
0000
0310
0000
1000
0000
1001
0000
0001
1000
0100
0000
2000
0000
0001
0000
3001
0000
0100
0000
0010
0000
0110
0000
0010
1000
0010
0000
0200
0000
,
0301
0000
0010
0000
0100
0000
1000
0000
1100
0000
0100
1000
0100
0000
0020
0000
0031
0000
1000
0000
0010
0000
0100
0000
0120
0000
0000
2030
0000
0000
3002
0000
,
0103
0000
0010
0000
0100
0000
0001
0000
0011
0000
0001
0010
0001
0000
2000
0000
3100
0000
1000
0000
0001
0000
0100
0000
0110
0000
0010
1000
0010
0000
1000
0000
,
1200
0000
1300
0000
0010
0000
0100
0000
0001
0000
0010
0000
0100
0000
2000
0000
3000
0000
0000
0000
0002
0000
0103
0000
2000
0000
3100
0000
0001
0010
0001
0010
,
0100
0000
1000
0000
0001
0000
0201
0000
0000
0000
0310
1000
0010
0000
1000
0000
,
0100
0000
1000
0000
0010
0100
0010
0000
1000
0000
0001
0000
1000
0100
1000
0000
,
0001
0000
0010
0000
0001
0000
0101
0000
0000
0000
1001
0000
1000
0000
0001
0100
,
0002
0000
1000
0000
1003
0000
0100
1000
0200
0000
0010
0000
0310
0000
0001
0010
,
0002
0000
1000
0000
2003
0000
0001
0000
3000
0000
0001
0000
0100
0000
0010
1000
,
0020
0100
0230
0001
0300
0001
0010
0001
,
0012
0000
0000
0103
0010
0000
1000
0000
1200
0000
0000
1300
0010
0000
0100
0000
,
0110
0000
0010
0000
2020
0000
3030
0000
1001
0000
0001
0000
0021
0000
0031
0010
,
0001
0000
0100
0000
0010
0000
0110
0000
0000
0000
1010
0000
1000
0100
1000
0000
,
0001
0000
0010
0000
0001
0100
0001
0000
0010
0000
1000
0000
0010
0001
0010
0000
,
0001
0000
1000
0000
0100
0000
1100
0000
0000
0000
0011
0000
0001
0000
0100
0010
,
0200
0000
0010
0000
0310
0000
1000
0001
2000
0000
0001
0000
3001
0000
1000
0100
,
2000
0000
0001
0000
3002
0000
0100
0000
0003
0000
0010
0000
1000
0000
0010
0100
,
0020
0100
0230
0001
0300
0001
0010
0100
,
1000
0000
0001
1000
0001
0000
0100
0000
0010
0000
0100
0001
0100
0000
0001
0000
,
0011
0000
0001
0010
0001
0000
1000
0100
1000
0000
0010
0100
0010
0000
1000
0001
,
2000
0000
3002
0013
2000
3010
0002
0000
,
0103
0000
1000
0000
0100
0000
0001
0000
0010
0000
0100
0000
1000
0100
0010
0001
1000
0000
0000
0000
0001
0000
0000
0000
0010
0000
0000
0000
0011
0000
0000
0000
,
0000
0000
1001
0000
0001
0000
0100
0000
0010
0000
1000
0000
0100
0010
0100
0000
,
1000
0000
0001
0000
1000
0010
1000
0000
0001
0000
0100
0000
0010
0000
1010
0000
,
0000
0000
0110
0000
0010
0000
1000
0001
2000
0000
0001
0000
3001
0000
1000
0001
,
0200
0000
0010
0000
0310
0000
1000
0100
0020
0000
0001
0000
0032
0000
1000
0000
,
0003
0000
1000
0000
0001
0000
0100
0001
0200
0000
0001
0000
0302
0000
1000
0000
,
0003
0000
1000
0000
0010
0000
0100
0000
0210
0000
0000
0310
1000
0000
0100
0000
,
2100
0000
0000
3100
0010
0000
0001
0000
0011
0000
0100
0000
1001
0000
0000
0000
,
1010
0000
0100
0000
1001
0000
0001
1000
0002
0000
1000
0000
2003
0000
0001
0000
,
3000
0001
0100
1000
1010
1000
0100
0001
,
0011
0000
0001
0000
0100
0000
0010
0000
1020
0000
0000
0000
2030
0000
3200
0000
0000
0000
0000
0000
1000
0000
0000
0000
0320
0000
0000
0000
0000
0000
0031
0100
,
0001
0010
0200
0000
2300
0000
3100
0200
0000
0310
0001
0100
0020
0000
0030
0000
,
0000
0200
0001
0301
1000
0000
0100
0001
0000
0000
0100
0000
1000
0000
0001
0100
,
0000
0000
0010
0000
1000
0000
1000
0001
1000
0000
1000
0001
0100
0000
0100
0010
,
0200
0000
0310
1000
0010
0000
0010
1000
0001
0000
0001
0010
0100
1000
0100
0010
,
0002
0000
1003
0010
1000
0000
1000
0100
0010
0000
0010
0001
0010
0100
0001
0100
,
2000
0000
3001
0010
0001
0000
0001
1000
0100
0000
0100
1000
0001
0100
1000
0100
,
0002
0000
1003
0010
1000
0000
1000
0100
0010
0000
0010
0100
0010
0001
0010
0100
,
2000
0000
0000
0000
3001
0000
2000
0000
0001
0000
0001
0000
0001
0000
3001
0000
2001
0000
3001
1000
0001
0000
0100
0020
0100
0000
0100
0000
0100
0000
0130
0000
,
0201
0000
0301
0100
0001
0000
0010
0002
0010
0000
0010
0000
0010
0000
0013
0000
0012
0000
1003
0100
1000
0000
1002
0000
1003
0100
0010
0000
0100
0010
0001
0000
,
0010
0001
0100
0000
0001
0100
1000
0000
0000
0000
0000
0000
0000
0000
0000
0000
0000
0000
0000
0000
0000
0000
0000
0000
0000
0000
0000
0000
0000
0000
0000
0000
;
